<?xml version="1.0" standalone="no"?>
<!DOCTYPE svg PUBLIC "-//W3C//DTD SVG 1.1//EN" "http://www.w3.org/Graphics/SVG/1.1/DTD/svg11.dtd" >
<svg xmlns="http://www.w3.org/2000/svg" xmlns:xlink="http://www.w3.org/1999/xlink" version="1.1">
<metadata>
Created by FontForge 20201107 at Wed Sep  1 18:46:30 2021
 By 
Copyright 2020 The Inter Project Authors (https://github.com/rsms/inter)
</metadata>
<defs>
<font id="Inter-SemiBold" horiz-adv-x="0" >
  <font-face 
    font-family="Inter SemiBold"
    font-weight="600"
    font-stretch="normal"
    units-per-em="2816"
    panose-1="2 0 5 3 0 0 0 2 0 4"
    ascent="2252"
    descent="-564"
    x-height="1536"
    cap-height="2048"
    bbox="-2231.02 -900 7274 3113"
    underline-thickness="192"
    underline-position="-560"
    unicode-range="U+0020-1F852"
  />
<missing-glyph horiz-adv-x="2904" 
d="M277 -640v512h2350v-512h-2350zM277 1472v512h2350v-512h-2350zM277 2176v512h2350v-512h-2350zM277 64v512h2350v-512h-2350zM277 768v512h2350v-512h-2350z" />
    <glyph glyph-name=".notdef" horiz-adv-x="2904" 
d="M277 -640v512h2350v-512h-2350zM277 1472v512h2350v-512h-2350zM277 2176v512h2350v-512h-2350zM277 64v512h2350v-512h-2350zM277 768v512h2350v-512h-2350z" />
    <glyph glyph-name=".null" 
 />
    <glyph glyph-name="nonmarkingreturn" horiz-adv-x="938" 
 />
    <glyph glyph-name="uni0020" unicode=" " horiz-adv-x="699" 
 />
    <glyph glyph-name="uni0021" unicode="!" horiz-adv-x="870" 
d="M629 2048l-33 -1446h-322l-32 1446h387zM435 -22q-91 0 -155.5 64t-64.5 156q0 90 64.5 154t155.5 64q89 0 154.5 -64t65.5 -154q0 -61 -30.5 -111t-80 -79.5t-109.5 -29.5z" />
    <glyph glyph-name="uni0022" unicode="&#x22;" horiz-adv-x="1115" 
d="M436 2048v-754h-276v754h276zM951 2048v-754h-276v754h276z" />
    <glyph glyph-name="uni0023" unicode="#" horiz-adv-x="1811" 
d="M958 0l336 2048h280l-336 -2048h-280zM35 528l47 280h1576l-47 -280h-1576zM238 0l336 2048h280l-336 -2048h-280zM154 1240l46 280h1576l-46 -280h-1576z" />
    <glyph glyph-name="uni0024" unicode="$" horiz-adv-x="1828" 
d="M842 -256v2560h164v-2560h-164zM1315 1485q-14 131 -117.5 204t-268.5 73q-116 0 -199 -35t-127 -95t-45 -137q0 -64 29.5 -111t80.5 -79.5t113 -54.5t125 -37l192 -48q116 -27 223.5 -73t193 -116t135.5 -169t50 -232q0 -180 -92 -316.5t-265.5 -213t-419.5 -76.5
q-239 0 -414.5 74t-274 216t-106.5 346h365q8 -107 66 -178t151.5 -106t209.5 -35q121 0 212.5 36.5t143.5 102t53 153.5q-1 80 -47 132.5t-128.5 88t-192.5 63.5l-233 60q-253 65 -399.5 197.5t-146.5 352.5q0 181 98.5 317t268.5 211.5t385 75.5q218 0 382.5 -75.5
t258.5 -209t97 -306.5h-357z" />
    <glyph glyph-name="uni0025" unicode="%" horiz-adv-x="2376" 
d="M1277 384v108q0 119 50.5 219t147.5 161t235 61q142 0 238 -60.5t145.5 -160.5t49.5 -220v-108q0 -119 -50 -219t-146.5 -161t-236.5 -61t-237 61t-146.5 161t-49.5 219zM1538 492v-108q0 -79 38 -145t134 -66q97 0 133.5 65.5t36.5 145.5v108q0 80 -35 146.5t-135 66.5
q-94 0 -133 -66.5t-39 -146.5zM236 1556v108q0 120 51 220t148 160.5t235 60.5q141 0 237.5 -60.5t145.5 -160.5t49 -220v-108q0 -120 -49.5 -219.5t-146.5 -159.5t-236 -60q-141 0 -237.5 60t-146.5 160t-50 219zM499 1664v-108q0 -80 37.5 -145.5t133.5 -65.5t132.5 65.5
t36.5 145.5v108q0 80 -35 146.5t-134 66.5q-95 0 -133 -67t-38 -146zM350 0l1408 2048h250l-1408 -2048h-250z" />
    <glyph glyph-name="uni0026" unicode="&#x26;" horiz-adv-x="1866" 
d="M798 -30q-210 0 -361 76t-232.5 205.5t-81.5 292.5q0 123 50.5 218t140 176t207.5 161l363 247q80 52 121.5 110t41.5 136q0 66 -55.5 125t-152.5 59q-65 0 -114.5 -30.5t-77 -79.5t-27.5 -104q0 -67 37.5 -136t98 -143t129.5 -157l961 -1126h-392l-798 914
q-89 104 -171.5 205t-135 210.5t-52.5 237.5q0 145 67 259.5t187.5 180.5t282.5 66t278 -64t179 -170t63 -231q0 -145 -72 -259.5t-200 -207.5l-414 -303q-102 -74 -146 -149.5t-44 -128.5q0 -81 41 -147t115.5 -105.5t174.5 -39.5q110 0 217 49.5t195 141.5t140 220.5
t52 285.5h311q0 -194 -43 -337.5t-111 -242t-144 -157.5q-24 -17 -46 -34t-46 -34q-108 -98 -252.5 -144t-283.5 -46z" />
    <glyph glyph-name="uni0027" unicode="'" horiz-adv-x="600" 
d="M436 2048v-754h-276v754h276z" />
    <glyph glyph-name="uni0028" unicode="(" horiz-adv-x="1108" 
d="M276 835q0 375 99.5 689.5t296.5 581.5h341q-76 -99 -142 -242.5t-114.5 -314t-76 -353.5t-27.5 -361q0 -237 47.5 -480t129 -450.5t183.5 -339.5h-341q-197 267 -296.5 581.5t-99.5 688.5z" />
    <glyph glyph-name="uni0029" unicode=")" horiz-adv-x="1108" 
d="M832 835q0 -374 -99.5 -688.5t-296.5 -581.5h-341q77 99 142.5 242t114 314t76 354t27.5 360q0 237 -47.5 480t-129 451t-183.5 340h341q197 -267 296.5 -581.5t99.5 -689.5z" />
    <glyph glyph-name="uni002A" unicode="*" horiz-adv-x="1530" 
d="M643 896l23 405l-340 -223l-122 212l363 182l-363 182l122 212l340 -223l-23 405h243l-22 -405l340 223l122 -212l-364 -182l364 -182l-122 -212l-340 223l22 -405h-243z" />
    <glyph glyph-name="uni002B" unicode="+" horiz-adv-x="1894" 
d="M790 121v1384h314v-1384h-314zM255 656v314h1384v-314h-1384z" />
    <glyph glyph-name="uni002C" unicode="," horiz-adv-x="831" 
d="M611 280l-13 -110q-14 -126 -49.5 -256.5t-74.5 -240.5t-63 -173h-244q14 61 38.5 166t47.5 236t31 266l7 112h320z" />
    <glyph glyph-name="uni002D" unicode="-" horiz-adv-x="1312" 
d="M1117 1002v-298h-922v298h922z" />
    <glyph glyph-name="uni002E" unicode="." horiz-adv-x="818" 
d="M409 -22q-91 0 -156 64t-64 156q-1 90 64 154t156 64q88 0 153.5 -64t66.5 -154q-1 -61 -31.5 -111t-80 -79.5t-108.5 -29.5z" />
    <glyph glyph-name="uni002F" unicode="/" horiz-adv-x="1066" 
d="M1022 2144l-660 -2452h-317l660 2452h317z" />
    <glyph glyph-name="uni0030" unicode="0" horiz-adv-x="1878" 
d="M939 -39q-247 0 -423.5 125.5t-271 363t-94.5 572.5q1 335 95.5 570.5t271 359.5t422.5 124t423 -124t271.5 -360t94.5 -570q0 -336 -94.5 -573.5t-271 -362.5t-423.5 -125zM939 274q192 0 303.5 189.5t111.5 558.5q0 244 -51 410t-144 250.5t-220 84.5
q-191 0 -302 -189.5t-112 -555.5q-1 -245 49.5 -412t143.5 -251.5t221 -84.5z" />
    <glyph glyph-name="uni0031" unicode="1" horiz-adv-x="1354" 
d="M1015 2048v-2048h-371v1687h-12l-479 -306v340l509 327h353z" />
    <glyph glyph-name="uni0032" unicode="2" horiz-adv-x="1750" 
d="M182 0v268l711 697q102 103 170 183t102 155t34 160q0 97 -44 166.5t-121 107.5t-175 38q-101 0 -177 -41.5t-117.5 -117.5t-41.5 -181h-353q0 195 89 339t245.5 223t359.5 79q206 0 362 -77t242.5 -211t86.5 -306q0 -115 -44 -226t-154.5 -246t-309.5 -327l-353 -359
v-14h892v-310h-1404z" />
    <glyph glyph-name="uni0033" unicode="3" horiz-adv-x="1835" 
d="M917 -28q-216 0 -383.5 74t-264.5 206t-103 305h376q5 -83 55 -144.5t133 -95.5t186 -34q110 0 195 38.5t133 107.5t47 159q1 93 -48 164t-141.5 111t-222.5 40h-181v286h181q107 0 187.5 37t126.5 104.5t45 156.5q1 87 -38.5 151.5t-111 100.5t-167.5 36q-94 0 -174 -34
t-129 -96.5t-52 -148.5h-357q4 172 99.5 302.5t255.5 204t359 73.5q205 0 356.5 -76.5t234.5 -205.5t83 -285q1 -173 -101.5 -290t-268.5 -153v-16q216 -30 331.5 -159.5t114.5 -321.5q0 -172 -97.5 -307.5t-268 -212.5t-390.5 -77z" />
    <glyph glyph-name="uni0034" unicode="4" horiz-adv-x="1875" 
d="M145 380v295l869 1373h246v-420h-150l-585 -927v-16h1213v-305h-1593zM1122 0v470l4 132v1446h350v-2048h-354z" />
    <glyph glyph-name="uni0035" unicode="5" horiz-adv-x="1781" 
d="M894 -28q-200 0 -358 75.5t-250.5 207.5t-98.5 302h360q10 -126 109 -205.5t238 -79.5q109 0 194 50t134 139t48 203q1 116 -49 206t-137 141.5t-200 51.5q-92 1 -181 -34t-141 -92l-335 55l107 1056h1188v-310h-881l-59 -543h12q57 67 161 111.5t228 44.5
q186 0 332 -87.5t230 -240.5t84 -350q0 -203 -93.5 -361.5t-259 -249t-382.5 -90.5z" />
    <glyph glyph-name="uni0036" unicode="6" horiz-adv-x="1825" 
d="M932 -28q-147 1 -287 51.5t-252 165t-178 305t-65 472.5q0 263 56 469t161 348.5t253.5 217.5t332.5 75q193 0 342.5 -76t241.5 -207.5t114 -296.5h-365q-28 118 -114.5 188.5t-218.5 70.5q-213 0 -327.5 -185t-115.5 -508h14q49 88 127 151t176.5 97.5t208.5 34.5
q180 0 323.5 -86t227.5 -236.5t83 -344.5q1 -202 -92 -362.5t-259 -252.5t-387 -91zM930 272q109 0 195 53t136 143t49 202q1 110 -47.5 199t-133.5 141t-194 52q-81 0 -151 -31t-122 -85.5t-81.5 -126t-30.5 -152.5q1 -107 50 -197t135 -144t195 -54z" />
    <glyph glyph-name="uni0037" unicode="7" horiz-adv-x="1653" 
d="M257 0l871 1724v14h-1011v310h1395v-317l-870 -1731h-385z" />
    <glyph glyph-name="uni0038" unicode="8" horiz-adv-x="1819" 
d="M910 -28q-223 0 -395.5 75t-270 205.5t-96.5 296.5q-1 129 56 237t154.5 180.5t217.5 92.5v14q-158 35 -255.5 161.5t-96.5 292.5q-1 158 88 282t244 195.5t354 71.5q197 0 351.5 -71.5t244 -195.5t89.5 -282q0 -166 -98.5 -292.5t-253.5 -161.5v-14q120 -20 216.5 -92.5
t154 -180.5t57.5 -237q0 -166 -98 -296.5t-269.5 -205.5t-393.5 -75zM910 258q115 0 200 39.5t132 111.5t48 166q-1 98 -50.5 173.5t-135 118.5t-194.5 43q-110 0 -196 -43t-135.5 -118.5t-48.5 -173.5q-1 -94 46 -165.5t132.5 -111.5t201.5 -40zM910 1191q94 0 166.5 38
t114.5 106t43 157q-1 88 -42 154.5t-114 103t-168 36.5q-97 0 -170.5 -36.5t-114 -103t-39.5 -154.5q-1 -89 40.5 -156.5t115 -106t168.5 -38.5z" />
    <glyph glyph-name="uni0039" unicode="9" horiz-adv-x="1825" 
d="M893 2076q147 -1 286.5 -51.5t251.5 -164t178 -303.5t66 -470q1 -264 -55.5 -471.5t-161.5 -350.5t-253 -218t-333 -75q-194 0 -343.5 76t-241.5 208t-113 302h365q28 -122 114.5 -193.5t218.5 -71.5q213 0 328 185t115 514h-14q-49 -88 -127 -151.5t-176.5 -97.5
t-208.5 -34q-180 0 -323.5 86t-227 236t-84.5 343q0 200 92.5 359.5t258.5 252t388 90.5zM894 1776q-108 0 -194.5 -52.5t-136 -142t-49.5 -199.5q1 -109 49.5 -198t133 -141t193.5 -52q81 0 151 31t122.5 86.5t82 126.5t28.5 150q0 105 -49.5 194t-135 143t-195.5 54z" />
    <glyph glyph-name="uni003A" unicode=":" horiz-adv-x="818" 
d="M409 -22q-91 0 -156 64t-64 156q-1 90 64 154t156 64q88 0 153.5 -64t66.5 -154q-1 -61 -31.5 -111t-80 -79.5t-108.5 -29.5zM409 1074q-91 0 -156 64.5t-64 155.5q-1 90 64 154.5t156 64.5q88 0 153.5 -64.5t66.5 -154.5q-1 -60 -31.5 -110t-80 -80t-108.5 -30z" />
    <glyph glyph-name="uni003B" unicode=";" horiz-adv-x="831" 
d="M611 280l-13 -110q-14 -126 -49.5 -256.5t-74.5 -240.5t-63 -173h-244q14 61 38.5 166t47.5 236t31 266l7 112h320zM445 1074q-91 0 -156 64.5t-64 155.5q-1 90 64 154.5t156 64.5q88 0 153.5 -64.5t66.5 -154.5q-1 -60 -31.5 -110t-80 -80t-108.5 -30z" />
    <glyph glyph-name="uni003C" unicode="&#x3c;" horiz-adv-x="1894" 
d="M263 669v288l1368 632v-355l-972 -417l11 19v-46l-11 19l972 -417v-355z" />
    <glyph glyph-name="uni003D" unicode="=" horiz-adv-x="1894" 
d="M282 978v309h1331v-309h-1331zM282 338v309h1331v-309h-1331z" />
    <glyph glyph-name="uni003E" unicode="&#x3e;" horiz-adv-x="1894" 
d="M1631 669l-1368 -632v355l972 417l-11 -19v46l11 -19l-972 417v355l1368 -632v-288z" />
    <glyph glyph-name="uni003F" unicode="?" horiz-adv-x="1532" 
d="M532 602v26q1 181 34.5 288t95.5 172.5t151 120.5q61 38 109.5 83.5t76.5 102t28 126.5q0 79 -37 137t-99.5 90t-139.5 32q-71 0 -134.5 -30.5t-105 -92t-46.5 -155.5h-356q5 190 92.5 318t232 192t319.5 64q191 0 336.5 -67t227 -190.5t81.5 -292.5q0 -114 -36.5 -204
t-103.5 -160t-159 -125q-81 -50 -132.5 -104t-76 -126.5t-25.5 -178.5v-26h-333zM706 -22q-90 0 -155 64t-65 156q0 90 65 154t155 64q89 0 154.5 -64t65.5 -154q0 -61 -30.5 -111t-80 -79.5t-109.5 -29.5z" />
    <glyph glyph-name="uni0040" unicode="@" horiz-adv-x="2814" 
d="M1473 -574q-315 0 -559.5 85.5t-412.5 251t-255 403.5t-88 544q1 299 89 539.5t257 412t413 263.5t555 92q293 0 519.5 -89t383 -247.5t237 -370t80.5 -458.5q0 -171 -26 -323.5t-88.5 -270.5t-169.5 -187.5t-268 -75.5q-101 -5 -177 19t-122.5 75.5t-58.5 126.5h-12
q-23 -60 -86.5 -109.5t-156.5 -77t-207 -22.5q-122 6 -225.5 56.5t-180 142t-118.5 221.5t-42 295q0 161 46 284t123.5 210t175.5 136.5t202 63.5q108 15 203 -3t158.5 -55t79.5 -81h14v112h279v-952q1 -75 36.5 -121t99.5 -46q80 0 129.5 63.5t72 196t21.5 339.5
q1 170 -44.5 308.5t-128.5 243.5t-198.5 175.5t-256.5 106.5t-301 36q-245 0 -431 -74.5t-311.5 -211.5t-189 -324.5t-63.5 -414.5q0 -243 66.5 -430.5t195.5 -315.5t319.5 -194t438.5 -66q114 0 223 18t196 42t134 42l85 -254q-62 -32 -167.5 -62t-232 -49t-255.5 -19z
M1403 294q127 0 203 49.5t109 147.5t32 244q0 136 -34 223t-109 129t-199 42q-112 0 -190.5 -51t-120 -140.5t-41.5 -203.5t33.5 -214.5t110 -163t206.5 -62.5z" />
    <glyph glyph-name="uni0041" unicode="A" horiz-adv-x="2038" 
d="M465 0h-396l721 2048h458l722 -2048h-396l-547 1628h-16zM478 803h1080v-298h-1080v298z" />
    <glyph glyph-name="uni0042" unicode="B" horiz-adv-x="1851" 
d="M202 0v2048h784q222 0 369.5 -69.5t221 -189.5t73.5 -272q0 -125 -48 -213.5t-129 -143.5t-181 -79v-20q109 -6 209.5 -66.5t164.5 -170.5t64 -266q0 -159 -77 -285.5t-232 -199.5t-390 -73h-829zM573 310h399q202 0 291.5 77.5t89.5 199.5q0 91 -45 164.5t-128 116
t-198 42.5h-409v-600zM573 1177h367q96 0 173 35.5t121.5 101t44.5 155.5q0 119 -83.5 196t-247.5 77h-375v-565z" />
    <glyph glyph-name="uni0043" unicode="C" horiz-adv-x="2094" 
d="M1955 1357h-374q-16 92 -59 163.5t-107 121.5t-145.5 75.5t-175.5 25.5q-167 0 -296 -83.5t-202 -244t-73 -391.5q0 -235 73.5 -395.5t202 -242t294.5 -81.5q92 0 172.5 24.5t145 72.5t109 118t61.5 160l374 -2q-21 -146 -90.5 -274t-181.5 -225.5t-262 -152t-333 -54.5
q-270 0 -482 125t-334 361t-122 566q0 331 123 566.5t335 360.5t480 125q171 0 318 -48t262 -140.5t189.5 -226t97.5 -304.5z" />
    <glyph glyph-name="uni0044" unicode="D" horiz-adv-x="2040" 
d="M896 0h-694v2048h708q305 0 524.5 -122.5t337.5 -351.5t118 -548q0 -320 -118.5 -550t-341 -353t-534.5 -123zM573 321h305q214 0 357 78.5t215 235t72 391.5t-72 390.5t-212.5 233t-348.5 77.5h-316v-1406z" />
    <glyph glyph-name="uni0045" unicode="E" horiz-adv-x="1711" 
d="M202 0v2048h1332v-311h-961v-556h892v-311h-892v-559h969v-311h-1340z" />
    <glyph glyph-name="uni0046" unicode="F" horiz-adv-x="1649" 
d="M202 0v2048h1312v-311h-941v-556h851v-311h-851v-870h-371z" />
    <glyph glyph-name="uni0047" unicode="G" horiz-adv-x="2126" 
d="M1574 1394q-25 81 -68.5 145.5t-104 110.5t-138.5 69.5t-170 23.5q-165 0 -294 -83t-202.5 -243.5t-73.5 -390.5q0 -232 73 -393t203 -244.5t302 -83.5q156 0 270.5 60t176.5 170.5t62 259.5l84 -13h-556v290h831v-246q0 -263 -112 -455t-308 -295.5t-450 -103.5
q-283 0 -496.5 127.5t-333 363t-119.5 559.5q0 248 70.5 443t197.5 331.5t298 208t372 71.5q170 0 317 -49.5t261.5 -140.5t188.5 -216t97 -276h-378z" />
    <glyph glyph-name="uni0048" unicode="H" horiz-adv-x="2095" 
d="M202 0v2048h371v-867h949v867h372v-2048h-372v870h-949v-870h-371z" />
    <glyph glyph-name="uni0049" unicode="I" horiz-adv-x="774" 
d="M573 2048v-2048h-371v2048h371z" />
    <glyph glyph-name="uni004A" unicode="J" horiz-adv-x="1579" 
d="M1010 2048h368v-1440q-1 -198 -84 -340.5t-231.5 -219t-345.5 -76.5q-180 0 -323.5 64.5t-227.5 191.5t-84 316h369q1 -83 36.5 -143t98.5 -92t145 -32q89 0 151 37.5t94.5 111.5t33.5 182v1440z" />
    <glyph glyph-name="uni004B" unicode="K" horiz-adv-x="1906" 
d="M202 0v2048h371v-941h25l799 941h453l-792 -919l799 -1129h-446l-611 878l-227 -268v-610h-371z" />
    <glyph glyph-name="uni004C" unicode="L" horiz-adv-x="1594" 
d="M202 0v2048h371v-1737h902v-311h-1273z" />
    <glyph glyph-name="uni004D" unicode="M" horiz-adv-x="2552" 
d="M202 2048h454l608 -1484h24l608 1484h454v-2048h-356v1407h-19l-566 -1401h-266l-566 1404h-19v-1410h-356v2048z" />
    <glyph glyph-name="uni004E" unicode="N" horiz-adv-x="2086" 
d="M1885 2048v-2048h-330l-965 1395h-17v-1395h-371v2048h332l964 -1396h18v1396h369z" />
    <glyph glyph-name="uni004F" unicode="O" horiz-adv-x="2182" 
d="M2032 1024q0 -331 -123.5 -566.5t-336 -360.5t-481.5 -125t-481.5 125.5t-336 361t-123.5 565.5q0 331 123.5 566.5t336 360.5t481.5 125t481.5 -125t336 -360.5t123.5 -566.5zM1659 1024q0 233 -72.5 393.5t-200.5 243t-295 82.5t-295 -82.5t-200.5 -243t-72.5 -393.5
t72.5 -393.5t200.5 -243t295 -82.5t295 82.5t200.5 243t72.5 393.5z" />
    <glyph glyph-name="uni0050" unicode="P" horiz-adv-x="1812" 
d="M202 0v2048h768q236 0 396.5 -88t243 -241.5t82.5 -348.5q0 -197 -83 -350t-245 -240.5t-399 -87.5h-509v305h459q138 0 226 48t130.5 132t42.5 193t-42.5 192t-131 129.5t-227.5 46.5h-340v-1738h-371z" />
    <glyph glyph-name="uni0051" unicode="Q" horiz-adv-x="2184" 
d="M965 688h336l199 -258l142 -168l341 -438h-360l-232 294l-99 140zM2032 1024q0 -331 -123.5 -566.5t-336 -360.5t-481.5 -125t-481.5 125.5t-336 361t-123.5 565.5q0 331 123.5 566.5t336 360.5t481.5 125t481.5 -125t336 -360.5t123.5 -566.5zM1659 1024
q0 233 -72.5 393.5t-200.5 243t-295 82.5t-295 -82.5t-200.5 -243t-72.5 -393.5t72.5 -393.5t200.5 -243t295 -82.5t295 82.5t200.5 243t72.5 393.5z" />
    <glyph glyph-name="uni0052" unicode="R" horiz-adv-x="1832" 
d="M202 0v2048h768q236 0 396.5 -82t243 -229.5t82.5 -343.5q0 -197 -83.5 -341.5t-245.5 -223t-398 -78.5h-547v308h497q138 0 226 38.5t130.5 113t42.5 183.5t-43 186.5t-131 118t-227 40.5h-340v-1738h-371zM1260 928l507 -928h-414l-498 928h405z" />
    <glyph glyph-name="uni0053" unicode="S" horiz-adv-x="1828" 
d="M1315 1485q-14 131 -117.5 204t-268.5 73q-116 0 -199 -35t-127 -95t-45 -137q0 -64 29.5 -111t80.5 -79.5t113 -54.5t125 -37l192 -48q116 -27 223.5 -73t193 -116t135.5 -169t50 -232q0 -180 -92 -316.5t-265.5 -213t-419.5 -76.5q-239 0 -414.5 74t-274 216
t-106.5 346h365q8 -107 66 -178t151.5 -106t209.5 -35q121 0 212.5 36.5t143.5 102t53 153.5q-1 80 -47 132.5t-128.5 88t-192.5 63.5l-233 60q-253 65 -399.5 197.5t-146.5 352.5q0 181 98.5 317t268.5 211.5t385 75.5q218 0 382.5 -75.5t258.5 -209t97 -306.5h-357z" />
    <glyph glyph-name="uni0054" unicode="T" horiz-adv-x="1858" 
d="M112 1737v311h1634v-311h-633v-1737h-368v1737h-633z" />
    <glyph glyph-name="uni0055" unicode="U" horiz-adv-x="2066" 
d="M1493 2048h371v-1338q0 -220 -103.5 -387t-290.5 -260.5t-437 -93.5q-251 0 -438 93.5t-290 260.5t-103 387v1338h371v-1307q0 -128 56.5 -228t159.5 -156.5t244 -56.5t244.5 56.5t159.5 156.5t56 228v1307z" />
    <glyph glyph-name="uni0056" unicode="V" horiz-adv-x="2038" 
d="M476 2048l533 -1612h21l532 1612h408l-722 -2048h-458l-721 2048h407z" />
    <glyph glyph-name="uni0057" unicode="W" horiz-adv-x="2835" 
d="M633 0l-578 2048h399l369 -1505h19l394 1505h363l395 -1506h18l369 1506h399l-578 -2048h-366l-410 1437h-16l-411 -1437h-366z" />
    <glyph glyph-name="uni0058" unicode="X" horiz-adv-x="1944" 
d="M512 2048l451 -750h16l453 750h423l-631 -1024l641 -1024h-430l-456 745h-16l-456 -745h-428l647 1024l-639 1024h425z" />
    <glyph glyph-name="uni0059" unicode="Y" horiz-adv-x="1984" 
d="M62 2048h419l501 -906h20l501 906h419l-745 -1284v-764h-370v764z" />
    <glyph glyph-name="uni005A" unicode="Z" horiz-adv-x="1838" 
d="M164 0v231l1050 1506h-1056v311h1516v-231l-1049 -1506h1055v-311h-1516z" />
    <glyph glyph-name="uni005B" unicode="[" horiz-adv-x="1108" 
d="M310 -435v2541h723v-278h-375v-1986h375v-277h-723z" />
    <glyph glyph-name="uni005C" unicode="\" horiz-adv-x="1066" 
d="M705 -308l-660 2452h317l660 -2452h-317z" />
    <glyph glyph-name="uni005D" unicode="]" horiz-adv-x="1108" 
d="M798 2106v-2541h-723v277h375v1986h-375v278h723z" />
    <glyph glyph-name="uni005E" unicode="^" horiz-adv-x="1355" 
d="M642 1842h72v-107h-72v107zM99 1120l419 877h320l418 -877h-294l-295 655h21l-293 -655h-296z" />
    <glyph glyph-name="uni005F" unicode="_" horiz-adv-x="1318" 
d="M1321 0v-289h-1323v289h1323z" />
    <glyph glyph-name="uni0060" unicode="`" horiz-adv-x="1400" 
d="M718 1738l-307 457h355l223 -457h-271z" />
    <glyph glyph-name="uni0061" unicode="a" horiz-adv-x="1618" 
d="M628 -31q-146 0 -262.5 52.5t-184 155.5t-67.5 254q0 130 48 215t131 136t187.5 77.5t216.5 38.5q135 14 219 25.5t122.5 36t38.5 76.5v6q0 113 -67 175t-193 62q-133 0 -210.5 -58t-104.5 -137l-338 48q40 140 132 234.5t225 142t294 47.5q111 0 221 -26t201 -85.5
t146.5 -161.5t55.5 -255v-1028h-348v211h-12q-33 -64 -92.5 -119.5t-149 -89t-209.5 -33.5zM722 235q109 0 189 43.5t123.5 115.5t43.5 157v181q-17 -14 -57.5 -26t-90.5 -21t-99 -16t-85 -12q-81 -11 -145 -36t-101 -69.5t-37 -114.5q0 -100 73 -151t186 -51z" />
    <glyph glyph-name="uni0062" unicode="b" horiz-adv-x="1775" 
d="M202 0v2048h362v-766h15q28 56 79 119.5t138 109t222 45.5q178 0 321.5 -90.5t228 -267t84.5 -432.5q0 -253 -83 -430t-226 -270t-324 -93q-132 0 -219 44t-139.5 106.5t-81.5 118.5h-21v-242h-356zM557 768q0 -149 42.5 -261t123 -174.5t195.5 -62.5q120 0 201 64.5
t122.5 177t41.5 256.5q0 143 -41 254t-122 174t-202 63q-116 0 -197 -61t-122.5 -171t-41.5 -259z" />
    <glyph glyph-name="uni0063" unicode="c" horiz-adv-x="1626" 
d="M856 -30q-230 0 -394.5 101t-253 279.5t-88.5 411.5q0 234 90 413.5t254.5 280t389.5 100.5q187 0 331.5 -68.5t230.5 -193t98 -290.5h-346q-21 111 -99.5 185.5t-209.5 74.5q-111 0 -195 -59.5t-130.5 -170.5t-46.5 -266q0 -157 46 -269.5t129.5 -173t196.5 -60.5
q80 0 143.5 30.5t106.5 88.5t59 141h346q-13 -163 -96 -288.5t-226 -196t-336 -70.5z" />
    <glyph glyph-name="uni0064" unicode="d" horiz-adv-x="1775" 
d="M756 -27q-181 0 -324 93t-226 270t-83 430q0 256 84.5 432.5t228.5 267t321 90.5q135 0 222 -45.5t138 -109t79 -119.5h15v766h363v-2048h-356v242h-22q-28 -56 -81 -118.5t-140 -106.5t-219 -44zM857 270q115 0 196 62.5t123 174.5t42 261t-41.5 259t-122 171t-197.5 61
q-121 0 -202 -63t-122 -174t-41 -254q0 -144 41.5 -256.5t123 -177t200.5 -64.5z" />
    <glyph glyph-name="uni0065" unicode="e" horiz-adv-x="1669" 
d="M866 -30q-231 0 -398.5 96.5t-257.5 274t-90 418.5q0 237 90.5 416.5t253.5 280t383 100.5q142 0 268.5 -45.5t224 -140.5t153.5 -241.5t56 -348.5v-111h-1259v244h912q-1 104 -45 185.5t-122.5 128.5t-182.5 47q-111 0 -195 -53.5t-130.5 -140t-47.5 -189.5v-213
q0 -134 49 -229.5t137 -146t206 -50.5q79 0 143 22.5t111 66.5t71 109l338 -38q-32 -134 -121.5 -233.5t-228.5 -154t-318 -54.5z" />
    <glyph glyph-name="uni0066" unicode="f" horiz-adv-x="1062" 
d="M964 1536v-280h-908v280h908zM283 0v1681q0 155 64.5 258t173.5 154t242 51q94 0 167 -15t108 -27l-72 -280q-23 7 -58 14.5t-78 7.5q-101 0 -142.5 -48.5t-41.5 -138.5v-1657h-363z" />
    <glyph glyph-name="uni0067" unicode="g" horiz-adv-x="1761" 
d="M854 -608q-195 0 -335 52.5t-225 140.5t-118 195l326 79q22 -45 64 -89.5t113.5 -74t180.5 -29.5q154 0 255 74.5t101 244.5v291h-18q-28 -56 -81.5 -115t-141 -99t-219.5 -40q-177 0 -320.5 83.5t-228 250t-84.5 417.5q0 253 84.5 427.5t228.5 265t321 90.5
q135 0 222.5 -45.5t139.5 -109t79 -119.5h20v254h357v-1561q0 -197 -94 -326t-257 -193t-370 -64zM857 306q115 0 196 56t123 161t42 252q0 145 -41.5 254t-122 169.5t-197.5 60.5q-121 0 -202 -63t-122 -172.5t-41 -248.5q0 -141 41.5 -246.5t123 -164t200.5 -58.5z" />
    <glyph glyph-name="uni0068" unicode="h" horiz-adv-x="1726" 
d="M548 900v-900h-362v2048h354v-773h18q54 130 167.5 205.5t289.5 75.5q160 0 279 -67t184.5 -196t65.5 -315v-978h-362v922q0 155 -79.5 241.5t-222.5 86.5q-96 0 -171.5 -41.5t-118 -119.5t-42.5 -189z" />
    <glyph glyph-name="uni0069" unicode="i" horiz-adv-x="734" 
d="M186 0v1536h362v-1536h-362zM368 1754q-86 0 -148 57.5t-62 138.5q0 82 62 139.5t148 57.5q87 0 148.5 -57.5t61.5 -139.5q0 -81 -61.5 -138.5t-148.5 -57.5z" />
    <glyph glyph-name="uni006A" unicode="j" horiz-adv-x="734" 
d="M186 1536h362v-1624q0 -166 -63 -274t-182 -161t-289 -53q-20 0 -37 0.5t-37 1.5v295q15 -1 27 -1.5t25 -0.5q104 0 149 50.5t45 147.5v1619zM366 1754q-87 0 -148.5 57.5t-61.5 138.5q0 82 61.5 139.5t148.5 57.5q86 0 147.5 -57.5t61.5 -139.5q0 -81 -61.5 -138.5
t-147.5 -57.5z" />
    <glyph glyph-name="uni006B" unicode="k" horiz-adv-x="1602" 
d="M516 482l-1 437h58l552 617h423l-679 -756h-75zM186 0v2048h362v-2048h-362zM1150 0l-500 699l244 255l689 -954h-433z" />
    <glyph glyph-name="uni006C" unicode="l" horiz-adv-x="734" 
d="M548 2048v-2048h-362v2048h362z" />
    <glyph glyph-name="uni006D" unicode="m" horiz-adv-x="2528" 
d="M186 0v1536h346v-261h18q48 132 159 206.5t265 74.5q156 0 263.5 -75.5t151.5 -205.5h16q51 128 172.5 204.5t288.5 76.5q212 0 346 -134t134 -391v-1031h-363v975q0 143 -76 209.5t-186 66.5q-131 0 -204.5 -81.5t-73.5 -211.5v-958h-355v990q0 119 -71.5 190t-186.5 71
q-78 0 -142 -39.5t-102 -111t-38 -166.5v-934h-362z" />
    <glyph glyph-name="uni006E" unicode="n" horiz-adv-x="1717" 
d="M548 900v-900h-362v1536h346v-261h18q53 129 169.5 205t288.5 76q159 0 277.5 -68t184 -197t64.5 -313v-978h-362v922q0 154 -79.5 241t-219.5 87q-95 0 -168.5 -41.5t-115 -119.5t-41.5 -189z" />
    <glyph glyph-name="uni006F" unicode="o" horiz-adv-x="1712" 
d="M856 -30q-225 0 -390 99t-255.5 277t-90.5 416t90.5 417t255.5 278t390 99t390 -99t255.5 -278t90.5 -417t-90.5 -416t-255.5 -277t-390 -99zM858 260q122 0 204 67.5t122.5 181.5t40.5 254q0 141 -40.5 255.5t-122.5 182.5t-204 68q-125 0 -207.5 -68t-123 -182.5
t-40.5 -255.5q0 -140 40.5 -254t123 -181.5t207.5 -67.5z" />
    <glyph glyph-name="uni0070" unicode="p" horiz-adv-x="1759" 
d="M186 -576v2112h356v-254h21q28 56 79 119.5t138 109t222 45.5q178 0 321.5 -90.5t228 -267t84.5 -432.5q0 -253 -83 -430t-226 -270t-324 -93q-132 0 -219 44t-139.5 106.5t-81.5 118.5h-15v-818h-362zM541 768q0 -149 42.5 -261t123 -174.5t195.5 -62.5q120 0 201 64.5
t122.5 177t41.5 256.5q0 143 -41 254t-122 174t-202 63q-116 0 -197 -61t-122.5 -171t-41.5 -259z" />
    <glyph glyph-name="uni0071" unicode="q" horiz-adv-x="1759" 
d="M1211 -576v818h-15q-28 -56 -81 -118.5t-140 -106.5t-219 -44q-181 0 -324 93t-226 270t-83 430q0 256 84.5 432.5t228.5 267t321 90.5q135 0 222 -45.5t138 -109t79 -119.5h22v254h356v-2112h-363zM857 270q115 0 196 62.5t123 174.5t42 261t-41.5 259t-122 171
t-197.5 61q-121 0 -202 -63t-122 -174t-41 -254q0 -144 41.5 -256.5t123 -177t200.5 -64.5z" />
    <glyph glyph-name="uni0072" unicode="r" horiz-adv-x="1117" 
d="M186 0v1536h351v-256h16q42 133 144.5 205.5t234.5 72.5q30 0 67.5 -2.5t62.5 -7.5v-333q-23 8 -72.5 14.5t-95.5 6.5q-99 0 -177.5 -42.5t-123.5 -117.5t-45 -173v-903h-362z" />
    <glyph glyph-name="uni0073" unicode="s" horiz-adv-x="1546" 
d="M1400 1130l-330 -36q-14 50 -48.5 94t-92.5 71t-142 27q-113 0 -189.5 -49t-75.5 -127q-1 -67 49.5 -109t167.5 -69l262 -56q218 -47 324.5 -149t107.5 -267q-1 -145 -84.5 -255.5t-231.5 -172.5t-340 -62q-282 0 -454 118.5t-205 330.5l353 34q24 -104 102 -157t203 -53
q129 0 207.5 53t78.5 131q0 66 -50.5 109t-156.5 66l-262 55q-221 46 -327 155.5t-105 277.5q-1 142 77.5 246.5t219 162t324.5 57.5q270 0 425.5 -115t192.5 -311z" />
    <glyph glyph-name="uni0074" unicode="t" horiz-adv-x="1070" 
d="M953 1536v-280h-883v280h883zM288 1904h362v-1442q0 -73 22.5 -111.5t59.5 -52.5t82 -14q34 0 62.5 5t43.5 9l61 -283q-29 -10 -82.5 -22t-130.5 -14q-136 -4 -245 41.5t-172.5 141.5t-62.5 240v1502z" />
    <glyph glyph-name="uni0075" unicode="u" horiz-adv-x="1713" 
d="M1165 646v890h362v-1536h-351v273h-16q-52 -129 -170.5 -211t-291.5 -82q-151 0 -266.5 67.5t-180.5 197t-65 313.5v978h362v-922q0 -146 80 -232t210 -86q80 0 155 39t123.5 116.5t48.5 194.5z" />
    <glyph glyph-name="uni0076" unicode="v" horiz-adv-x="1622" 
d="M1558 1536l-547 -1536h-400l-547 1536h386l353 -1141h16l354 1141h385z" />
    <glyph glyph-name="uni0077" unicode="w" horiz-adv-x="2358" 
d="M503 0l-434 1536h369l270 -1080h14l276 1080h365l276 -1074h15l266 1074h370l-435 -1536h-377l-288 1038h-21l-288 -1038h-378z" />
    <glyph glyph-name="uni0078" unicode="x" horiz-adv-x="1584" 
d="M482 1536l310 -567l315 567h383l-463 -768l471 -768h-381l-325 553l-322 -553h-384l468 768l-456 768h384z" />
    <glyph glyph-name="uni0079" unicode="y" horiz-adv-x="1622" 
d="M411 -576q-74 0 -136.5 11.5t-99.5 26.5l84 282q79 -23 141 -22t109.5 38.5t80.5 124.5l31 83l-557 1568h384l354 -1160h16l355 1160h385l-615 -1722q-43 -122 -114 -209.5t-173.5 -134t-244.5 -46.5z" />
    <glyph glyph-name="uni007A" unicode="z" horiz-adv-x="1582" 
d="M166 0v230l792 993v13h-766v300h1209v-247l-754 -976v-13h780v-300h-1261z" />
    <glyph glyph-name="uni007B" unicode="{" horiz-adv-x="1108" 
d="M93 828v175q170 0 237.5 69.5t67.5 226.5v255q0 169 42.5 277t124.5 168t200 83.5t268 23.5v-278q-118 0 -181 -32.5t-86.5 -99.5t-23.5 -171v-328q0 -77 -26 -144t-95 -117.5t-196.5 -79t-331.5 -28.5zM1033 -435q-150 0 -268 23.5t-200 83.5t-124.5 168t-42.5 277v254
q0 157 -67.5 226.5t-237.5 69.5v175q204 0 331.5 -28.5t196.5 -79t95 -117.5t26 -143v-328q0 -104 23.5 -171t86.5 -100t181 -33v-277zM93 667v336h317v-336h-317z" />
    <glyph glyph-name="uni007C" unicode="|" horiz-adv-x="1008" 
d="M672 2708v-3368h-336v3368h336z" />
    <glyph glyph-name="uni007D" unicode="}" horiz-adv-x="1108" 
d="M1015 842v-175q-170 0 -237.5 -69.5t-67.5 -226.5v-254q0 -169 -42.5 -277t-124.5 -168t-200 -83.5t-268 -23.5v277q118 0 181 33t86.5 100t23.5 171v328q0 76 26 143t95 117.5t196.5 79t331.5 28.5zM75 2106q150 0 268 -23.5t200 -83.5t124.5 -168t42.5 -277v-255
q0 -157 67.5 -226.5t237.5 -69.5v-175q-204 0 -331.5 28.5t-196.5 79t-95 117.5t-26 144v328q0 104 -23.5 171t-86.5 99.5t-181 32.5v278zM1015 1003v-336h-317v336h317z" />
    <glyph glyph-name="uni007E" unicode="~" horiz-adv-x="1894" 
d="M221 571q-5 182 48.5 303t150 181.5t221.5 60.5q97 0 182 -40.5t195 -137.5q63 -54 104 -81t94 -27q76 0 123.5 58.5t44.5 177.5h290q5 -181 -49.5 -302t-151.5 -181.5t-219 -60.5q-100 0 -186 42t-193 135q-66 58 -105.5 83t-91.5 25q-73 0 -121.5 -54.5t-46.5 -181.5
h-289z" />
    <glyph glyph-name="uni00A0" unicode="&#xa0;" horiz-adv-x="699" 
 />
    <glyph glyph-name="uni00A1" unicode="&#xa1;" horiz-adv-x="870" 
d="M629 -518h-387l32 1446h322zM435 1552q89 0 154.5 -64.5t65.5 -155.5q0 -90 -65.5 -154t-154.5 -64q-91 0 -155.5 64t-64.5 154q0 61 30 111t80 79.5t110 29.5z" />
    <glyph glyph-name="uni00A2" unicode="&#xa2;" horiz-adv-x="1626" 
d="M768 0v2048h164v-2048h-164zM856 231q-230 0 -394.5 101t-253 279.5t-88.5 411.5q0 235 90 414t254.5 279.5t389.5 100.5q187 0 331.5 -68.5t230.5 -192.5t98 -291h-346q-21 112 -99.5 186t-209.5 74q-111 0 -195 -59.5t-130.5 -170.5t-46.5 -266q0 -157 46 -269.5
t129.5 -173t196.5 -60.5q80 0 143.5 30.5t106.5 89t59 140.5h346q-13 -163 -96 -288t-226 -196t-336 -71z" />
    <glyph glyph-name="uni00A3" unicode="&#xa3;" horiz-adv-x="1853" 
d="M1638 0h-1444v311h1444v-311zM1230 809h-1043v303h1043v-303zM756 1455l32 -857q6 -133 -43.5 -229.5t-173.5 -158.5l-264 101q49 7 75 51t35 104.5t7 115.5l-30 873q-7 203 77.5 341.5t230.5 209t323 70.5q152 0 272.5 -46t203 -128t121 -190t24.5 -233l-347 29
q7 91 -29.5 149.5t-100 86t-135.5 27.5q-74 0 -137.5 -34t-102 -104t-38.5 -178z" />
    <glyph glyph-name="uni00A4" unicode="&#xa4;" horiz-adv-x="2114" 
d="M1055 -28q-172 0 -323.5 65.5t-266.5 183.5t-179.5 275t-63.5 340q-1 183 63.5 339.5t179.5 273.5t266.5 182t323.5 65t323 -65t265.5 -182t180 -273.5t66.5 -339.5q-1 -183 -66.5 -340t-180 -275t-265.5 -183.5t-323 -65.5zM1055 219q122 0 228.5 48t186.5 132.5
t126 196.5t46 240q0 173 -79 312.5t-212.5 222t-295.5 82.5q-164 0 -298 -82.5t-213 -222t-78 -312.5q-1 -171 78 -311t213 -223t298 -83zM1654 1262l-180 188l280 284l185 -188zM1754 -30l-280 284l180 184l285 -280zM361 -30l-181 188l281 280l185 -184zM461 1262
l-281 284l181 188l285 -284z" />
    <glyph glyph-name="uni00A5" unicode="&#xa5;" horiz-adv-x="1589" 
d="M428 2048l457 -1068l-259 -174l-586 1242h388zM707 986l454 1062h388l-587 -1242zM974 1078v-1078h-368v1078h368zM1394 1044v-225h-1228v225h1228zM1394 648v-225h-1228v225h1228z" />
    <glyph glyph-name="uni00A6" unicode="&#xa6;" horiz-adv-x="897" 
d="M285 565h327v-949h-327v949zM612 2048v-945h-327v945h327z" />
    <glyph glyph-name="uni00A7" unicode="&#xa7;" horiz-adv-x="1630" 
d="M1360 1548h-326q0 94 -56.5 157t-173.5 63q-65 0 -114.5 -21.5t-76.5 -59t-27 -85.5q0 -52 31.5 -96t78 -76.5t88.5 -52.5l385 -195q39 -19 94 -53.5t106 -89t82.5 -131t25.5 -180.5q-5 -80 -47 -143t-100.5 -104.5t-113.5 -58.5l-3 -4q80 -70 120 -159t41 -197
q0 -154 -76.5 -260.5t-204 -161t-283.5 -54.5q-176 0 -311 66t-210.5 186.5t-75.5 285.5h328q-1 -112 73.5 -172t198.5 -57q88 1 159.5 41.5t72.5 125.5q0 60 -32 102.5t-77.5 72t-85.5 50.5l-385 191q-40 19 -95 54t-106 90t-83 132.5t-26 181.5q5 80 44.5 143t98 105
t120.5 60v5q-72 70 -116 156.5t-44 196.5q0 136 70 243.5t193 169t283 61.5q168 0 293 -68t194 -187.5t69 -272.5zM1170 714q4 42 -16.5 79.5t-60 69.5t-93.5 58l-354 177q-38 19 -80.5 4t-72.5 -55.5t-33 -96.5q-5 -67 43 -118.5t130 -90.5l346 -171q35 -18 78.5 -3.5
t76.5 53t36 94.5z" />
    <glyph glyph-name="uni00A8" unicode="&#xa8;" horiz-adv-x="1558" 
d="M480 1762q-79 0 -136.5 56t-57.5 132q0 80 57.5 134.5t136.5 54.5q81 0 136.5 -54.5t55.5 -134.5q0 -76 -55.5 -132t-136.5 -56zM1080 1762q-79 0 -136.5 56t-57.5 132q0 80 57.5 134.5t136.5 54.5q81 0 136.5 -54.5t55.5 -134.5q0 -76 -55.5 -132t-136.5 -56z" />
    <glyph glyph-name="uni00A9" unicode="&#xa9;" horiz-adv-x="2576" 
d="M722 1024q0 158 77.5 288.5t208 208t288.5 77.5q139 0 256 -60t193.5 -164t93.5 -235h-279q-17 85 -92 138.5t-172 53.5q-84 0 -153.5 -41.5t-111 -111t-41.5 -153.5q0 -85 41.5 -154.5t111 -111.5t153.5 -42q97 0 166 53.5t86 138.5h279q-17 -131 -90.5 -235
t-187.5 -164t-253 -60q-158 0 -288.5 77.5t-208 208t-77.5 288.5zM1288 -32q-218 0 -409.5 82t-337 227.5t-228 336.5t-81.5 410t83.5 410t227.5 336.5t336 227.5t409 82q219 0 410.5 -82t336 -227.5t226.5 -336.5t83 -410t-81 -410t-227 -336.5t-337 -227.5t-411 -82z
M1288 267q157 0 295 59t241.5 162.5t162 241t58.5 293.5q-1 157 -59.5 295t-162.5 241.5t-241 162.5t-294 59q-156 0 -293 -59t-241 -163t-163 -241.5t-60 -294.5q0 -155 58.5 -292.5t162.5 -241.5t241.5 -163t294.5 -59z" />
    <glyph glyph-name="uni00AA" unicode="&#xaa;" horiz-adv-x="1336" 
d="M838 1184v468q0 85 -39.5 130.5t-123.5 45.5q-91 0 -142 -35t-51 -101l-243 18q0 140 119.5 231t316.5 91q184 0 296 -95.5t112 -284.5v-432q0 -61 7 -123.5t31 -126.5h-249q-15 47 -24.5 102.5t-9.5 111.5zM900 1582v-160h-203q-121 0 -177 -46t-56 -106q0 -55 39 -87.5
t124 -32.5q57 0 115.5 25.5t98 62t39.5 70.5l24 -162q-31 -67 -113 -130.5t-225 -63.5q-168 0 -258.5 85.5t-90.5 226.5q0 153 119 235.5t361 82.5h203z" />
    <glyph glyph-name="uni00AB" unicode="&#xab;" horiz-adv-x="1682" 
d="M902 220h-326l-404 600v20h346zM902 1448l-384 -620h-346v20l404 600h326zM1512 220h-326l-404 600v20h346zM1512 1448l-384 -620h-346v20l404 600h326z" />
    <glyph glyph-name="uni00AC" unicode="&#xac;" horiz-adv-x="1595" 
d="M1386 1108v-236h-1171v236h1171zM1386 1000v-484h-281v484h281z" />
    <glyph glyph-name="uni00AD" unicode="&#xad;" horiz-adv-x="1312" 
d="M1117 1002v-298h-922v298h922z" />
    <glyph glyph-name="uni00AE" unicode="&#xae;" horiz-adv-x="1875" 
d="M651 916v738h365q62 0 118.5 -27.5t92 -81.5t35.5 -133t-37 -134.5t-95.5 -84.5t-122.5 -29h-255v133h211q39 0 72 29t33 86q0 60 -33 84t-69 24h-133v-604h-182zM1114 1259l174 -343h-200l-165 343h191zM938 476q-166 0 -311 62t-255 172t-172 255t-62 311t62 311
t172 255t255 172t311 62t311 -62t255 -172t172 -255t62 -311t-62 -311t-172 -255t-255 -172t-311 -62zM938 681q164 0 299 80t215.5 215.5t80.5 299.5t-80.5 299.5t-215.5 215.5t-299 80q-165 0 -300 -80t-215.5 -215.5t-80.5 -299.5t80.5 -299t215.5 -215.5t300 -80.5z" />
    <glyph glyph-name="uni00AF" unicode="&#xaf;" horiz-adv-x="1482" 
d="M1222 2048v-221h-962v221h962z" />
    <glyph glyph-name="uni00B0" unicode="&#xb0;" horiz-adv-x="1290" 
d="M645 1101q-133 0 -242 64.5t-174 174t-65 242.5q0 132 65 241.5t174 174t242 64.5t242 -64.5t174 -174t65 -241.5q0 -133 -65 -242.5t-174 -174t-242 -64.5zM645 1357q62 0 113 30t81.5 81t30.5 114q0 62 -30.5 113t-81.5 81t-113 30t-113 -30t-81.5 -81t-30.5 -113
t30 -113.5t81.5 -81.5t113.5 -30z" />
    <glyph glyph-name="uni00B1" unicode="&#xb1;" horiz-adv-x="1894" 
d="M263 83v301h1368v-301h-1368zM263 907v295h1368v-295h-1368zM790 541v1027h314v-1027h-314z" />
    <glyph glyph-name="uni00B2" unicode="&#xb2;" horiz-adv-x="1190" 
d="M129 1024v199l481 399q60 50 103 91.5t66 82t23 88.5q0 78 -62 122t-152 44q-96 0 -154.5 -48.5t-58.5 -134.5h-265q0 186 135.5 293.5t346.5 107.5q143 0 249.5 -50.5t165.5 -136.5t59 -193q0 -86 -35 -159.5t-109 -147t-189 -158.5l-206 -164v-9h561v-226h-959z" />
    <glyph glyph-name="uni00B3" unicode="&#xb3;" horiz-adv-x="1234" 
d="M614 1008q-147 0 -262 46.5t-181.5 129.5t-69.5 192h282q4 -64 69.5 -101t161.5 -37q99 0 165.5 41t66.5 112q0 69 -69 113t-188 44h-127v205h127q99 0 162 41.5t63 108.5q0 65 -54.5 106t-141.5 41q-92 0 -156.5 -40t-67.5 -104h-265q2 107 67.5 188.5t175.5 127.5
t247 46q139 0 243.5 -46t162.5 -125t58 -177q0 -108 -74.5 -174t-179.5 -82v-10q146 -16 225.5 -91.5t79.5 -190.5q0 -106 -67 -188t-184.5 -129t-268.5 -47z" />
    <glyph glyph-name="uni00B4" unicode="&#xb4;" horiz-adv-x="1400" 
d="M542 1738l224 457h354l-307 -457h-271z" />
    <glyph glyph-name="uni00B5" unicode="&#xb5;" horiz-adv-x="1835" 
d="M186 -563v2099h362v-890q0 -104 46.5 -183t129.5 -123t194 -44q110 0 193.5 44.5t130 123.5t45.5 182v890h363v-1536h-352v222h-12q-51 -107 -150 -165t-218 -58q-120 0 -218.5 58t-150.5 165h-12v-785h-351z" />
    <glyph glyph-name="uni00B6" unicode="&#xb6;" horiz-adv-x="1707" 
d="M1381 1756h-432v-996h-118q-223 0 -376.5 83.5t-233 229t-79.5 331.5q0 184 79.5 329.5t233 230t376.5 84.5h550v-292zM1197 0v2048h309v-2048h-309z" />
    <glyph glyph-name="uni00B7" unicode="&#xb7;" horiz-adv-x="818" 
d="M409 677q-91 0 -156 64t-64 156q-1 90 64 154t156 64q88 0 153.5 -64t66.5 -154q-1 -61 -31.5 -111t-80 -79.5t-108.5 -29.5z" />
    <glyph glyph-name="uni00B8" unicode="&#xb8;" horiz-adv-x="954" 
d="M381 8h196l-16 -85q94 -14 159.5 -72.5t65.5 -168.5q1 -142 -127 -228t-365 -86l-4 178q115 0 183 30.5t69 96.5q2 64 -47.5 93.5t-156.5 40.5z" />
    <glyph glyph-name="uni00B9" unicode="&#xb9;" horiz-adv-x="896" 
d="M416 1024v969h-9l-301 -193v246l321 206h253v-1228h-264z" />
    <glyph glyph-name="uni00BA" unicode="&#xba;" horiz-adv-x="1331" 
d="M180 1436v106q0 143 59.5 253.5t168.5 173.5t258 63q225 0 355 -137.5t130 -352.5v-106q0 -142 -58 -251.5t-166 -172t-257 -62.5q-227 0 -358.5 136.5t-131.5 349.5zM425 1542v-106q0 -123 61 -203.5t184 -80.5q119 0 177.5 80.5t58.5 203.5v106q0 120 -59 203t-181 83
q-120 0 -180.5 -83t-60.5 -203z" />
    <glyph glyph-name="uni00BB" unicode="&#xbb;" horiz-adv-x="1688" 
d="M158 220l384 620h346v-20l-404 -600h-326zM158 1448h326l404 -600v-20h-346zM774 220l384 620h346v-20l-404 -600h-326zM774 1448h326l404 -600v-20h-346z" />
    <glyph glyph-name="uni00BC" unicode="&#xbc;" horiz-adv-x="2480" 
d="M353 0l1408 2048h251l-1408 -2048h-251zM360 960v840h-8l-264 -170v237l283 181h242v-1088h-253zM1417 182v202l513 704h174v-274h-102l-324 -419v-7h729v-206h-990zM2007 0v243l4 91v754h239v-1088h-243z" />
    <glyph glyph-name="uni00BD" unicode="&#xbd;" horiz-adv-x="2589" 
d="M353 0l1408 2048h251l-1408 -2048h-251zM360 960v840h-8l-264 -170v237l283 181h242v-1088h-253zM1629 0v184l438 349q79 64 124 113.5t45 110.5q0 68 -55.5 106.5t-136.5 38.5q-83 0 -136.5 -41.5t-53.5 -116.5h-243q0 165 122.5 262.5t315.5 97.5q196 0 312.5 -99.5
t116.5 -243.5q0 -77 -31.5 -142.5t-98.5 -130t-172 -138.5l-179 -132v-10h502v-208h-870z" />
    <glyph glyph-name="uni00BE" unicode="&#xbe;" horiz-adv-x="2702" 
d="M576 0l1408 2048h251l-1408 -2048h-251zM1639 182v202l513 704h174v-274h-102l-324 -419v-7h729v-206h-990zM2229 0v243l4 91v754h239v-1088h-243zM556 944q-138 0 -242.5 43.5t-163.5 118.5t-60 170h260q2 -55 59.5 -88.5t141.5 -33.5q90 0 149.5 37t59.5 95
q0 59 -61 96t-166 37h-117v188h117q87 0 143.5 36t56.5 93q0 55 -48.5 91.5t-130.5 36.5q-77 0 -134 -34.5t-59 -89.5h-247q2 95 61.5 168t159 114.5t224.5 41.5q126 0 221 -41.5t148.5 -111.5t53.5 -157q0 -91 -64 -151.5t-167 -74.5v-10q134 -14 204.5 -81.5t70.5 -167.5
q0 -95 -61 -168.5t-167 -115t-242 -41.5z" />
    <glyph glyph-name="uni00BF" unicode="&#xbf;" horiz-adv-x="1532" 
d="M1000 919v-26q-1 -180 -34.5 -287.5t-95.5 -172.5t-151 -121q-60 -38 -109 -83.5t-77 -102t-28 -126.5q0 -79 37 -137.5t99.5 -90t139.5 -31.5q71 0 134.5 30.5t105.5 92t46 154.5h356q-5 -190 -92.5 -317.5t-232 -191.5t-319.5 -64q-191 0 -336.5 67t-227 190.5
t-81.5 291.5q0 116 36.5 205.5t103.5 159.5t159 125q82 50 133 104t75.5 126.5t25.5 178.5v26h333zM826 1543q90 0 155 -64.5t65 -155.5q0 -90 -65 -154t-155 -64q-89 0 -154.5 64t-65.5 154q0 61 30.5 111t80.5 79.5t109 29.5z" />
    <glyph glyph-name="uni00C0" unicode="&#xc0;" horiz-adv-x="2038" 
d="M465 0h-396l721 2048h458l722 -2048h-396l-547 1628h-16zM478 803h1080v-298h-1080v298zM887 2250l-307 457h355l223 -457h-271z" />
    <glyph glyph-name="uni00C1" unicode="&#xc1;" horiz-adv-x="2038" 
d="M465 0h-396l721 2048h458l722 -2048h-396l-547 1628h-16zM478 803h1080v-298h-1080v298zM880 2250l224 457h354l-307 -457h-271z" />
    <glyph glyph-name="uni00C2" unicode="&#xc2;" horiz-adv-x="2038" 
d="M465 0h-396l721 2048h458l722 -2048h-396l-547 1628h-16zM478 803h1080v-298h-1080v298zM1222 2232l-203 256l-203 -256h-317v14l379 432h283l378 -432v-14h-317z" />
    <glyph glyph-name="uni00C3" unicode="&#xc3;" horiz-adv-x="2038" 
d="M465 0h-396l721 2048h458l722 -2048h-396l-547 1628h-16zM478 803h1080v-298h-1080v298zM726 2250l-220 5q0 178 92.5 279t226.5 101q65 0 113.5 -21.5t88.5 -49.5t79 -49.5t86 -21.5q57 0 90.5 43t34.5 110l215 -9q-1 -179 -93 -277.5t-225 -99.5q-73 0 -122 21.5
t-85.5 49.5t-73.5 49.5t-87 21.5q-53 0 -86.5 -42t-33.5 -110z" />
    <glyph glyph-name="uni00C4" unicode="&#xc4;" horiz-adv-x="2038" 
d="M465 0h-396l721 2048h458l722 -2048h-396l-547 1628h-16zM478 803h1080v-298h-1080v298zM720 2274q-79 0 -136.5 56t-57.5 132q0 80 57.5 134.5t136.5 54.5q81 0 136.5 -54.5t55.5 -134.5q0 -76 -55.5 -132t-136.5 -56zM1320 2274q-79 0 -136.5 56t-57.5 132
q0 80 57.5 134.5t136.5 54.5q81 0 136.5 -54.5t55.5 -134.5q0 -76 -55.5 -132t-136.5 -56z" />
    <glyph glyph-name="uni00C5" unicode="&#xc5;" horiz-adv-x="2038" 
d="M465 0h-396l721 2048h458l722 -2048h-396l-547 1628h-16zM478 803h1080v-298h-1080v298zM1019 2174q-125 0 -213.5 87t-88.5 210q0 82 40.5 149.5t109.5 107.5t152 40q84 0 152.5 -40t109 -107.5t40.5 -149.5t-40.5 -149.5t-109 -107.5t-152.5 -40zM1019 2335
q58 1 98 40.5t40 95.5t-39.5 96t-98.5 39q-58 0 -97.5 -39.5t-39.5 -95.5t39.5 -96t97.5 -40z" />
    <glyph glyph-name="uni00C6" unicode="&#xc6;" horiz-adv-x="2863" 
d="M69 0l915 2048h1702v-311h-961v-556h892v-311h-892v-559h969v-311h-1340v1690h-145l-732 -1690h-408zM527 505v298h1032v-298h-1032z" />
    <glyph glyph-name="uni00C7" unicode="&#xc7;" horiz-adv-x="2094" 
d="M1955 1357h-374q-16 92 -59 163.5t-107 121.5t-145.5 75.5t-175.5 25.5q-167 0 -296 -83.5t-202 -244t-73 -391.5q0 -235 73.5 -395.5t202 -242t294.5 -81.5q92 0 172.5 24.5t145 72.5t109 118t61.5 160l374 -2q-21 -146 -90.5 -274t-181.5 -225.5t-262 -152t-333 -54.5
q-270 0 -482 125t-334 361t-122 566q0 331 123 566.5t335 360.5t480 125q171 0 318 -48t262 -140.5t189.5 -226t97.5 -304.5zM983 2h196l-16 -85q94 -14 159.5 -72.5t65.5 -168.5q1 -142 -127 -228t-365 -86l-4 178q115 0 183 30.5t69 96.5q2 64 -47.5 93.5t-156.5 40.5z
" />
    <glyph glyph-name="uni00C8" unicode="&#xc8;" horiz-adv-x="1711" 
d="M202 0v2048h1332v-311h-961v-556h892v-311h-892v-559h969v-311h-1340zM736 2250l-307 457h355l223 -457h-271z" />
    <glyph glyph-name="uni00C9" unicode="&#xc9;" horiz-adv-x="1711" 
d="M202 0v2048h1332v-311h-961v-556h892v-311h-892v-559h969v-311h-1340zM730 2250l224 457h354l-307 -457h-271z" />
    <glyph glyph-name="uni00CA" unicode="&#xca;" horiz-adv-x="1711" 
d="M202 0v2048h1332v-311h-961v-556h892v-311h-892v-559h969v-311h-1340zM1072 2232l-203 256l-203 -256h-317v14l379 432h283l378 -432v-14h-317z" />
    <glyph glyph-name="uni00CB" unicode="&#xcb;" horiz-adv-x="1711" 
d="M202 0v2048h1332v-311h-961v-556h892v-311h-892v-559h969v-311h-1340zM570 2274q-79 0 -136.5 56t-57.5 132q0 80 57.5 134.5t136.5 54.5q81 0 136.5 -54.5t55.5 -134.5q0 -76 -55.5 -132t-136.5 -56zM1170 2274q-79 0 -136.5 56t-57.5 132q0 80 57.5 134.5t136.5 54.5
q81 0 136.5 -54.5t55.5 -134.5q0 -76 -55.5 -132t-136.5 -56z" />
    <glyph glyph-name="uni00CC" unicode="&#xcc;" horiz-adv-x="774" 
d="M573 2048v-2048h-371v2048h371zM256 2250l-307 457h355l223 -457h-271z" />
    <glyph glyph-name="uni00CD" unicode="&#xcd;" horiz-adv-x="774" 
d="M573 2048v-2048h-371v2048h371zM249 2250l224 457h354l-307 -457h-271z" />
    <glyph glyph-name="uni00CE" unicode="&#xce;" horiz-adv-x="774" 
d="M573 2048v-2048h-371v2048h371zM591 2232l-203 256l-203 -256h-317v14l379 432h283l378 -432v-14h-317z" />
    <glyph glyph-name="uni00CF" unicode="&#xcf;" horiz-adv-x="774" 
d="M573 2048v-2048h-371v2048h371zM89 2274q-79 0 -136.5 56t-57.5 132q0 80 57.5 134.5t136.5 54.5q81 0 136.5 -54.5t55.5 -134.5q0 -76 -55.5 -132t-136.5 -56zM689 2274q-79 0 -136.5 56t-57.5 132q0 80 57.5 134.5t136.5 54.5q81 0 136.5 -54.5t55.5 -134.5
q0 -76 -55.5 -132t-136.5 -56z" />
    <glyph glyph-name="uni00D0" unicode="&#xd0;" horiz-adv-x="2040" 
d="M896 0h-519v321h501q214 0 357 78.5t215 235t72 391.5t-72 390.5t-212.5 233t-348.5 77.5h-523v321h544q305 0 524.5 -122.5t337.5 -351.5t118 -548q0 -320 -118.5 -550t-341 -353t-534.5 -123zM573 2048v-2048h-371v2048h371zM-94 958v228h959v-228h-959z" />
    <glyph glyph-name="uni00D1" unicode="&#xd1;" horiz-adv-x="2086" 
d="M1885 2048v-2048h-330l-965 1395h-17v-1395h-371v2048h332l964 -1396h18v1396h369zM750 2235l-219 5q0 178 92 279t227 101q65 0 113 -21.5t88.5 -49.5t79.5 -49.5t86 -21.5q57 0 90.5 43t34.5 110l215 -9q-1 -179 -93 -277.5t-226 -99.5q-72 -1 -121 21t-85.5 50
t-73.5 49.5t-87 21.5q-53 0 -87 -42t-34 -110z" />
    <glyph glyph-name="uni00D2" unicode="&#xd2;" horiz-adv-x="2182" 
d="M2032 1024q0 -331 -123.5 -566.5t-336 -360.5t-481.5 -125t-481.5 125.5t-336 361t-123.5 565.5q0 331 123.5 566.5t336 360.5t481.5 125t481.5 -125t336 -360.5t123.5 -566.5zM1659 1024q0 233 -72.5 393.5t-200.5 243t-295 82.5t-295 -82.5t-200.5 -243t-72.5 -393.5
t72.5 -393.5t200.5 -243t295 -82.5t295 82.5t200.5 243t72.5 393.5zM959 2250l-307 457h355l223 -457h-271z" />
    <glyph glyph-name="uni00D3" unicode="&#xd3;" horiz-adv-x="2182" 
d="M2032 1024q0 -331 -123.5 -566.5t-336 -360.5t-481.5 -125t-481.5 125.5t-336 361t-123.5 565.5q0 331 123.5 566.5t336 360.5t481.5 125t481.5 -125t336 -360.5t123.5 -566.5zM1659 1024q0 233 -72.5 393.5t-200.5 243t-295 82.5t-295 -82.5t-200.5 -243t-72.5 -393.5
t72.5 -393.5t200.5 -243t295 -82.5t295 82.5t200.5 243t72.5 393.5zM952 2250l224 457h354l-307 -457h-271z" />
    <glyph glyph-name="uni00D4" unicode="&#xd4;" horiz-adv-x="2182" 
d="M2032 1024q0 -331 -123.5 -566.5t-336 -360.5t-481.5 -125t-481.5 125.5t-336 361t-123.5 565.5q0 331 123.5 566.5t336 360.5t481.5 125t481.5 -125t336 -360.5t123.5 -566.5zM1659 1024q0 233 -72.5 393.5t-200.5 243t-295 82.5t-295 -82.5t-200.5 -243t-72.5 -393.5
t72.5 -393.5t200.5 -243t295 -82.5t295 82.5t200.5 243t72.5 393.5zM1294 2232l-203 256l-203 -256h-317v14l379 432h283l378 -432v-14h-317z" />
    <glyph glyph-name="uni00D5" unicode="&#xd5;" horiz-adv-x="2182" 
d="M2032 1024q0 -331 -123.5 -566.5t-336 -360.5t-481.5 -125t-481.5 125.5t-336 361t-123.5 565.5q0 331 123.5 566.5t336 360.5t481.5 125t481.5 -125t336 -360.5t123.5 -566.5zM1659 1024q0 233 -72.5 393.5t-200.5 243t-295 82.5t-295 -82.5t-200.5 -243t-72.5 -393.5
t72.5 -393.5t200.5 -243t295 -82.5t295 82.5t200.5 243t72.5 393.5zM798 2250l-220 5q0 178 92.5 279t226.5 101q65 0 113.5 -21.5t88.5 -49.5t79 -49.5t86 -21.5q57 0 90.5 43t34.5 110l215 -9q-1 -179 -93 -277.5t-225 -99.5q-73 0 -122 21.5t-85.5 49.5t-73.5 49.5
t-87 21.5q-53 0 -86.5 -42t-33.5 -110z" />
    <glyph glyph-name="uni00D6" unicode="&#xd6;" horiz-adv-x="2182" 
d="M2032 1024q0 -331 -123.5 -566.5t-336 -360.5t-481.5 -125t-481.5 125.5t-336 361t-123.5 565.5q0 331 123.5 566.5t336 360.5t481.5 125t481.5 -125t336 -360.5t123.5 -566.5zM1659 1024q0 233 -72.5 393.5t-200.5 243t-295 82.5t-295 -82.5t-200.5 -243t-72.5 -393.5
t72.5 -393.5t200.5 -243t295 -82.5t295 82.5t200.5 243t72.5 393.5zM792 2274q-79 0 -136.5 56t-57.5 132q0 80 57.5 134.5t136.5 54.5q81 0 136.5 -54.5t55.5 -134.5q0 -76 -55.5 -132t-136.5 -56zM1392 2274q-79 0 -136.5 56t-57.5 132q0 80 57.5 134.5t136.5 54.5
q81 0 136.5 -54.5t55.5 -134.5q0 -76 -55.5 -132t-136.5 -56z" />
    <glyph glyph-name="uni00D7" unicode="&#xd7;" horiz-adv-x="1894" 
d="M1421 114l-1173 1171l226 227l1172 -1173zM474 114l-226 225l1173 1173l225 -227z" />
    <glyph glyph-name="uni00D8" unicode="&#xd8;" horiz-adv-x="2182" 
d="M453 -94l-181 124l1453 2108l181 -124zM2032 1024q0 -331 -123.5 -566.5t-336 -360.5t-481.5 -125t-481.5 125.5t-336 361t-123.5 565.5q0 331 123.5 566.5t336 360.5t481.5 125t481.5 -125t336 -360.5t123.5 -566.5zM1659 1024q0 233 -72.5 393.5t-200.5 243t-295 82.5
t-295 -82.5t-200.5 -243t-72.5 -393.5t72.5 -393.5t200.5 -243t295 -82.5t295 82.5t200.5 243t72.5 393.5z" />
    <glyph glyph-name="uni00D9" unicode="&#xd9;" horiz-adv-x="2066" 
d="M1493 2048h371v-1338q0 -220 -103.5 -387t-290.5 -260.5t-437 -93.5q-251 0 -438 93.5t-290 260.5t-103 387v1338h371v-1307q0 -128 56.5 -228t159.5 -156.5t244 -56.5t244.5 56.5t159.5 156.5t56 228v1307zM900 2250l-307 457h355l223 -457h-271z" />
    <glyph glyph-name="uni00DA" unicode="&#xda;" horiz-adv-x="2066" 
d="M1493 2048h371v-1338q0 -220 -103.5 -387t-290.5 -260.5t-437 -93.5q-251 0 -438 93.5t-290 260.5t-103 387v1338h371v-1307q0 -128 56.5 -228t159.5 -156.5t244 -56.5t244.5 56.5t159.5 156.5t56 228v1307zM894 2250l224 457h354l-307 -457h-271z" />
    <glyph glyph-name="uni00DB" unicode="&#xdb;" horiz-adv-x="2066" 
d="M1493 2048h371v-1338q0 -220 -103.5 -387t-290.5 -260.5t-437 -93.5q-251 0 -438 93.5t-290 260.5t-103 387v1338h371v-1307q0 -128 56.5 -228t159.5 -156.5t244 -56.5t244.5 56.5t159.5 156.5t56 228v1307zM1236 2232l-203 256l-203 -256h-317v14l379 432h283l378 -432
v-14h-317z" />
    <glyph glyph-name="uni00DC" unicode="&#xdc;" horiz-adv-x="2066" 
d="M1493 2048h371v-1338q0 -220 -103.5 -387t-290.5 -260.5t-437 -93.5q-251 0 -438 93.5t-290 260.5t-103 387v1338h371v-1307q0 -128 56.5 -228t159.5 -156.5t244 -56.5t244.5 56.5t159.5 156.5t56 228v1307zM734 2274q-79 0 -136.5 56t-57.5 132q0 80 57.5 134.5
t136.5 54.5q81 0 136.5 -54.5t55.5 -134.5q0 -76 -55.5 -132t-136.5 -56zM1334 2274q-79 0 -136.5 56t-57.5 132q0 80 57.5 134.5t136.5 54.5q81 0 136.5 -54.5t55.5 -134.5q0 -76 -55.5 -132t-136.5 -56z" />
    <glyph glyph-name="uni00DD" unicode="&#xdd;" horiz-adv-x="1984" 
d="M62 2048h419l501 -906h20l501 906h419l-745 -1284v-764h-370v764zM853 2250l224 457h354l-307 -457h-271z" />
    <glyph glyph-name="uni00DE" unicode="&#xde;" horiz-adv-x="1851" 
d="M194 2048h371v-2048h-371v2048zM366 1656h531q237 0 401 -81t249 -220t85 -313t-85 -312.5t-249 -219t-401 -80.5h-531v296h531q129 0 213.5 40t126 110.5t41.5 161.5q0 92 -41.5 165t-126 114.5t-213.5 41.5h-531v297z" />
    <glyph glyph-name="uni00DF" unicode="&#xdf;" horiz-adv-x="1818" 
d="M202 0v1513q0 175 83 301.5t233.5 194t350.5 67.5q189 0 345 -63t248 -184.5t92 -298.5q0 -164 -82.5 -279t-221.5 -157v-22q198 -15 318 -154t119 -354q0 -174 -80.5 -300.5t-224 -195t-332.5 -68.5h-255v305h211q96 0 167 36t110 100.5t39 149.5q-1 133 -96 216
t-257 83h-166v296h114q82 0 142 40.5t93 107t34 143.5q0 123 -81.5 205.5t-225.5 82.5q-139 0 -227 -81t-88 -213v-1471h-362z" />
    <glyph glyph-name="uni00E0" unicode="&#xe0;" horiz-adv-x="1618" 
d="M628 -31q-146 0 -262.5 52.5t-184 155.5t-67.5 254q0 130 48 215t131 136t187.5 77.5t216.5 38.5q135 14 219 25.5t122.5 36t38.5 76.5v6q0 113 -67 175t-193 62q-133 0 -210.5 -58t-104.5 -137l-338 48q40 140 132 234.5t225 142t294 47.5q111 0 221 -26t201 -85.5
t146.5 -161.5t55.5 -255v-1028h-348v211h-12q-33 -64 -92.5 -119.5t-149 -89t-209.5 -33.5zM722 235q109 0 189 43.5t123.5 115.5t43.5 157v181q-17 -14 -57.5 -26t-90.5 -21t-99 -16t-85 -12q-81 -11 -145 -36t-101 -69.5t-37 -114.5q0 -100 73 -151t186 -51zM699 1738
l-307 457h355l223 -457h-271z" />
    <glyph glyph-name="uni00E1" unicode="&#xe1;" horiz-adv-x="1618" 
d="M628 -31q-146 0 -262.5 52.5t-184 155.5t-67.5 254q0 130 48 215t131 136t187.5 77.5t216.5 38.5q135 14 219 25.5t122.5 36t38.5 76.5v6q0 113 -67 175t-193 62q-133 0 -210.5 -58t-104.5 -137l-338 48q40 140 132 234.5t225 142t294 47.5q111 0 221 -26t201 -85.5
t146.5 -161.5t55.5 -255v-1028h-348v211h-12q-33 -64 -92.5 -119.5t-149 -89t-209.5 -33.5zM722 235q109 0 189 43.5t123.5 115.5t43.5 157v181q-17 -14 -57.5 -26t-90.5 -21t-99 -16t-85 -12q-81 -11 -145 -36t-101 -69.5t-37 -114.5q0 -100 73 -151t186 -51zM692 1738
l224 457h354l-307 -457h-271z" />
    <glyph glyph-name="uni00E2" unicode="&#xe2;" horiz-adv-x="1618" 
d="M628 -31q-146 0 -262.5 52.5t-184 155.5t-67.5 254q0 130 48 215t131 136t187.5 77.5t216.5 38.5q135 14 219 25.5t122.5 36t38.5 76.5v6q0 113 -67 175t-193 62q-133 0 -210.5 -58t-104.5 -137l-338 48q40 140 132 234.5t225 142t294 47.5q111 0 221 -26t201 -85.5
t146.5 -161.5t55.5 -255v-1028h-348v211h-12q-33 -64 -92.5 -119.5t-149 -89t-209.5 -33.5zM722 235q109 0 189 43.5t123.5 115.5t43.5 157v181q-17 -14 -57.5 -26t-90.5 -21t-99 -16t-85 -12q-81 -11 -145 -36t-101 -69.5t-37 -114.5q0 -100 73 -151t186 -51zM1034 1720
l-203 256l-203 -256h-317v14l379 432h283l378 -432v-14h-317z" />
    <glyph glyph-name="uni00E3" unicode="&#xe3;" horiz-adv-x="1618" 
d="M628 -31q-146 0 -262.5 52.5t-184 155.5t-67.5 254q0 130 48 215t131 136t187.5 77.5t216.5 38.5q135 14 219 25.5t122.5 36t38.5 76.5v6q0 113 -67 175t-193 62q-133 0 -210.5 -58t-104.5 -137l-338 48q40 140 132 234.5t225 142t294 47.5q111 0 221 -26t201 -85.5
t146.5 -161.5t55.5 -255v-1028h-348v211h-12q-33 -64 -92.5 -119.5t-149 -89t-209.5 -33.5zM722 235q109 0 189 43.5t123.5 115.5t43.5 157v181q-17 -14 -57.5 -26t-90.5 -21t-99 -16t-85 -12q-81 -11 -145 -36t-101 -69.5t-37 -114.5q0 -100 73 -151t186 -51zM537 1723
l-219 5q0 178 92 279t227 101q65 0 113 -21.5t88.5 -49.5t79.5 -49.5t86 -21.5q57 0 90.5 43t34.5 110l215 -9q-1 -179 -93 -277.5t-226 -99.5q-72 -1 -121 21t-85.5 50t-73.5 49.5t-87 21.5q-53 0 -87 -42t-34 -110z" />
    <glyph glyph-name="uni00E4" unicode="&#xe4;" horiz-adv-x="1618" 
d="M628 -31q-146 0 -262.5 52.5t-184 155.5t-67.5 254q0 130 48 215t131 136t187.5 77.5t216.5 38.5q135 14 219 25.5t122.5 36t38.5 76.5v6q0 113 -67 175t-193 62q-133 0 -210.5 -58t-104.5 -137l-338 48q40 140 132 234.5t225 142t294 47.5q111 0 221 -26t201 -85.5
t146.5 -161.5t55.5 -255v-1028h-348v211h-12q-33 -64 -92.5 -119.5t-149 -89t-209.5 -33.5zM722 235q109 0 189 43.5t123.5 115.5t43.5 157v181q-17 -14 -57.5 -26t-90.5 -21t-99 -16t-85 -12q-81 -11 -145 -36t-101 -69.5t-37 -114.5q0 -100 73 -151t186 -51zM532 1762
q-79 0 -136.5 56t-57.5 132q0 80 57.5 134.5t136.5 54.5q81 0 136.5 -54.5t55.5 -134.5q0 -76 -55.5 -132t-136.5 -56zM1132 1762q-79 0 -136.5 56t-57.5 132q0 80 57.5 134.5t136.5 54.5q81 0 136.5 -54.5t55.5 -134.5q0 -76 -55.5 -132t-136.5 -56z" />
    <glyph glyph-name="uni00E5" unicode="&#xe5;" horiz-adv-x="1618" 
d="M628 -31q-146 0 -262.5 52.5t-184 155.5t-67.5 254q0 130 48 215t131 136t187.5 77.5t216.5 38.5q135 14 219 25.5t122.5 36t38.5 76.5v6q0 113 -67 175t-193 62q-133 0 -210.5 -58t-104.5 -137l-338 48q40 140 132 234.5t225 142t294 47.5q111 0 221 -26t201 -85.5
t146.5 -161.5t55.5 -255v-1028h-348v211h-12q-33 -64 -92.5 -119.5t-149 -89t-209.5 -33.5zM722 235q109 0 189 43.5t123.5 115.5t43.5 157v181q-17 -14 -57.5 -26t-90.5 -21t-99 -16t-85 -12q-81 -11 -145 -36t-101 -69.5t-37 -114.5q0 -100 73 -151t186 -51zM831 1703
q-97 0 -176.5 44.5t-126 119.5t-46.5 168t46.5 170t126 123t176.5 46t176 -46t125 -123t46 -170t-46 -168t-125 -119.5t-176 -44.5zM831 1873q73 0 120.5 49.5t47.5 112.5q0 66 -47.5 117t-120.5 50q-72 0 -120 -50.5t-48 -116.5q0 -63 48 -113t120 -49z" />
    <glyph glyph-name="uni00E6" unicode="&#xe6;" horiz-adv-x="2583" 
d="M1798 -30q-227 0 -390.5 103.5t-215.5 285.5l6 857q88 169 229.5 254.5t334.5 85.5q141 0 267.5 -45.5t224.5 -140.5t153.5 -241.5t55.5 -348.5v-111h-1238v244h891q-1 104 -45 185.5t-122.5 128.5t-182.5 47q-111 0 -195 -53.5t-130.5 -140.5t-46.5 -189v-213
q0 -134 49 -229.5t137 -146t206 -50.5q78 0 142.5 22.5t111 66.5t70.5 109l339 -38q-32 -134 -122 -233.5t-225 -154t-304 -54.5zM722 235q109 0 189 43.5t123.5 115.5t43.5 157v181q-17 -14 -57.5 -26t-90.5 -21t-99 -16t-85 -12q-81 -11 -145 -36t-101 -69.5t-37 -114.5
q0 -100 73 -151t186 -51zM644 -31q-154 0 -274 52.5t-188 155.5t-68 254q0 130 48.5 215t131.5 136.5t187.5 77.5t215.5 38q136 14 219.5 26t122 36.5t38.5 75.5v6q0 113 -67 175t-193 62q-132 0 -210 -58t-105 -137l-338 48q40 140 132 234.5t225.5 142t298.5 47.5
q68 0 140.5 -12.5t141 -43.5t123.5 -86t85 -141l-64 -1012h-25q-37 -86 -123.5 -152t-204 -103t-249.5 -37z" />
    <glyph glyph-name="uni00E7" unicode="&#xe7;" horiz-adv-x="1626" 
d="M856 -30q-230 0 -394.5 101t-253 279.5t-88.5 411.5q0 234 90 413.5t254.5 280t389.5 100.5q187 0 331.5 -68.5t230.5 -193t98 -290.5h-346q-21 111 -99.5 185.5t-209.5 74.5q-111 0 -195 -59.5t-130.5 -170.5t-46.5 -266q0 -157 46 -269.5t129.5 -173t196.5 -60.5
q80 0 143.5 30.5t106.5 88.5t59 141h346q-13 -163 -96 -288.5t-226 -196t-336 -70.5zM752 8h196l-16 -85q94 -14 159.5 -72.5t65.5 -168.5q1 -142 -127 -228t-365 -86l-4 178q115 0 183 30.5t69 96.5q2 64 -47.5 93.5t-156.5 40.5z" />
    <glyph glyph-name="uni00E8" unicode="&#xe8;" horiz-adv-x="1669" 
d="M866 -30q-231 0 -398.5 96.5t-257.5 274t-90 418.5q0 237 90.5 416.5t253.5 280t383 100.5q142 0 268.5 -45.5t224 -140.5t153.5 -241.5t56 -348.5v-111h-1259v244h912q-1 104 -45 185.5t-122.5 128.5t-182.5 47q-111 0 -195 -53.5t-130.5 -140t-47.5 -189.5v-213
q0 -134 49 -229.5t137 -146t206 -50.5q79 0 143 22.5t111 66.5t71 109l338 -38q-32 -134 -121.5 -233.5t-228.5 -154t-318 -54.5zM704 1738l-307 457h355l223 -457h-271z" />
    <glyph glyph-name="uni00E9" unicode="&#xe9;" horiz-adv-x="1669" 
d="M866 -30q-231 0 -398.5 96.5t-257.5 274t-90 418.5q0 237 90.5 416.5t253.5 280t383 100.5q142 0 268.5 -45.5t224 -140.5t153.5 -241.5t56 -348.5v-111h-1259v244h912q-1 104 -45 185.5t-122.5 128.5t-182.5 47q-111 0 -195 -53.5t-130.5 -140t-47.5 -189.5v-213
q0 -134 49 -229.5t137 -146t206 -50.5q79 0 143 22.5t111 66.5t71 109l338 -38q-32 -134 -121.5 -233.5t-228.5 -154t-318 -54.5zM698 1738l224 457h354l-307 -457h-271z" />
    <glyph glyph-name="uni00EA" unicode="&#xea;" horiz-adv-x="1669" 
d="M866 -30q-231 0 -398.5 96.5t-257.5 274t-90 418.5q0 237 90.5 416.5t253.5 280t383 100.5q142 0 268.5 -45.5t224 -140.5t153.5 -241.5t56 -348.5v-111h-1259v244h912q-1 104 -45 185.5t-122.5 128.5t-182.5 47q-111 0 -195 -53.5t-130.5 -140t-47.5 -189.5v-213
q0 -134 49 -229.5t137 -146t206 -50.5q79 0 143 22.5t111 66.5t71 109l338 -38q-32 -134 -121.5 -233.5t-228.5 -154t-318 -54.5zM1040 1720l-203 256l-203 -256h-317v14l379 432h283l378 -432v-14h-317z" />
    <glyph glyph-name="uni00EB" unicode="&#xeb;" horiz-adv-x="1669" 
d="M866 -30q-231 0 -398.5 96.5t-257.5 274t-90 418.5q0 237 90.5 416.5t253.5 280t383 100.5q142 0 268.5 -45.5t224 -140.5t153.5 -241.5t56 -348.5v-111h-1259v244h912q-1 104 -45 185.5t-122.5 128.5t-182.5 47q-111 0 -195 -53.5t-130.5 -140t-47.5 -189.5v-213
q0 -134 49 -229.5t137 -146t206 -50.5q79 0 143 22.5t111 66.5t71 109l338 -38q-32 -134 -121.5 -233.5t-228.5 -154t-318 -54.5zM538 1762q-79 0 -136.5 56t-57.5 132q0 80 57.5 134.5t136.5 54.5q81 0 136.5 -54.5t55.5 -134.5q0 -76 -55.5 -132t-136.5 -56zM1138 1762
q-79 0 -136.5 56t-57.5 132q0 80 57.5 134.5t136.5 54.5q81 0 136.5 -54.5t55.5 -134.5q0 -76 -55.5 -132t-136.5 -56z" />
    <glyph glyph-name="uni00EC" unicode="&#xec;" horiz-adv-x="734" 
d="M186 0v1536h362v-1536h-362zM236 1738l-307 457h355l223 -457h-271z" />
    <glyph glyph-name="uni00ED" unicode="&#xed;" horiz-adv-x="734" 
d="M186 0v1536h362v-1536h-362zM229 1738l224 457h354l-307 -457h-271z" />
    <glyph glyph-name="uni00EE" unicode="&#xee;" horiz-adv-x="734" 
d="M186 0v1536h362v-1536h-362zM571 1720l-203 256l-203 -256h-317v14l379 432h283l378 -432v-14h-317z" />
    <glyph glyph-name="uni00EF" unicode="&#xef;" horiz-adv-x="734" 
d="M186 0v1536h362v-1536h-362zM69 1762q-79 0 -136.5 56t-57.5 132q0 80 57.5 134.5t136.5 54.5q81 0 136.5 -54.5t55.5 -134.5q0 -76 -55.5 -132t-136.5 -56zM669 1762q-79 0 -136.5 56t-57.5 132q0 80 57.5 134.5t136.5 54.5q81 0 136.5 -54.5t55.5 -134.5
q0 -76 -55.5 -132t-136.5 -56z" />
    <glyph glyph-name="uni00F0" unicode="&#xf0;" horiz-adv-x="1670" 
d="M1315 1935l-898 -450l-41 178l898 451zM830 -32q-215 0 -374.5 93.5t-247.5 259.5t-88 383q0 208 80 372t220 258t320 94q101 0 180 -30.5t137.5 -78t96.5 -99.5h20q-58 136 -167.5 272t-266 256.5t-354.5 209.5l62 208q208 -67 405 -191t354.5 -300.5t250 -402.5
t92.5 -496q0 -249 -88.5 -430.5t-250 -279.5t-381.5 -98zM838 256q119 0 202.5 58.5t126.5 161t43 235.5q0 123 -39 231t-121.5 175.5t-211.5 67.5q-123 0 -205 -61.5t-122.5 -166.5t-40.5 -236q0 -129 40 -234.5t121.5 -168t206.5 -62.5z" />
    <glyph glyph-name="uni00F1" unicode="&#xf1;" horiz-adv-x="1717" 
d="M548 900v-900h-362v1536h346v-261h18q53 129 169.5 205t288.5 76q159 0 277.5 -68t184 -197t64.5 -313v-978h-362v922q0 154 -79.5 241t-219.5 87q-95 0 -168.5 -41.5t-115 -119.5t-41.5 -189zM565 1723l-219 5q0 178 92 279t227 101q65 0 113 -21.5t88.5 -49.5
t79.5 -49.5t86 -21.5q57 0 90.5 43t34.5 110l215 -9q-1 -179 -93 -277.5t-226 -99.5q-72 -1 -121 21t-85.5 50t-73.5 49.5t-87 21.5q-53 0 -87 -42t-34 -110z" />
    <glyph glyph-name="uni00F2" unicode="&#xf2;" horiz-adv-x="1712" 
d="M856 -30q-225 0 -390 99t-255.5 277t-90.5 416t90.5 417t255.5 278t390 99t390 -99t255.5 -278t90.5 -417t-90.5 -416t-255.5 -277t-390 -99zM858 260q122 0 204 67.5t122.5 181.5t40.5 254q0 141 -40.5 255.5t-122.5 182.5t-204 68q-125 0 -207.5 -68t-123 -182.5
t-40.5 -255.5q0 -140 40.5 -254t123 -181.5t207.5 -67.5zM724 1738l-307 457h355l223 -457h-271z" />
    <glyph glyph-name="uni00F3" unicode="&#xf3;" horiz-adv-x="1712" 
d="M856 -30q-225 0 -390 99t-255.5 277t-90.5 416t90.5 417t255.5 278t390 99t390 -99t255.5 -278t90.5 -417t-90.5 -416t-255.5 -277t-390 -99zM858 260q122 0 204 67.5t122.5 181.5t40.5 254q0 141 -40.5 255.5t-122.5 182.5t-204 68q-125 0 -207.5 -68t-123 -182.5
t-40.5 -255.5q0 -140 40.5 -254t123 -181.5t207.5 -67.5zM717 1738l224 457h354l-307 -457h-271z" />
    <glyph glyph-name="uni00F4" unicode="&#xf4;" horiz-adv-x="1712" 
d="M856 -30q-225 0 -390 99t-255.5 277t-90.5 416t90.5 417t255.5 278t390 99t390 -99t255.5 -278t90.5 -417t-90.5 -416t-255.5 -277t-390 -99zM858 260q122 0 204 67.5t122.5 181.5t40.5 254q0 141 -40.5 255.5t-122.5 182.5t-204 68q-125 0 -207.5 -68t-123 -182.5
t-40.5 -255.5q0 -140 40.5 -254t123 -181.5t207.5 -67.5zM1059 1720l-203 256l-203 -256h-317v14l379 432h283l378 -432v-14h-317z" />
    <glyph glyph-name="uni00F5" unicode="&#xf5;" horiz-adv-x="1712" 
d="M856 -30q-225 0 -390 99t-255.5 277t-90.5 416t90.5 417t255.5 278t390 99t390 -99t255.5 -278t90.5 -417t-90.5 -416t-255.5 -277t-390 -99zM858 260q122 0 204 67.5t122.5 181.5t40.5 254q0 141 -40.5 255.5t-122.5 182.5t-204 68q-125 0 -207.5 -68t-123 -182.5
t-40.5 -255.5q0 -140 40.5 -254t123 -181.5t207.5 -67.5zM562 1723l-219 5q0 178 92 279t227 101q65 0 113 -21.5t88.5 -49.5t79.5 -49.5t86 -21.5q57 0 90.5 43t34.5 110l215 -9q-1 -179 -93 -277.5t-226 -99.5q-72 -1 -121 21t-85.5 50t-73.5 49.5t-87 21.5q-53 0 -87 -42
t-34 -110z" />
    <glyph glyph-name="uni00F6" unicode="&#xf6;" horiz-adv-x="1712" 
d="M856 -30q-225 0 -390 99t-255.5 277t-90.5 416t90.5 417t255.5 278t390 99t390 -99t255.5 -278t90.5 -417t-90.5 -416t-255.5 -277t-390 -99zM858 260q122 0 204 67.5t122.5 181.5t40.5 254q0 141 -40.5 255.5t-122.5 182.5t-204 68q-125 0 -207.5 -68t-123 -182.5
t-40.5 -255.5q0 -140 40.5 -254t123 -181.5t207.5 -67.5zM557 1762q-79 0 -136.5 56t-57.5 132q0 80 57.5 134.5t136.5 54.5q81 0 136.5 -54.5t55.5 -134.5q0 -76 -55.5 -132t-136.5 -56zM1157 1762q-79 0 -136.5 56t-57.5 132q0 80 57.5 134.5t136.5 54.5q81 0 136.5 -54.5
t55.5 -134.5q0 -76 -55.5 -132t-136.5 -56z" />
    <glyph glyph-name="uni00F7" unicode="&#xf7;" horiz-adv-x="1894" 
d="M1627 963v-301h-1360v301h1360zM947 50q-92 0 -156.5 64.5t-64.5 156.5q0 90 64.5 154t156.5 64q90 0 154 -64t64 -154q0 -92 -64 -156.5t-154 -64.5zM947 1137q-61 0 -111.5 29.5t-80 80t-29.5 111.5q0 90 64.5 154t156.5 64q90 0 154 -64t64 -154q0 -91 -64 -156
t-154 -65z" />
    <glyph glyph-name="uni00F8" unicode="&#xf8;" horiz-adv-x="1712" 
d="M399 -94l-181 124l1093 1588l183 -124zM856 -32q-225 0 -390 99t-255.5 277.5t-90.5 415.5q0 238 90.5 417t255.5 278t390 99t390 -99t255.5 -278t90.5 -417q0 -237 -90.5 -415.5t-255.5 -277.5t-390 -99zM858 258q122 0 204 67.5t122.5 181.5t40.5 255
q0 140 -40.5 254.5t-122.5 182.5t-204 68q-125 0 -207.5 -68t-123 -182.5t-40.5 -254.5q0 -141 40.5 -255t123 -181.5t207.5 -67.5z" />
    <glyph glyph-name="uni00F9" unicode="&#xf9;" horiz-adv-x="1713" 
d="M1165 646v890h362v-1536h-351v273h-16q-52 -129 -170.5 -211t-291.5 -82q-151 0 -266.5 67.5t-180.5 197t-65 313.5v978h362v-922q0 -146 80 -232t210 -86q80 0 155 39t123.5 116.5t48.5 194.5zM726 1738l-307 457h355l223 -457h-271z" />
    <glyph glyph-name="uni00FA" unicode="&#xfa;" horiz-adv-x="1713" 
d="M1165 646v890h362v-1536h-351v273h-16q-52 -129 -170.5 -211t-291.5 -82q-151 0 -266.5 67.5t-180.5 197t-65 313.5v978h362v-922q0 -146 80 -232t210 -86q80 0 155 39t123.5 116.5t48.5 194.5zM720 1738l224 457h354l-307 -457h-271z" />
    <glyph glyph-name="uni00FB" unicode="&#xfb;" horiz-adv-x="1713" 
d="M1165 646v890h362v-1536h-351v273h-16q-52 -129 -170.5 -211t-291.5 -82q-151 0 -266.5 67.5t-180.5 197t-65 313.5v978h362v-922q0 -146 80 -232t210 -86q80 0 155 39t123.5 116.5t48.5 194.5zM1061 1720l-203 256l-203 -256h-317v14l379 432h283l378 -432v-14h-317z
" />
    <glyph glyph-name="uni00FC" unicode="&#xfc;" horiz-adv-x="1713" 
d="M1165 646v890h362v-1536h-351v273h-16q-52 -129 -170.5 -211t-291.5 -82q-151 0 -266.5 67.5t-180.5 197t-65 313.5v978h362v-922q0 -146 80 -232t210 -86q80 0 155 39t123.5 116.5t48.5 194.5zM559 1762q-79 0 -136.5 56t-57.5 132q0 80 57.5 134.5t136.5 54.5
q81 0 136.5 -54.5t55.5 -134.5q0 -76 -55.5 -132t-136.5 -56zM1159 1762q-79 0 -136.5 56t-57.5 132q0 80 57.5 134.5t136.5 54.5q81 0 136.5 -54.5t55.5 -134.5q0 -76 -55.5 -132t-136.5 -56z" />
    <glyph glyph-name="uni00FD" unicode="&#xfd;" horiz-adv-x="1622" 
d="M411 -576q-74 0 -136.5 11.5t-99.5 26.5l84 282q79 -23 141 -22t109.5 38.5t80.5 124.5l31 83l-557 1568h384l354 -1160h16l355 1160h385l-615 -1722q-43 -122 -114 -209.5t-173.5 -134t-244.5 -46.5zM671 1738l224 457h354l-307 -457h-271z" />
    <glyph glyph-name="uni00FE" unicode="&#xfe;" horiz-adv-x="1722" 
d="M186 2048h362v-820l-119 -466l119 -464v-874h-362v2624zM402 1337h164q27 49 75.5 99.5t127.5 85t197 34.5q176 0 319.5 -90.5t229 -267t84.5 -432.5q1 -254 -83 -431t-227 -269.5t-323 -92.5q-114 0 -193 33.5t-129 83.5t-78 101h-164v1146zM1251 768q1 146 -40.5 256.5
t-125 172.5t-208.5 62t-204.5 -64t-116.5 -174.5t-38 -252.5q1 -141 38 -254t116 -178.5t205 -65.5q124 0 207 63t125.5 175.5t41.5 259.5z" />
    <glyph glyph-name="uni00FF" unicode="&#xff;" horiz-adv-x="1622" 
d="M411 -576q-74 0 -136.5 11.5t-99.5 26.5l84 282q79 -23 141 -22t109.5 38.5t80.5 124.5l31 83l-557 1568h384l354 -1160h16l355 1160h385l-615 -1722q-43 -122 -114 -209.5t-173.5 -134t-244.5 -46.5zM510 1762q-78 0 -135.5 56t-57.5 132q0 80 57.5 134.5t135.5 54.5
q81 0 136.5 -54.5t55.5 -134.5q0 -76 -55.5 -132t-136.5 -56zM1110 1762q-78 0 -135.5 56t-57.5 132q0 80 57.5 134.5t135.5 54.5q81 0 136.5 -54.5t55.5 -134.5q0 -76 -55.5 -132t-136.5 -56z" />
    <glyph glyph-name="uni0100" unicode="&#x100;" horiz-adv-x="2038" 
d="M465 0h-396l721 2048h458l722 -2048h-396l-547 1628h-16zM478 803h1080v-298h-1080v298zM1500 2560v-221h-962v221h962z" />
    <glyph glyph-name="uni0101" unicode="&#x101;" horiz-adv-x="1618" 
d="M628 -31q-146 0 -262.5 52.5t-184 155.5t-67.5 254q0 130 48 215t131 136t187.5 77.5t216.5 38.5q135 14 219 25.5t122.5 36t38.5 76.5v6q0 113 -67 175t-193 62q-133 0 -210.5 -58t-104.5 -137l-338 48q40 140 132 234.5t225 142t294 47.5q111 0 221 -26t201 -85.5
t146.5 -161.5t55.5 -255v-1028h-348v211h-12q-33 -64 -92.5 -119.5t-149 -89t-209.5 -33.5zM722 235q109 0 189 43.5t123.5 115.5t43.5 157v181q-17 -14 -57.5 -26t-90.5 -21t-99 -16t-85 -12q-81 -11 -145 -36t-101 -69.5t-37 -114.5q0 -100 73 -151t186 -51zM1312 2048
v-221h-962v221h962z" />
    <glyph glyph-name="uni0102" unicode="&#x102;" horiz-adv-x="2038" 
d="M465 0h-396l721 2048h458l722 -2048h-396l-547 1628h-16zM478 803h1080v-298h-1080v298zM1217 2576h271q0 -175 -126.5 -283.5t-342.5 -108.5q-214 0 -340.5 108.5t-125.5 283.5h269q0 -72 44.5 -128.5t152.5 -56.5q106 0 151.5 56t46.5 129z" />
    <glyph glyph-name="uni0103" unicode="&#x103;" horiz-adv-x="1618" 
d="M628 -31q-146 0 -262.5 52.5t-184 155.5t-67.5 254q0 130 48 215t131 136t187.5 77.5t216.5 38.5q135 14 219 25.5t122.5 36t38.5 76.5v6q0 113 -67 175t-193 62q-133 0 -210.5 -58t-104.5 -137l-338 48q40 140 132 234.5t225 142t294 47.5q111 0 221 -26t201 -85.5
t146.5 -161.5t55.5 -255v-1028h-348v211h-12q-33 -64 -92.5 -119.5t-149 -89t-209.5 -33.5zM722 235q109 0 189 43.5t123.5 115.5t43.5 157v181q-17 -14 -57.5 -26t-90.5 -21t-99 -16t-85 -12q-81 -11 -145 -36t-101 -69.5t-37 -114.5q0 -100 73 -151t186 -51zM1029 2064
h271q0 -175 -126.5 -283.5t-342.5 -108.5q-214 0 -340.5 108.5t-125.5 283.5h269q0 -72 44.5 -128.5t152.5 -56.5q106 0 151.5 56t46.5 129z" />
    <glyph glyph-name="uni0104" unicode="&#x104;" horiz-adv-x="2038" 
d="M465 0h-396l721 2048h458l722 -2048h-396l-547 1628h-16zM478 803h1080v-298h-1080v298zM1776 -582q-129 0 -215.5 68t-101.5 196q-11 78 13 158t86 149t164 116l247 -105q-93 -52 -156 -110t-63 -136q0 -48 23.5 -74t75.5 -26q38 0 66.5 10t48.5 18l36 -204
q-36 -21 -92 -40.5t-132 -19.5z" />
    <glyph glyph-name="uni0105" unicode="&#x105;" horiz-adv-x="1618" 
d="M628 -31q-146 0 -262.5 52.5t-184 155.5t-67.5 254q0 130 48 215t131 136t187.5 77.5t216.5 38.5q135 14 219 25.5t122.5 36t38.5 76.5v6q0 113 -67 175t-193 62q-133 0 -210.5 -58t-104.5 -137l-338 48q40 140 132 234.5t225 142t294 47.5q111 0 221 -26t201 -85.5
t146.5 -161.5t55.5 -255v-1028h-348v211h-12q-33 -64 -92.5 -119.5t-149 -89t-209.5 -33.5zM722 235q109 0 189 43.5t123.5 115.5t43.5 157v181q-17 -14 -57.5 -26t-90.5 -21t-99 -16t-85 -12q-81 -11 -145 -36t-101 -69.5t-37 -114.5q0 -100 73 -151t186 -51zM1246 -582
q-129 0 -215.5 68t-101.5 196q-11 78 13 158t86 149t164 116l247 -105q-93 -52 -156 -110t-63 -136q0 -48 23.5 -74t75.5 -26q38 0 66.5 10t48.5 18l36 -204q-36 -21 -92 -40.5t-132 -19.5z" />
    <glyph glyph-name="uni0106" unicode="&#x106;" horiz-adv-x="2094" 
d="M1955 1357h-374q-16 92 -59 163.5t-107 121.5t-145.5 75.5t-175.5 25.5q-167 0 -296 -83.5t-202 -244t-73 -391.5q0 -235 73.5 -395.5t202 -242t294.5 -81.5q92 0 172.5 24.5t145 72.5t109 118t61.5 160l374 -2q-21 -146 -90.5 -274t-181.5 -225.5t-262 -152t-333 -54.5
q-270 0 -482 125t-334 361t-122 566q0 331 123 566.5t335 360.5t480 125q171 0 318 -48t262 -140.5t189.5 -226t97.5 -304.5zM949 2250l224 457h354l-307 -457h-271z" />
    <glyph glyph-name="uni0107" unicode="&#x107;" horiz-adv-x="1626" 
d="M856 -30q-230 0 -394.5 101t-253 279.5t-88.5 411.5q0 234 90 413.5t254.5 280t389.5 100.5q187 0 331.5 -68.5t230.5 -193t98 -290.5h-346q-21 111 -99.5 185.5t-209.5 74.5q-111 0 -195 -59.5t-130.5 -170.5t-46.5 -266q0 -157 46 -269.5t129.5 -173t196.5 -60.5
q80 0 143.5 30.5t106.5 88.5t59 141h346q-13 -163 -96 -288.5t-226 -196t-336 -70.5zM714 1738l224 457h354l-307 -457h-271z" />
    <glyph glyph-name="uni0108" unicode="&#x108;" horiz-adv-x="2094" 
d="M1955 1357h-374q-16 92 -59 163.5t-107 121.5t-145.5 75.5t-175.5 25.5q-167 0 -296 -83.5t-202 -244t-73 -391.5q0 -235 73.5 -395.5t202 -242t294.5 -81.5q92 0 172.5 24.5t145 72.5t109 118t61.5 160l374 -2q-21 -146 -90.5 -274t-181.5 -225.5t-262 -152t-333 -54.5
q-270 0 -482 125t-334 361t-122 566q0 331 123 566.5t335 360.5t480 125q171 0 318 -48t262 -140.5t189.5 -226t97.5 -304.5zM1291 2232l-203 256l-203 -256h-317v14l379 432h283l378 -432v-14h-317z" />
    <glyph glyph-name="uni0109" unicode="&#x109;" horiz-adv-x="1626" 
d="M856 -30q-230 0 -394.5 101t-253 279.5t-88.5 411.5q0 234 90 413.5t254.5 280t389.5 100.5q187 0 331.5 -68.5t230.5 -193t98 -290.5h-346q-21 111 -99.5 185.5t-209.5 74.5q-111 0 -195 -59.5t-130.5 -170.5t-46.5 -266q0 -157 46 -269.5t129.5 -173t196.5 -60.5
q80 0 143.5 30.5t106.5 88.5t59 141h346q-13 -163 -96 -288.5t-226 -196t-336 -70.5zM1056 1720l-203 256l-203 -256h-317v14l379 432h283l378 -432v-14h-317z" />
    <glyph glyph-name="uni010A" unicode="&#x10a;" horiz-adv-x="2094" 
d="M1955 1357h-374q-16 92 -59 163.5t-107 121.5t-145.5 75.5t-175.5 25.5q-167 0 -296 -83.5t-202 -244t-73 -391.5q0 -235 73.5 -395.5t202 -242t294.5 -81.5q92 0 172.5 24.5t145 72.5t109 118t61.5 160l374 -2q-21 -146 -90.5 -274t-181.5 -225.5t-262 -152t-333 -54.5
q-270 0 -482 125t-334 361t-122 566q0 331 123 566.5t335 360.5t480 125q171 0 318 -48t262 -140.5t189.5 -226t97.5 -304.5zM1088 2266q-87 0 -148.5 57.5t-61.5 138.5q0 82 62 139.5t148 57.5t147.5 -57.5t61.5 -139.5q0 -81 -61.5 -138.5t-147.5 -57.5z" />
    <glyph glyph-name="uni010B" unicode="&#x10b;" horiz-adv-x="1626" 
d="M856 -30q-230 0 -394.5 101t-253 279.5t-88.5 411.5q0 234 90 413.5t254.5 280t389.5 100.5q187 0 331.5 -68.5t230.5 -193t98 -290.5h-346q-21 111 -99.5 185.5t-209.5 74.5q-111 0 -195 -59.5t-130.5 -170.5t-46.5 -266q0 -157 46 -269.5t129.5 -173t196.5 -60.5
q80 0 143.5 30.5t106.5 88.5t59 141h346q-13 -163 -96 -288.5t-226 -196t-336 -70.5zM853 1754q-87 0 -148.5 57.5t-61.5 138.5q0 82 62 139.5t148 57.5t147.5 -57.5t61.5 -139.5q0 -81 -61.5 -138.5t-147.5 -57.5z" />
    <glyph glyph-name="uni010C" unicode="&#x10c;" horiz-adv-x="2094" 
d="M1955 1357h-374q-16 92 -59 163.5t-107 121.5t-145.5 75.5t-175.5 25.5q-167 0 -296 -83.5t-202 -244t-73 -391.5q0 -235 73.5 -395.5t202 -242t294.5 -81.5q92 0 172.5 24.5t145 72.5t109 118t61.5 160l374 -2q-21 -146 -90.5 -274t-181.5 -225.5t-262 -152t-333 -54.5
q-270 0 -482 125t-334 361t-122 566q0 331 123 566.5t335 360.5t480 125q171 0 318 -48t262 -140.5t189.5 -226t97.5 -304.5zM885 2678l203 -256l203 256h317v-14l-378 -432h-283l-379 432v14h317z" />
    <glyph glyph-name="uni010D" unicode="&#x10d;" horiz-adv-x="1626" 
d="M856 -30q-230 0 -394.5 101t-253 279.5t-88.5 411.5q0 234 90 413.5t254.5 280t389.5 100.5q187 0 331.5 -68.5t230.5 -193t98 -290.5h-346q-21 111 -99.5 185.5t-209.5 74.5q-111 0 -195 -59.5t-130.5 -170.5t-46.5 -266q0 -157 46 -269.5t129.5 -173t196.5 -60.5
q80 0 143.5 30.5t106.5 88.5t59 141h346q-13 -163 -96 -288.5t-226 -196t-336 -70.5zM650 2166l203 -256l203 256h317v-14l-378 -432h-283l-379 432v14h317z" />
    <glyph glyph-name="uni010E" unicode="&#x10e;" horiz-adv-x="2040" 
d="M896 0h-694v2048h708q305 0 524.5 -122.5t337.5 -351.5t118 -548q0 -320 -118.5 -550t-341 -353t-534.5 -123zM573 321h305q214 0 357 78.5t215 235t72 391.5t-72 390.5t-212.5 233t-348.5 77.5h-316v-1406zM632 2678l203 -256l203 256h317v-14l-378 -432h-283l-379 432
v14h317z" />
    <glyph glyph-name="uni010F" unicode="&#x10f;" horiz-adv-x="2017" 
d="M756 -27q-181 0 -324 93t-226 270t-83 430q0 256 84.5 432.5t228.5 267t321 90.5q135 0 222 -45.5t138 -109t79 -119.5h15v766h363v-2048h-356v242h-22q-28 -56 -81 -118.5t-140 -106.5t-219 -44zM857 270q115 0 196 62.5t123 174.5t42 261t-41.5 259t-122 171t-197.5 61
q-121 0 -202 -63t-122 -174t-41 -254q0 -144 41.5 -256.5t123 -177t200.5 -64.5zM1755 1626v524h294l-72 -524h-222z" />
    <glyph glyph-name="uni0110" unicode="&#x110;" horiz-adv-x="2040" 
d="M896 0h-519v321h501q214 0 357 78.5t215 235t72 391.5t-72 390.5t-212.5 233t-348.5 77.5h-523v321h544q305 0 524.5 -122.5t337.5 -351.5t118 -548q0 -320 -118.5 -550t-341 -353t-534.5 -123zM573 2048v-2048h-371v2048h371zM-94 958v228h959v-228h-959z" />
    <glyph glyph-name="uni0111" unicode="&#x111;" horiz-adv-x="1775" 
d="M756 -27q-181 0 -324 93t-226 270t-83 430q0 256 84.5 432.5t228.5 267t321 90.5q135 0 222 -45.5t138 -109t79 -119.5h15v766h363v-2048h-356v242h-22q-28 -56 -81 -118.5t-140 -106.5t-219 -44zM857 270q115 0 196 62.5t123 174.5t42 261t-41.5 259t-122 171t-197.5 61
q-121 0 -202 -63t-122 -174t-41 -254q0 -144 41.5 -256.5t123 -177t200.5 -64.5zM805 1651v229h958v-229h-958z" />
    <glyph glyph-name="uni0112" unicode="&#x112;" horiz-adv-x="1711" 
d="M202 0v2048h1332v-311h-961v-556h892v-311h-892v-559h969v-311h-1340zM1350 2560v-221h-962v221h962z" />
    <glyph glyph-name="uni0113" unicode="&#x113;" horiz-adv-x="1669" 
d="M866 -30q-231 0 -398.5 96.5t-257.5 274t-90 418.5q0 237 90.5 416.5t253.5 280t383 100.5q142 0 268.5 -45.5t224 -140.5t153.5 -241.5t56 -348.5v-111h-1259v244h912q-1 104 -45 185.5t-122.5 128.5t-182.5 47q-111 0 -195 -53.5t-130.5 -140t-47.5 -189.5v-213
q0 -134 49 -229.5t137 -146t206 -50.5q79 0 143 22.5t111 66.5t71 109l338 -38q-32 -134 -121.5 -233.5t-228.5 -154t-318 -54.5zM1318 2048v-221h-962v221h962z" />
    <glyph glyph-name="uni0114" unicode="&#x114;" horiz-adv-x="1711" 
d="M202 0v2048h1332v-311h-961v-556h892v-311h-892v-559h969v-311h-1340zM1067 2576h271q0 -175 -126.5 -283.5t-342.5 -108.5q-214 0 -340.5 108.5t-125.5 283.5h269q0 -72 44.5 -128.5t152.5 -56.5q106 0 151.5 56t46.5 129z" />
    <glyph glyph-name="uni0115" unicode="&#x115;" horiz-adv-x="1669" 
d="M866 -30q-231 0 -398.5 96.5t-257.5 274t-90 418.5q0 237 90.5 416.5t253.5 280t383 100.5q142 0 268.5 -45.5t224 -140.5t153.5 -241.5t56 -348.5v-111h-1259v244h912q-1 104 -45 185.5t-122.5 128.5t-182.5 47q-111 0 -195 -53.5t-130.5 -140t-47.5 -189.5v-213
q0 -134 49 -229.5t137 -146t206 -50.5q79 0 143 22.5t111 66.5t71 109l338 -38q-32 -134 -121.5 -233.5t-228.5 -154t-318 -54.5zM1035 2064h271q0 -175 -126.5 -283.5t-342.5 -108.5q-214 0 -340.5 108.5t-125.5 283.5h269q0 -72 44.5 -128.5t152.5 -56.5q106 0 151.5 56
t46.5 129z" />
    <glyph glyph-name="uni0116" unicode="&#x116;" horiz-adv-x="1711" 
d="M202 0v2048h1332v-311h-961v-556h892v-311h-892v-559h969v-311h-1340zM869 2266q-87 0 -148.5 57.5t-61.5 138.5q0 82 62 139.5t148 57.5t147.5 -57.5t61.5 -139.5q0 -81 -61.5 -138.5t-147.5 -57.5z" />
    <glyph glyph-name="uni0117" unicode="&#x117;" horiz-adv-x="1669" 
d="M866 -30q-231 0 -398.5 96.5t-257.5 274t-90 418.5q0 237 90.5 416.5t253.5 280t383 100.5q142 0 268.5 -45.5t224 -140.5t153.5 -241.5t56 -348.5v-111h-1259v244h912q-1 104 -45 185.5t-122.5 128.5t-182.5 47q-111 0 -195 -53.5t-130.5 -140t-47.5 -189.5v-213
q0 -134 49 -229.5t137 -146t206 -50.5q79 0 143 22.5t111 66.5t71 109l338 -38q-32 -134 -121.5 -233.5t-228.5 -154t-318 -54.5zM837 1754q-87 0 -148.5 57.5t-61.5 138.5q0 82 62 139.5t148 57.5t147.5 -57.5t61.5 -139.5q0 -81 -61.5 -138.5t-147.5 -57.5z" />
    <glyph glyph-name="uni0118" unicode="&#x118;" horiz-adv-x="1711" 
d="M202 0v2048h1332v-311h-961v-556h892v-311h-892v-559h969v-311h-1340zM1348 -582q-129 0 -215.5 68t-101.5 196q-11 78 13 158t86 149t164 116l247 -105q-93 -52 -156 -110t-63 -136q0 -48 23.5 -74t75.5 -26q38 0 66.5 10t48.5 18l36 -204q-36 -21 -92 -40.5t-132 -19.5
z" />
    <glyph glyph-name="uni0119" unicode="&#x119;" horiz-adv-x="1669" 
d="M866 -30q-231 0 -398.5 96.5t-257.5 274t-90 418.5q0 237 90.5 416.5t253.5 280t383 100.5q142 0 268.5 -45.5t224 -140.5t153.5 -241.5t56 -348.5v-111h-1259v244h912q-1 104 -45 185.5t-122.5 128.5t-182.5 47q-111 0 -195 -53.5t-130.5 -140t-47.5 -189.5v-213
q0 -134 49 -229.5t137 -146t206 -50.5q79 0 143 22.5t111 66.5t71 109l338 -38q-32 -134 -121.5 -233.5t-228.5 -154t-318 -54.5zM967 -555q-129 0 -215.5 68t-101.5 196q-11 78 13 158t86 149t164 116l247 -105q-93 -52 -156 -110t-63 -136q0 -48 23.5 -74t75.5 -26
q38 0 66.5 10t48.5 18l36 -204q-36 -21 -92 -40.5t-132 -19.5z" />
    <glyph glyph-name="uni011A" unicode="&#x11a;" horiz-adv-x="1711" 
d="M202 0v2048h1332v-311h-961v-556h892v-311h-892v-559h969v-311h-1340zM666 2678l203 -256l203 256h317v-14l-378 -432h-283l-379 432v14h317z" />
    <glyph glyph-name="uni011B" unicode="&#x11b;" horiz-adv-x="1669" 
d="M866 -30q-231 0 -398.5 96.5t-257.5 274t-90 418.5q0 237 90.5 416.5t253.5 280t383 100.5q142 0 268.5 -45.5t224 -140.5t153.5 -241.5t56 -348.5v-111h-1259v244h912q-1 104 -45 185.5t-122.5 128.5t-182.5 47q-111 0 -195 -53.5t-130.5 -140t-47.5 -189.5v-213
q0 -134 49 -229.5t137 -146t206 -50.5q79 0 143 22.5t111 66.5t71 109l338 -38q-32 -134 -121.5 -233.5t-228.5 -154t-318 -54.5zM634 2166l203 -256l203 256h317v-14l-378 -432h-283l-379 432v14h317z" />
    <glyph glyph-name="uni011C" unicode="&#x11c;" horiz-adv-x="2126" 
d="M1574 1394q-25 81 -68.5 145.5t-104 110.5t-138.5 69.5t-170 23.5q-165 0 -294 -83t-202.5 -243.5t-73.5 -390.5q0 -232 73 -393t203 -244.5t302 -83.5q156 0 270.5 60t176.5 170.5t62 259.5l84 -13h-556v290h831v-246q0 -263 -112 -455t-308 -295.5t-450 -103.5
q-283 0 -496.5 127.5t-333 363t-119.5 559.5q0 248 70.5 443t197.5 331.5t298 208t372 71.5q170 0 317 -49.5t261.5 -140.5t188.5 -216t97 -276h-378zM1284 2232l-203 256l-203 -256h-317v14l379 432h283l378 -432v-14h-317z" />
    <glyph glyph-name="uni011D" unicode="&#x11d;" horiz-adv-x="1761" 
d="M854 -608q-195 0 -335 52.5t-225 140.5t-118 195l326 79q22 -45 64 -89.5t113.5 -74t180.5 -29.5q154 0 255 74.5t101 244.5v291h-18q-28 -56 -81.5 -115t-141 -99t-219.5 -40q-177 0 -320.5 83.5t-228 250t-84.5 417.5q0 253 84.5 427.5t228.5 265t321 90.5
q135 0 222.5 -45.5t139.5 -109t79 -119.5h20v254h357v-1561q0 -197 -94 -326t-257 -193t-370 -64zM857 306q115 0 196 56t123 161t42 252q0 145 -41.5 254t-122 169.5t-197.5 60.5q-121 0 -202 -63t-122 -172.5t-41 -248.5q0 -141 41.5 -246.5t123 -164t200.5 -58.5z
M1071 1720l-203 256l-203 -256h-317v14l379 432h283l378 -432v-14h-317z" />
    <glyph glyph-name="uni011E" unicode="&#x11e;" horiz-adv-x="2126" 
d="M1574 1394q-25 81 -68.5 145.5t-104 110.5t-138.5 69.5t-170 23.5q-165 0 -294 -83t-202.5 -243.5t-73.5 -390.5q0 -232 73 -393t203 -244.5t302 -83.5q156 0 270.5 60t176.5 170.5t62 259.5l84 -13h-556v290h831v-246q0 -263 -112 -455t-308 -295.5t-450 -103.5
q-283 0 -496.5 127.5t-333 363t-119.5 559.5q0 248 70.5 443t197.5 331.5t298 208t372 71.5q170 0 317 -49.5t261.5 -140.5t188.5 -216t97 -276h-378zM1279 2576h271q0 -175 -126.5 -283.5t-342.5 -108.5q-214 0 -340.5 108.5t-125.5 283.5h269q0 -72 44.5 -128.5
t152.5 -56.5q106 0 151.5 56t46.5 129z" />
    <glyph glyph-name="uni011F" unicode="&#x11f;" horiz-adv-x="1761" 
d="M854 -608q-195 0 -335 52.5t-225 140.5t-118 195l326 79q22 -45 64 -89.5t113.5 -74t180.5 -29.5q154 0 255 74.5t101 244.5v291h-18q-28 -56 -81.5 -115t-141 -99t-219.5 -40q-177 0 -320.5 83.5t-228 250t-84.5 417.5q0 253 84.5 427.5t228.5 265t321 90.5
q135 0 222.5 -45.5t139.5 -109t79 -119.5h20v254h357v-1561q0 -197 -94 -326t-257 -193t-370 -64zM857 306q115 0 196 56t123 161t42 252q0 145 -41.5 254t-122 169.5t-197.5 60.5q-121 0 -202 -63t-122 -172.5t-41 -248.5q0 -141 41.5 -246.5t123 -164t200.5 -58.5z
M1066 2064h271q0 -175 -126.5 -283.5t-342.5 -108.5q-214 0 -340.5 108.5t-125.5 283.5h269q0 -72 44.5 -128.5t152.5 -56.5q106 0 151.5 56t46.5 129z" />
    <glyph glyph-name="uni0120" unicode="&#x120;" horiz-adv-x="2126" 
d="M1574 1394q-25 81 -68.5 145.5t-104 110.5t-138.5 69.5t-170 23.5q-165 0 -294 -83t-202.5 -243.5t-73.5 -390.5q0 -232 73 -393t203 -244.5t302 -83.5q156 0 270.5 60t176.5 170.5t62 259.5l84 -13h-556v290h831v-246q0 -263 -112 -455t-308 -295.5t-450 -103.5
q-283 0 -496.5 127.5t-333 363t-119.5 559.5q0 248 70.5 443t197.5 331.5t298 208t372 71.5q170 0 317 -49.5t261.5 -140.5t188.5 -216t97 -276h-378zM1082 2266q-87 0 -148.5 57.5t-61.5 138.5q0 82 62 139.5t148 57.5t147.5 -57.5t61.5 -139.5q0 -81 -61.5 -138.5
t-147.5 -57.5z" />
    <glyph glyph-name="uni0121" unicode="&#x121;" horiz-adv-x="1761" 
d="M854 -608q-195 0 -335 52.5t-225 140.5t-118 195l326 79q22 -45 64 -89.5t113.5 -74t180.5 -29.5q154 0 255 74.5t101 244.5v291h-18q-28 -56 -81.5 -115t-141 -99t-219.5 -40q-177 0 -320.5 83.5t-228 250t-84.5 417.5q0 253 84.5 427.5t228.5 265t321 90.5
q135 0 222.5 -45.5t139.5 -109t79 -119.5h20v254h357v-1561q0 -197 -94 -326t-257 -193t-370 -64zM857 306q115 0 196 56t123 161t42 252q0 145 -41.5 254t-122 169.5t-197.5 60.5q-121 0 -202 -63t-122 -172.5t-41 -248.5q0 -141 41.5 -246.5t123 -164t200.5 -58.5z
M868 1754q-87 0 -148.5 57.5t-61.5 138.5q0 82 62 139.5t148 57.5t147.5 -57.5t61.5 -139.5q0 -81 -61.5 -138.5t-147.5 -57.5z" />
    <glyph glyph-name="uni0122" unicode="&#x122;" horiz-adv-x="2126" 
d="M1574 1394q-25 81 -68.5 145.5t-104 110.5t-138.5 69.5t-170 23.5q-165 0 -294 -83t-202.5 -243.5t-73.5 -390.5q0 -232 73 -393t203 -244.5t302 -83.5q156 0 270.5 60t176.5 170.5t62 259.5l84 -13h-556v290h831v-246q0 -263 -112 -455t-308 -295.5t-450 -103.5
q-283 0 -496.5 127.5t-333 363t-119.5 559.5q0 248 70.5 443t197.5 331.5t298 208t372 71.5q170 0 317 -49.5t261.5 -140.5t188.5 -216t97 -276h-378zM788 -661l120 502h344l-203 -502h-261z" />
    <glyph glyph-name="uni0123" unicode="&#x123;" horiz-adv-x="1761" 
d="M854 -608q-195 0 -335 52.5t-225 140.5t-118 195l326 79q22 -45 64 -89.5t113.5 -74t180.5 -29.5q154 0 255 74.5t101 244.5v291h-18q-28 -56 -81.5 -115t-141 -99t-219.5 -40q-177 0 -320.5 83.5t-228 250t-84.5 417.5q0 253 84.5 427.5t228.5 265t321 90.5
q135 0 222.5 -45.5t139.5 -109t79 -119.5h20v254h357v-1561q0 -197 -94 -326t-257 -193t-370 -64zM857 306q115 0 196 56t123 161t42 252q0 145 -41.5 254t-122 169.5t-197.5 60.5q-121 0 -202 -63t-122 -172.5t-41 -248.5q0 -141 41.5 -246.5t123 -164t200.5 -58.5z
M710 1747v185q0 98 28.5 184.5t75.5 153.5t100 105l194 -113q-40 -67 -65 -153t-25 -192l-4 -170h-304z" />
    <glyph glyph-name="uni0124" unicode="&#x124;" horiz-adv-x="2095" 
d="M202 0v2048h371v-867h949v867h372v-2048h-372v870h-949v-870h-371zM1256 2234l-203 256l-203 -256h-317v14l379 432h283l378 -432v-14h-317z" />
    <glyph glyph-name="uni0125" unicode="&#x125;" horiz-adv-x="1726" 
d="M548 900v-900h-362v2048h354v-773h18q54 130 167.5 205.5t289.5 75.5q160 0 279 -67t184.5 -196t65.5 -315v-978h-362v922q0 155 -79.5 241.5t-222.5 86.5q-96 0 -171.5 -41.5t-118 -119.5t-42.5 -189zM568 2232l-203 256l-203 -256h-317v14l379 432h283l378 -432v-14
h-317z" />
    <glyph glyph-name="uni0126" unicode="&#x126;" horiz-adv-x="2250" 
d="M2138 1667v-230h-2026v230h2026zM279 0v2048h371v-867h950v867h371v-2048h-371v870h-950v-870h-371z" />
    <glyph glyph-name="uni0127" unicode="&#x127;" horiz-adv-x="1726" 
d="M548 900v-900h-362v2048h354v-773h18q54 130 167.5 205.5t289.5 75.5q160 0 279 -67t184.5 -196t65.5 -315v-978h-362v922q0 155 -79.5 241.5t-222.5 86.5q-96 0 -171.5 -41.5t-118 -119.5t-42.5 -189zM-117 1665v229h959v-229h-959z" />
    <glyph glyph-name="uni0128" unicode="&#x128;" horiz-adv-x="1262" 
d="M815 2048v-2048h-371v2048h371zM336 2235l-219 5q0 178 92 279t227 101q65 0 113 -21.5t88.5 -49.5t79.5 -49.5t86 -21.5q57 0 90.5 43t34.5 110l215 -9q-1 -179 -93 -277.5t-226 -99.5q-72 -1 -121 21t-85.5 50t-73.5 49.5t-87 21.5q-53 0 -87 -42t-34 -110z" />
    <glyph glyph-name="uni0129" unicode="&#x129;" horiz-adv-x="803" 
d="M222 0v1536h362v-1536h-362zM110 1723l-219 5q0 178 92 279t227 101q65 0 113 -21.5t88.5 -49.5t79.5 -49.5t86 -21.5q57 0 90.5 43t34.5 110l215 -9q-1 -179 -93 -277.5t-226 -99.5q-72 -1 -121 21t-85.5 50t-73.5 49.5t-87 21.5q-53 0 -87 -42t-34 -110z" />
    <glyph glyph-name="uni012A" unicode="&#x12a;" horiz-adv-x="774" 
d="M573 2048v-2048h-371v2048h371zM869 2560v-221h-962v221h962z" />
    <glyph glyph-name="uni012B" unicode="&#x12b;" horiz-adv-x="734" 
d="M186 0v1536h362v-1536h-362zM849 2048v-221h-962v221h962z" />
    <glyph glyph-name="uni012C" unicode="&#x12c;" horiz-adv-x="774" 
d="M573 2048v-2048h-371v2048h371zM586 2576h271q0 -175 -126.5 -283.5t-342.5 -108.5q-214 0 -340.5 108.5t-125.5 283.5h269q0 -72 44.5 -128.5t152.5 -56.5q106 0 151.5 56t46.5 129z" />
    <glyph glyph-name="uni012D" unicode="&#x12d;" horiz-adv-x="734" 
d="M186 0v1536h362v-1536h-362zM566 2064h271q0 -175 -126.5 -283.5t-342.5 -108.5q-214 0 -340.5 108.5t-125.5 283.5h269q0 -72 44.5 -128.5t152.5 -56.5q106 0 151.5 56t46.5 129z" />
    <glyph glyph-name="uni012E" unicode="&#x12e;" horiz-adv-x="774" 
d="M573 2048v-2048h-371v2048h371zM380 -582q-129 0 -215.5 68t-101.5 196q-11 78 13 158t86 149t164 116l247 -105q-93 -52 -156 -110t-63 -136q0 -48 23.5 -74t75.5 -26q38 0 66.5 10t48.5 18l36 -204q-36 -21 -92 -40.5t-132 -19.5z" />
    <glyph glyph-name="uni012F" unicode="&#x12f;" horiz-adv-x="750" 
d="M173 0v1536h362v-1536h-362zM342 -582q-129 0 -215.5 68t-101.5 196q-11 78 13 158t85.5 149t164.5 116l247 -105q-93 -52 -156.5 -110t-62.5 -136q-1 -48 23 -74t76 -26q37 0 66 10t49 18l35 -204q-35 -21 -91.5 -40.5t-131.5 -19.5zM356 1754q-87 0 -148.5 57.5
t-61.5 138.5q0 82 62 139.5t148 57.5t147.5 -57.5t61.5 -139.5q0 -81 -61.5 -138.5t-147.5 -57.5z" />
    <glyph glyph-name="uni0130" unicode="&#x130;" horiz-adv-x="774" 
d="M573 2048v-2048h-371v2048h371zM388 2266q-87 0 -148.5 57.5t-61.5 138.5q0 82 62 139.5t148 57.5t147.5 -57.5t61.5 -139.5q0 -81 -61.5 -138.5t-147.5 -57.5z" />
    <glyph glyph-name="uni0131" unicode="&#x131;" horiz-adv-x="734" 
d="M186 0v1536h362v-1536h-362z" />
    <glyph glyph-name="uni0132" unicode="&#x132;" horiz-adv-x="2354" 
d="M573 2048v-2048h-371v2048h371zM1784 2048h368v-1440q-1 -198 -84 -340.5t-231.5 -219t-345.5 -76.5q-180 0 -323.5 64.5t-227.5 191.5t-84 316h369q1 -83 36.5 -143t98.5 -92t145 -32q89 0 151 37.5t94.5 111.5t33.5 182v1440z" />
    <glyph glyph-name="uni0133" unicode="&#x133;" horiz-adv-x="1467" 
d="M186 0v1536h362v-1536h-362zM368 1754q-86 0 -148 57.5t-62 138.5q0 82 62 139.5t148 57.5q87 0 148.5 -57.5t61.5 -139.5q0 -81 -61.5 -138.5t-148.5 -57.5zM920 1536h362v-1624q0 -166 -63 -274t-182 -161t-289 -53q-20 0 -37 0.5t-37 1.5v295q15 -1 27 -1.5t25 -0.5
q104 0 149 50.5t45 147.5v1619zM1100 1754q-87 0 -148.5 57.5t-61.5 138.5q0 82 61.5 139.5t148.5 57.5q86 0 147.5 -57.5t61.5 -139.5q0 -81 -61.5 -138.5t-147.5 -57.5z" />
    <glyph glyph-name="uni0134" unicode="&#x134;" horiz-adv-x="1579" 
d="M1010 2048h368v-1440q-1 -198 -84 -340.5t-231.5 -219t-345.5 -76.5q-180 0 -323.5 64.5t-227.5 191.5t-84 316h369q1 -83 36.5 -143t98.5 -92t145 -32q89 0 151 37.5t94.5 111.5t33.5 182v1440zM1396 2232l-203 256l-203 -256h-317v14l379 432h283l378 -432v-14h-317z
" />
    <glyph glyph-name="uni0135" unicode="&#x135;" horiz-adv-x="734" 
d="M186 1536h362v-1624q0 -166 -63 -274t-182 -161t-289 -53q-20 0 -37 0.5t-37 1.5v295q15 -1 27 -1.5t25 -0.5q104 0 149 50.5t45 147.5v1619zM568 1720l-203 256l-203 -256h-317v14l379 432h283l378 -432v-14h-317z" />
    <glyph glyph-name="uni0136" unicode="&#x136;" horiz-adv-x="1906" 
d="M202 0v2048h371v-941h25l799 941h453l-792 -919l799 -1129h-446l-611 878l-227 -268v-610h-371zM659 -662l120 502h344l-203 -502h-261z" />
    <glyph glyph-name="uni0137" unicode="&#x137;" horiz-adv-x="1602" 
d="M516 482l-1 437h58l552 617h423l-679 -756h-75zM186 0v2048h362v-2048h-362zM1150 0l-500 699l244 255l689 -954h-433zM531 -664l120 502h344l-203 -502h-261z" />
    <glyph glyph-name="uni0138" unicode="&#x138;" horiz-adv-x="1851" 
d="M588 1536v-1536h-374v1536h374zM1645 1536l-729 -939h-407l-49 347h271l448 592h466zM1162 0l-461 634l293 208l643 -842h-475z" />
    <glyph glyph-name="uni0139" unicode="&#x139;" horiz-adv-x="1594" 
d="M202 0v2048h371v-1737h902v-311h-1273zM246 2250l224 457h354l-307 -457h-271z" />
    <glyph glyph-name="uni013A" unicode="&#x13a;" horiz-adv-x="734" 
d="M548 2048v-2048h-362v2048h362zM227 2250l224 457h354l-307 -457h-271z" />
    <glyph glyph-name="uni013B" unicode="&#x13b;" horiz-adv-x="1594" 
d="M202 0v2048h371v-1737h902v-311h-1273zM548 -664l120 502h344l-203 -502h-261z" />
    <glyph glyph-name="uni013C" unicode="&#x13c;" horiz-adv-x="734" 
d="M548 2048v-2048h-362v2048h362zM77 -664l120 502h344l-203 -502h-261z" />
    <glyph glyph-name="uni013D" unicode="&#x13d;" horiz-adv-x="1594" 
d="M202 0v2048h371v-1737h902v-311h-1273zM894 1626v524h294l-72 -524h-222z" />
    <glyph glyph-name="uni013E" unicode="&#x13e;" horiz-adv-x="992" 
d="M548 2048v-2048h-362v2048h362zM730 1626v524h294l-72 -524h-222z" />
    <glyph glyph-name="uni013F" unicode="&#x13f;" horiz-adv-x="1616" 
d="M207 0v2048h371v-1737h902v-311h-1273zM1016 1022q-87 0 -148.5 57.5t-61.5 138.5q0 82 62 139.5t148 57.5t147.5 -57.5t61.5 -139.5q0 -81 -61.5 -138.5t-147.5 -57.5z" />
    <glyph glyph-name="uni0140" unicode="&#x140;" horiz-adv-x="1069" 
d="M554 2048v-2048h-362v2048h362zM891 935q-87 0 -148.5 57.5t-61.5 138.5q0 82 62 139.5t148 57.5t147.5 -57.5t61.5 -139.5q0 -81 -61.5 -138.5t-147.5 -57.5z" />
    <glyph glyph-name="uni0141" unicode="&#x141;" horiz-adv-x="1627" 
d="M936 1309v-219l-889 -256v217zM259 0v2048h371v-1737h903v-311h-1274z" />
    <glyph glyph-name="uni0142" unicode="&#x142;" horiz-adv-x="734" 
d="M749 1315v-216l-764 -257v216zM548 2048v-2048h-362v2048h362z" />
    <glyph glyph-name="uni0143" unicode="&#x143;" horiz-adv-x="2086" 
d="M1885 2048v-2048h-330l-965 1395h-17v-1395h-371v2048h332l964 -1396h18v1396h369zM905 2250l224 457h354l-307 -457h-271z" />
    <glyph glyph-name="uni0144" unicode="&#x144;" horiz-adv-x="1717" 
d="M548 900v-900h-362v1536h346v-261h18q53 129 169.5 205t288.5 76q159 0 277.5 -68t184 -197t64.5 -313v-978h-362v922q0 154 -79.5 241t-219.5 87q-95 0 -168.5 -41.5t-115 -119.5t-41.5 -189zM720 1738l224 457h354l-307 -457h-271z" />
    <glyph glyph-name="uni0145" unicode="&#x145;" horiz-adv-x="2086" 
d="M1885 2048v-2048h-330l-965 1395h-17v-1395h-371v2048h332l964 -1396h18v1396h369zM754 -664l120 502h344l-203 -502h-261z" />
    <glyph glyph-name="uni0146" unicode="&#x146;" horiz-adv-x="1717" 
d="M548 900v-900h-362v1536h346v-261h18q53 129 169.5 205t288.5 76q159 0 277.5 -68t184 -197t64.5 -313v-978h-362v922q0 154 -79.5 241t-219.5 87q-95 0 -168.5 -41.5t-115 -119.5t-41.5 -189zM569 -664l120 502h344l-203 -502h-261z" />
    <glyph glyph-name="uni0147" unicode="&#x147;" horiz-adv-x="2086" 
d="M1885 2048v-2048h-330l-965 1395h-17v-1395h-371v2048h332l964 -1396h18v1396h369zM841 2678l203 -256l203 256h317v-14l-378 -432h-283l-379 432v14h317z" />
    <glyph glyph-name="uni0148" unicode="&#x148;" horiz-adv-x="1717" 
d="M548 900v-900h-362v1536h346v-261h18q53 129 169.5 205t288.5 76q159 0 277.5 -68t184 -197t64.5 -313v-978h-362v922q0 154 -79.5 241t-219.5 87q-95 0 -168.5 -41.5t-115 -119.5t-41.5 -189zM656 2166l203 -256l203 256h317v-14l-378 -432h-283l-379 432v14h317z" />
    <glyph glyph-name="uni014A" unicode="&#x14a;" horiz-adv-x="2086" 
d="M1555 0h330v-110q0 -173 -68.5 -280.5t-189.5 -157t-280 -49.5q-36 0 -76 4t-73 15v282q25 -5 58 -9t66 -4q103 0 168 45.5t65 151.5v112zM1885 2048v-2048h-330l-965 1395h-17v-1395h-371v2048h332l964 -1396h18v1396h369z" />
    <glyph glyph-name="uni014B" unicode="&#x14b;" horiz-adv-x="1734" 
d="M1172 13h362v-111q0 -157 -63.5 -263.5t-176 -160.5t-259.5 -54q-49 0 -96.5 2.5t-92.5 12.5l20 298q23 -6 50.5 -9.5t58.5 -3.5q89 0 143 40t54 138v111zM548 900v-900h-362v1536h346v-261h18q53 129 169.5 205t288.5 76q159 0 277.5 -68t184 -197t64.5 -313v-978h-362
v922q0 154 -79.5 241t-219.5 87q-95 0 -168.5 -41.5t-115 -119.5t-41.5 -189z" />
    <glyph glyph-name="uni014C" unicode="&#x14c;" horiz-adv-x="2182" 
d="M2032 1024q0 -331 -123.5 -566.5t-336 -360.5t-481.5 -125t-481.5 125.5t-336 361t-123.5 565.5q0 331 123.5 566.5t336 360.5t481.5 125t481.5 -125t336 -360.5t123.5 -566.5zM1659 1024q0 233 -72.5 393.5t-200.5 243t-295 82.5t-295 -82.5t-200.5 -243t-72.5 -393.5
t72.5 -393.5t200.5 -243t295 -82.5t295 82.5t200.5 243t72.5 393.5zM1572 2560v-221h-962v221h962z" />
    <glyph glyph-name="uni014D" unicode="&#x14d;" horiz-adv-x="1712" 
d="M856 -30q-225 0 -390 99t-255.5 277t-90.5 416t90.5 417t255.5 278t390 99t390 -99t255.5 -278t90.5 -417t-90.5 -416t-255.5 -277t-390 -99zM858 260q122 0 204 67.5t122.5 181.5t40.5 254q0 141 -40.5 255.5t-122.5 182.5t-204 68q-125 0 -207.5 -68t-123 -182.5
t-40.5 -255.5q0 -140 40.5 -254t123 -181.5t207.5 -67.5zM1337 2048v-221h-962v221h962z" />
    <glyph glyph-name="uni014E" unicode="&#x14e;" horiz-adv-x="2182" 
d="M2032 1024q0 -331 -123.5 -566.5t-336 -360.5t-481.5 -125t-481.5 125.5t-336 361t-123.5 565.5q0 331 123.5 566.5t336 360.5t481.5 125t481.5 -125t336 -360.5t123.5 -566.5zM1659 1024q0 233 -72.5 393.5t-200.5 243t-295 82.5t-295 -82.5t-200.5 -243t-72.5 -393.5
t72.5 -393.5t200.5 -243t295 -82.5t295 82.5t200.5 243t72.5 393.5zM1289 2576h271q0 -175 -126.5 -283.5t-342.5 -108.5q-214 0 -340.5 108.5t-125.5 283.5h269q0 -72 44.5 -128.5t152.5 -56.5q106 0 151.5 56t46.5 129z" />
    <glyph glyph-name="uni014F" unicode="&#x14f;" horiz-adv-x="1712" 
d="M856 -30q-225 0 -390 99t-255.5 277t-90.5 416t90.5 417t255.5 278t390 99t390 -99t255.5 -278t90.5 -417t-90.5 -416t-255.5 -277t-390 -99zM858 260q122 0 204 67.5t122.5 181.5t40.5 254q0 141 -40.5 255.5t-122.5 182.5t-204 68q-125 0 -207.5 -68t-123 -182.5
t-40.5 -255.5q0 -140 40.5 -254t123 -181.5t207.5 -67.5zM1054 2064h271q0 -175 -126.5 -283.5t-342.5 -108.5q-214 0 -340.5 108.5t-125.5 283.5h269q0 -72 44.5 -128.5t152.5 -56.5q106 0 151.5 56t46.5 129z" />
    <glyph glyph-name="uni0150" unicode="&#x150;" horiz-adv-x="2182" 
d="M2032 1024q0 -331 -123.5 -566.5t-336 -360.5t-481.5 -125t-481.5 125.5t-336 361t-123.5 565.5q0 331 123.5 566.5t336 360.5t481.5 125t481.5 -125t336 -360.5t123.5 -566.5zM1659 1024q0 233 -72.5 393.5t-200.5 243t-295 82.5t-295 -82.5t-200.5 -243t-72.5 -393.5
t72.5 -393.5t200.5 -243t295 -82.5t295 82.5t200.5 243t72.5 393.5zM1160 2222l315 418h328l-372 -418h-271zM681 2222l253 418h326l-317 -418h-262z" />
    <glyph glyph-name="uni0151" unicode="&#x151;" horiz-adv-x="1712" 
d="M856 -30q-225 0 -390 99t-255.5 277t-90.5 416t90.5 417t255.5 278t390 99t390 -99t255.5 -278t90.5 -417t-90.5 -416t-255.5 -277t-390 -99zM858 260q122 0 204 67.5t122.5 181.5t40.5 254q0 141 -40.5 255.5t-122.5 182.5t-204 68q-125 0 -207.5 -68t-123 -182.5
t-40.5 -255.5q0 -140 40.5 -254t123 -181.5t207.5 -67.5zM925 1710l315 418h328l-372 -418h-271zM446 1710l253 418h326l-317 -418h-262z" />
    <glyph glyph-name="uni0152" unicode="&#x152;" horiz-adv-x="2806" 
d="M1072 0q-268 0 -476 121t-327 350t-119 551q0 325 119 554.5t327 350.5t476 121h1556v-311h-961v-556h892v-311h-892v-559h969v-311h-1564zM1296 311v1426h-224q-163 0 -287.5 -80.5t-194.5 -240t-70 -394.5q0 -234 70 -392t194.5 -238.5t287.5 -80.5h224z" />
    <glyph glyph-name="uni0153" unicode="&#x153;" horiz-adv-x="2762" 
d="M859 -30q-225 0 -390 99t-255.5 277t-90.5 416t90.5 417t255.5 278t390 99t390 -99t255.5 -278t90.5 -417t-90.5 -416t-255.5 -277t-390 -99zM861 260q122 0 204 67.5t122.5 181.5t40.5 254q0 141 -40.5 255.5t-122.5 182.5t-204 68q-125 0 -207.5 -68t-123 -182.5
t-40.5 -255.5q0 -140 40.5 -254t123 -181.5t207.5 -67.5zM1988 -30q-231 0 -398.5 96.5t-257.5 274t-90 418.5q0 237 90.5 416.5t253.5 280t383 100.5q142 0 268.5 -45.5t224 -140.5t153.5 -241.5t56 -348.5v-111h-1259v244h912q-1 104 -45 185.5t-122.5 128.5t-182.5 47
q-111 0 -195 -53.5t-130.5 -140t-47.5 -189.5v-213q0 -134 49 -229.5t137 -146t206 -50.5q79 0 143 22.5t111 66.5t71 109l338 -38q-32 -134 -121.5 -233.5t-228.5 -154t-318 -54.5z" />
    <glyph glyph-name="uni0154" unicode="&#x154;" horiz-adv-x="1832" 
d="M202 0v2048h768q236 0 396.5 -82t243 -229.5t82.5 -343.5q0 -197 -83.5 -341.5t-245.5 -223t-398 -78.5h-547v308h497q138 0 226 38.5t130.5 113t42.5 183.5t-43 186.5t-131 118t-227 40.5h-340v-1738h-371zM1260 928l507 -928h-414l-498 928h405zM765 2250l224 457h354
l-307 -457h-271z" />
    <glyph glyph-name="uni0155" unicode="&#x155;" horiz-adv-x="1117" 
d="M186 0v1536h351v-256h16q42 133 144.5 205.5t234.5 72.5q30 0 67.5 -2.5t62.5 -7.5v-333q-23 8 -72.5 14.5t-95.5 6.5q-99 0 -177.5 -42.5t-123.5 -117.5t-45 -173v-903h-362zM475 1738l224 457h354l-307 -457h-271z" />
    <glyph glyph-name="uni0156" unicode="&#x156;" horiz-adv-x="1832" 
d="M202 0v2048h768q236 0 396.5 -82t243 -229.5t82.5 -343.5q0 -197 -83.5 -341.5t-245.5 -223t-398 -78.5h-547v308h497q138 0 226 38.5t130.5 113t42.5 183.5t-43 186.5t-131 118t-227 40.5h-340v-1738h-371zM1260 928l507 -928h-414l-498 928h405zM648 -664l120 502h344
l-203 -502h-261z" />
    <glyph glyph-name="uni0157" unicode="&#x157;" horiz-adv-x="1117" 
d="M186 0v1536h351v-256h16q42 133 144.5 205.5t234.5 72.5q30 0 67.5 -2.5t62.5 -7.5v-333q-23 8 -72.5 14.5t-95.5 6.5q-99 0 -177.5 -42.5t-123.5 -117.5t-45 -173v-903h-362zM77 -664l120 502h344l-203 -502h-261z" />
    <glyph glyph-name="uni0158" unicode="&#x158;" horiz-adv-x="1832" 
d="M202 0v2048h768q236 0 396.5 -82t243 -229.5t82.5 -343.5q0 -197 -83.5 -341.5t-245.5 -223t-398 -78.5h-547v308h497q138 0 226 38.5t130.5 113t42.5 183.5t-43 186.5t-131 118t-227 40.5h-340v-1738h-371zM1260 928l507 -928h-414l-498 928h405zM701 2678l203 -256
l203 256h317v-14l-378 -432h-283l-379 432v14h317z" />
    <glyph glyph-name="uni0159" unicode="&#x159;" horiz-adv-x="1117" 
d="M186 0v1536h351v-256h16q42 133 144.5 205.5t234.5 72.5q30 0 67.5 -2.5t62.5 -7.5v-333q-23 8 -72.5 14.5t-95.5 6.5q-99 0 -177.5 -42.5t-123.5 -117.5t-45 -173v-903h-362zM410 2166l203 -256l203 256h317v-14l-378 -432h-283l-379 432v14h317z" />
    <glyph glyph-name="uni015A" unicode="&#x15a;" horiz-adv-x="1828" 
d="M1315 1485q-14 131 -117.5 204t-268.5 73q-116 0 -199 -35t-127 -95t-45 -137q0 -64 29.5 -111t80.5 -79.5t113 -54.5t125 -37l192 -48q116 -27 223.5 -73t193 -116t135.5 -169t50 -232q0 -180 -92 -316.5t-265.5 -213t-419.5 -76.5q-239 0 -414.5 74t-274 216
t-106.5 346h365q8 -107 66 -178t151.5 -106t209.5 -35q121 0 212.5 36.5t143.5 102t53 153.5q-1 80 -47 132.5t-128.5 88t-192.5 63.5l-233 60q-253 65 -399.5 197.5t-146.5 352.5q0 181 98.5 317t268.5 211.5t385 75.5q218 0 382.5 -75.5t258.5 -209t97 -306.5h-357z
M775 2250l224 457h354l-307 -457h-271z" />
    <glyph glyph-name="uni015B" unicode="&#x15b;" horiz-adv-x="1546" 
d="M1400 1130l-330 -36q-14 50 -48.5 94t-92.5 71t-142 27q-113 0 -189.5 -49t-75.5 -127q-1 -67 49.5 -109t167.5 -69l262 -56q218 -47 324.5 -149t107.5 -267q-1 -145 -84.5 -255.5t-231.5 -172.5t-340 -62q-282 0 -454 118.5t-205 330.5l353 34q24 -104 102 -157t203 -53
q129 0 207.5 53t78.5 131q0 66 -50.5 109t-156.5 66l-262 55q-221 46 -327 155.5t-105 277.5q-1 142 77.5 246.5t219 162t324.5 57.5q270 0 425.5 -115t192.5 -311zM650 1738l224 457h354l-307 -457h-271z" />
    <glyph glyph-name="uni015C" unicode="&#x15c;" horiz-adv-x="1828" 
d="M1315 1485q-14 131 -117.5 204t-268.5 73q-116 0 -199 -35t-127 -95t-45 -137q0 -64 29.5 -111t80.5 -79.5t113 -54.5t125 -37l192 -48q116 -27 223.5 -73t193 -116t135.5 -169t50 -232q0 -180 -92 -316.5t-265.5 -213t-419.5 -76.5q-239 0 -414.5 74t-274 216
t-106.5 346h365q8 -107 66 -178t151.5 -106t209.5 -35q121 0 212.5 36.5t143.5 102t53 153.5q-1 80 -47 132.5t-128.5 88t-192.5 63.5l-233 60q-253 65 -399.5 197.5t-146.5 352.5q0 181 98.5 317t268.5 211.5t385 75.5q218 0 382.5 -75.5t258.5 -209t97 -306.5h-357z
M1116 2232l-203 256l-203 -256h-317v14l379 432h283l378 -432v-14h-317z" />
    <glyph glyph-name="uni015D" unicode="&#x15d;" horiz-adv-x="1546" 
d="M1400 1130l-330 -36q-14 50 -48.5 94t-92.5 71t-142 27q-113 0 -189.5 -49t-75.5 -127q-1 -67 49.5 -109t167.5 -69l262 -56q218 -47 324.5 -149t107.5 -267q-1 -145 -84.5 -255.5t-231.5 -172.5t-340 -62q-282 0 -454 118.5t-205 330.5l353 34q24 -104 102 -157t203 -53
q129 0 207.5 53t78.5 131q0 66 -50.5 109t-156.5 66l-262 55q-221 46 -327 155.5t-105 277.5q-1 142 77.5 246.5t219 162t324.5 57.5q270 0 425.5 -115t192.5 -311zM992 1720l-203 256l-203 -256h-317v14l379 432h283l378 -432v-14h-317z" />
    <glyph glyph-name="uni015E" unicode="&#x15e;" horiz-adv-x="1828" 
d="M1315 1485q-14 131 -117.5 204t-268.5 73q-116 0 -199 -35t-127 -95t-45 -137q0 -64 29.5 -111t80.5 -79.5t113 -54.5t125 -37l192 -48q116 -27 223.5 -73t193 -116t135.5 -169t50 -232q0 -180 -92 -316.5t-265.5 -213t-419.5 -76.5q-239 0 -414.5 74t-274 216
t-106.5 346h365q8 -107 66 -178t151.5 -106t209.5 -35q121 0 212.5 36.5t143.5 102t53 153.5q-1 80 -47 132.5t-128.5 88t-192.5 63.5l-233 60q-253 65 -399.5 197.5t-146.5 352.5q0 181 98.5 317t268.5 211.5t385 75.5q218 0 382.5 -75.5t258.5 -209t97 -306.5h-357zM817 8
h196l-16 -85q94 -14 159.5 -72.5t65.5 -168.5q1 -142 -127 -228t-365 -86l-4 178q115 0 183 30.5t69 96.5q2 64 -47.5 93.5t-156.5 40.5z" />
    <glyph glyph-name="uni015F" unicode="&#x15f;" horiz-adv-x="1546" 
d="M1400 1130l-330 -36q-14 50 -48.5 94t-92.5 71t-142 27q-113 0 -189.5 -49t-75.5 -127q-1 -67 49.5 -109t167.5 -69l262 -56q218 -47 324.5 -149t107.5 -267q-1 -145 -84.5 -255.5t-231.5 -172.5t-340 -62q-282 0 -454 118.5t-205 330.5l353 34q24 -104 102 -157t203 -53
q129 0 207.5 53t78.5 131q0 66 -50.5 109t-156.5 66l-262 55q-221 46 -327 155.5t-105 277.5q-1 142 77.5 246.5t219 162t324.5 57.5q270 0 425.5 -115t192.5 -311zM686 8h196l-16 -85q94 -14 159.5 -72.5t65.5 -168.5q1 -142 -127 -228t-365 -86l-4 178q115 0 183 30.5
t69 96.5q2 64 -47.5 93.5t-156.5 40.5z" />
    <glyph glyph-name="uni0160" unicode="&#x160;" horiz-adv-x="1828" 
d="M1315 1485q-14 131 -117.5 204t-268.5 73q-116 0 -199 -35t-127 -95t-45 -137q0 -64 29.5 -111t80.5 -79.5t113 -54.5t125 -37l192 -48q116 -27 223.5 -73t193 -116t135.5 -169t50 -232q0 -180 -92 -316.5t-265.5 -213t-419.5 -76.5q-239 0 -414.5 74t-274 216
t-106.5 346h365q8 -107 66 -178t151.5 -106t209.5 -35q121 0 212.5 36.5t143.5 102t53 153.5q-1 80 -47 132.5t-128.5 88t-192.5 63.5l-233 60q-253 65 -399.5 197.5t-146.5 352.5q0 181 98.5 317t268.5 211.5t385 75.5q218 0 382.5 -75.5t258.5 -209t97 -306.5h-357z
M710 2678l203 -256l203 256h317v-14l-378 -432h-283l-379 432v14h317z" />
    <glyph glyph-name="uni0161" unicode="&#x161;" horiz-adv-x="1546" 
d="M1400 1130l-330 -36q-14 50 -48.5 94t-92.5 71t-142 27q-113 0 -189.5 -49t-75.5 -127q-1 -67 49.5 -109t167.5 -69l262 -56q218 -47 324.5 -149t107.5 -267q-1 -145 -84.5 -255.5t-231.5 -172.5t-340 -62q-282 0 -454 118.5t-205 330.5l353 34q24 -104 102 -157t203 -53
q129 0 207.5 53t78.5 131q0 66 -50.5 109t-156.5 66l-262 55q-221 46 -327 155.5t-105 277.5q-1 142 77.5 246.5t219 162t324.5 57.5q270 0 425.5 -115t192.5 -311zM586 2166l203 -256l203 256h317v-14l-378 -432h-283l-379 432v14h317z" />
    <glyph glyph-name="uni0162" unicode="&#x162;" horiz-adv-x="1858" 
d="M112 1737v311h1634v-311h-633v-1737h-368v1737h-633zM843 8h196l-16 -85q94 -14 159.5 -72.5t65.5 -168.5q1 -142 -127 -228t-365 -86l-4 178q115 0 183 30.5t69 96.5q2 64 -47.5 93.5t-156.5 40.5z" />
    <glyph glyph-name="uni0163" unicode="&#x163;" horiz-adv-x="1070" 
d="M953 1536v-280h-883v280h883zM288 1904h362v-1442q0 -73 22.5 -111.5t59.5 -52.5t82 -14q34 0 62.5 5t43.5 9l61 -283q-29 -10 -82.5 -22t-130.5 -14q-136 -4 -245 41.5t-172.5 141.5t-62.5 240v1502zM626 8h196l-16 -85q94 -14 159.5 -72.5t65.5 -168.5
q1 -142 -127 -228t-365 -86l-4 178q115 0 183 30.5t69 96.5q2 64 -47.5 93.5t-156.5 40.5z" />
    <glyph glyph-name="uni0164" unicode="&#x164;" horiz-adv-x="1858" 
d="M112 1737v311h1634v-311h-633v-1737h-368v1737h-633zM726 2678l203 -256l203 256h317v-14l-378 -432h-283l-379 432v14h317z" />
    <glyph glyph-name="uni0165" unicode="&#x165;" horiz-adv-x="1138" 
d="M953 1536v-280h-883v280h883zM288 1904h362v-1442q0 -73 22.5 -111.5t59.5 -52.5t82 -14q34 0 62.5 5t43.5 9l61 -283q-29 -10 -82.5 -22t-130.5 -14q-136 -4 -245 41.5t-172.5 141.5t-62.5 240v1502zM824 1726v524h294l-72 -524h-222z" />
    <glyph glyph-name="uni0166" unicode="&#x166;" horiz-adv-x="1858" 
d="M112 1737v311h1634v-311h-633v-1737h-368v1737h-633zM448 891v229h958v-229h-958z" />
    <glyph glyph-name="uni0167" unicode="&#x167;" horiz-adv-x="1070" 
d="M70 794v196h883v-196h-883zM953 1536v-280h-883v280h883zM288 1904h362v-1442q0 -73 22.5 -111.5t59.5 -52.5t82 -14q34 0 62.5 5t43.5 9l61 -283q-29 -10 -82.5 -22t-130.5 -14q-136 -4 -245 41.5t-172.5 141.5t-62.5 240v1502z" />
    <glyph glyph-name="uni0168" unicode="&#x168;" horiz-adv-x="2066" 
d="M1493 2048h371v-1338q0 -220 -103.5 -387t-290.5 -260.5t-437 -93.5q-251 0 -438 93.5t-290 260.5t-103 387v1338h371v-1307q0 -128 56.5 -228t159.5 -156.5t244 -56.5t244.5 56.5t159.5 156.5t56 228v1307zM739 2235l-219 5q0 178 92 279t227 101q65 0 113 -21.5
t88.5 -49.5t79.5 -49.5t86 -21.5q57 0 90.5 43t34.5 110l215 -9q-1 -179 -93 -277.5t-226 -99.5q-72 -1 -121 21t-85.5 50t-73.5 49.5t-87 21.5q-53 0 -87 -42t-34 -110z" />
    <glyph glyph-name="uni0169" unicode="&#x169;" horiz-adv-x="1713" 
d="M1165 646v890h362v-1536h-351v273h-16q-52 -129 -170.5 -211t-291.5 -82q-151 0 -266.5 67.5t-180.5 197t-65 313.5v978h362v-922q0 -146 80 -232t210 -86q80 0 155 39t123.5 116.5t48.5 194.5zM564 1723l-219 5q0 178 92 279t227 101q65 0 113 -21.5t88.5 -49.5
t79.5 -49.5t86 -21.5q57 0 90.5 43t34.5 110l215 -9q-1 -179 -93 -277.5t-226 -99.5q-72 -1 -121 21t-85.5 50t-73.5 49.5t-87 21.5q-53 0 -87 -42t-34 -110z" />
    <glyph glyph-name="uni016A" unicode="&#x16a;" horiz-adv-x="2066" 
d="M1493 2048h371v-1338q0 -220 -103.5 -387t-290.5 -260.5t-437 -93.5q-251 0 -438 93.5t-290 260.5t-103 387v1338h371v-1307q0 -128 56.5 -228t159.5 -156.5t244 -56.5t244.5 56.5t159.5 156.5t56 228v1307zM1514 2560v-221h-962v221h962z" />
    <glyph glyph-name="uni016B" unicode="&#x16b;" horiz-adv-x="1713" 
d="M1165 646v890h362v-1536h-351v273h-16q-52 -129 -170.5 -211t-291.5 -82q-151 0 -266.5 67.5t-180.5 197t-65 313.5v978h362v-922q0 -146 80 -232t210 -86q80 0 155 39t123.5 116.5t48.5 194.5zM1340 2048v-221h-962v221h962z" />
    <glyph glyph-name="uni016C" unicode="&#x16c;" horiz-adv-x="2066" 
d="M1493 2048h371v-1338q0 -220 -103.5 -387t-290.5 -260.5t-437 -93.5q-251 0 -438 93.5t-290 260.5t-103 387v1338h371v-1307q0 -128 56.5 -228t159.5 -156.5t244 -56.5t244.5 56.5t159.5 156.5t56 228v1307zM1231 2576h271q0 -175 -126.5 -283.5t-342.5 -108.5
q-214 0 -340.5 108.5t-125.5 283.5h269q0 -72 44.5 -128.5t152.5 -56.5q106 0 151.5 56t46.5 129z" />
    <glyph glyph-name="uni016D" unicode="&#x16d;" horiz-adv-x="1713" 
d="M1165 646v890h362v-1536h-351v273h-16q-52 -129 -170.5 -211t-291.5 -82q-151 0 -266.5 67.5t-180.5 197t-65 313.5v978h362v-922q0 -146 80 -232t210 -86q80 0 155 39t123.5 116.5t48.5 194.5zM1056 2064h271q0 -175 -126.5 -283.5t-342.5 -108.5q-214 0 -340.5 108.5
t-125.5 283.5h269q0 -72 44.5 -128.5t152.5 -56.5q106 0 151.5 56t46.5 129z" />
    <glyph glyph-name="uni016E" unicode="&#x16e;" horiz-adv-x="2066" 
d="M1493 2048h371v-1338q0 -220 -103.5 -387t-290.5 -260.5t-437 -93.5q-251 0 -438 93.5t-290 260.5t-103 387v1338h371v-1307q0 -128 56.5 -228t159.5 -156.5t244 -56.5t244.5 56.5t159.5 156.5t56 228v1307zM1033 2174q-125 0 -213.5 87t-88.5 210q0 82 40.5 149.5
t109.5 107.5t152 40q84 0 152.5 -40t109 -107.5t40.5 -149.5t-40.5 -149.5t-109 -107.5t-152.5 -40zM1033 2335q58 1 98 40.5t40 95.5t-39.5 96t-98.5 39q-58 0 -97.5 -39.5t-39.5 -95.5t39.5 -96t97.5 -40z" />
    <glyph glyph-name="uni016F" unicode="&#x16f;" horiz-adv-x="1713" 
d="M1165 646v890h362v-1536h-351v273h-16q-52 -129 -170.5 -211t-291.5 -82q-151 0 -266.5 67.5t-180.5 197t-65 313.5v978h362v-922q0 -146 80 -232t210 -86q80 0 155 39t123.5 116.5t48.5 194.5zM858 1703q-97 0 -176.5 44.5t-126 119.5t-46.5 168t46.5 170t126 123
t176.5 46t176 -46t125 -123t46 -170t-46 -168t-125 -119.5t-176 -44.5zM858 1873q73 0 120.5 49.5t47.5 112.5q0 66 -47.5 117t-120.5 50q-72 0 -120 -50.5t-48 -116.5q0 -63 48 -113t120 -49z" />
    <glyph glyph-name="uni0170" unicode="&#x170;" horiz-adv-x="2066" 
d="M1493 2048h371v-1338q0 -220 -103.5 -387t-290.5 -260.5t-437 -93.5q-251 0 -438 93.5t-290 260.5t-103 387v1338h371v-1307q0 -128 56.5 -228t159.5 -156.5t244 -56.5t244.5 56.5t159.5 156.5t56 228v1307zM1102 2222l315 418h328l-372 -418h-271zM623 2222l253 418h326
l-317 -418h-262z" />
    <glyph glyph-name="uni0171" unicode="&#x171;" horiz-adv-x="1713" 
d="M1165 646v890h362v-1536h-351v273h-16q-52 -129 -170.5 -211t-291.5 -82q-151 0 -266.5 67.5t-180.5 197t-65 313.5v978h362v-922q0 -146 80 -232t210 -86q80 0 155 39t123.5 116.5t48.5 194.5zM928 1710l315 418h328l-372 -418h-271zM449 1710l253 418h326l-317 -418
h-262z" />
    <glyph glyph-name="uni0172" unicode="&#x172;" horiz-adv-x="2066" 
d="M1493 2048h371v-1338q0 -220 -103.5 -387t-290.5 -260.5t-437 -93.5q-251 0 -438 93.5t-290 260.5t-103 387v1338h371v-1307q0 -128 56.5 -228t159.5 -156.5t244 -56.5t244.5 56.5t159.5 156.5t56 228v1307zM1079 -580q-129 0 -215.5 68t-101.5 196q-11 78 13 158t86 149
t164 116l247 -105q-93 -52 -156 -110t-63 -136q0 -48 23.5 -74t75.5 -26q38 0 66.5 10t48.5 18l36 -204q-36 -21 -92 -40.5t-132 -19.5z" />
    <glyph glyph-name="uni0173" unicode="&#x173;" horiz-adv-x="1713" 
d="M1165 646v890h362v-1536h-351v273h-16q-52 -129 -170.5 -211t-291.5 -82q-151 0 -266.5 67.5t-180.5 197t-65 313.5v978h362v-922q0 -146 80 -232t210 -86q80 0 155 39t123.5 116.5t48.5 194.5zM1334 -582q-129 0 -215.5 68t-101.5 196q-11 78 13 158t86 149t164 116
l247 -105q-93 -52 -156 -110t-63 -136q0 -48 23.5 -74t75.5 -26q38 0 66.5 10t48.5 18l36 -204q-36 -21 -92 -40.5t-132 -19.5z" />
    <glyph glyph-name="uni0174" unicode="&#x174;" horiz-adv-x="2835" 
d="M633 0l-578 2048h399l369 -1505h19l394 1505h363l395 -1506h18l369 1506h399l-578 -2048h-366l-410 1437h-16l-411 -1437h-366zM1620 2232l-203 256l-203 -256h-317v14l379 432h283l378 -432v-14h-317z" />
    <glyph glyph-name="uni0175" unicode="&#x175;" horiz-adv-x="2358" 
d="M503 0l-434 1536h369l270 -1080h14l276 1080h365l276 -1074h15l266 1074h370l-435 -1536h-377l-288 1038h-21l-288 -1038h-378zM1382 1720l-203 256l-203 -256h-317v14l379 432h283l378 -432v-14h-317z" />
    <glyph glyph-name="uni0176" unicode="&#x176;" horiz-adv-x="1984" 
d="M62 2048h419l501 -906h20l501 906h419l-745 -1284v-764h-370v764zM1195 2232l-203 256l-203 -256h-317v14l379 432h283l378 -432v-14h-317z" />
    <glyph glyph-name="uni0177" unicode="&#x177;" horiz-adv-x="1622" 
d="M411 -576q-74 0 -136.5 11.5t-99.5 26.5l84 282q79 -23 141 -22t109.5 38.5t80.5 124.5l31 83l-557 1568h384l354 -1160h16l355 1160h385l-615 -1722q-43 -122 -114 -209.5t-173.5 -134t-244.5 -46.5zM1012 1720l-203 256l-203 -256h-317v14l379 432h283l378 -432v-14
h-317z" />
    <glyph glyph-name="uni0178" unicode="&#x178;" horiz-adv-x="1984" 
d="M62 2048h419l501 -906h20l501 906h419l-745 -1284v-764h-370v764zM693 2274q-79 0 -136.5 56t-57.5 132q0 80 57.5 134.5t136.5 54.5q81 0 136.5 -54.5t55.5 -134.5q0 -76 -55.5 -132t-136.5 -56zM1293 2274q-79 0 -136.5 56t-57.5 132q0 80 57.5 134.5t136.5 54.5
q81 0 136.5 -54.5t55.5 -134.5q0 -76 -55.5 -132t-136.5 -56z" />
    <glyph glyph-name="uni0179" unicode="&#x179;" horiz-adv-x="1838" 
d="M164 0v231l1050 1506h-1056v311h1516v-231l-1049 -1506h1055v-311h-1516zM783 2250l224 457h354l-307 -457h-271z" />
    <glyph glyph-name="uni017A" unicode="&#x17a;" horiz-adv-x="1582" 
d="M166 0v230l792 993v13h-766v300h1209v-247l-754 -976v-13h780v-300h-1261zM650 1738l224 457h354l-307 -457h-271z" />
    <glyph glyph-name="uni017B" unicode="&#x17b;" horiz-adv-x="1838" 
d="M164 0v231l1050 1506h-1056v311h1516v-231l-1049 -1506h1055v-311h-1516zM922 2266q-87 0 -148.5 57.5t-61.5 138.5q0 82 62 139.5t148 57.5t147.5 -57.5t61.5 -139.5q0 -81 -61.5 -138.5t-147.5 -57.5z" />
    <glyph glyph-name="uni017C" unicode="&#x17c;" horiz-adv-x="1582" 
d="M166 0v230l792 993v13h-766v300h1209v-247l-754 -976v-13h780v-300h-1261zM789 1754q-87 0 -148.5 57.5t-61.5 138.5q0 82 62 139.5t148 57.5t147.5 -57.5t61.5 -139.5q0 -81 -61.5 -138.5t-147.5 -57.5z" />
    <glyph glyph-name="uni017D" unicode="&#x17d;" horiz-adv-x="1838" 
d="M164 0v231l1050 1506h-1056v311h1516v-231l-1049 -1506h1055v-311h-1516zM718 2678l203 -256l203 256h317v-14l-378 -432h-283l-379 432v14h317z" />
    <glyph glyph-name="uni017E" unicode="&#x17e;" horiz-adv-x="1582" 
d="M166 0v230l792 993v13h-766v300h1209v-247l-754 -976v-13h780v-300h-1261zM586 2166l203 -256l203 256h317v-14l-379 -432h-283l-378 432v14h317z" />
    <glyph glyph-name="uni017F" unicode="&#x17f;" horiz-adv-x="794" 
d="M393 0h-374v1624q0 168 64.5 283.5t185.5 174.5t290 59q53 0 107 -8t108 -20l-32 -281q-29 6 -58.5 9t-72.5 3q-107 0 -163 -57t-55 -163v-1624z" />
    <glyph glyph-name="uni0180" unicode="&#x180;" horiz-adv-x="1775" 
d="M202 0v2048h362v-766h15q28 56 79 119.5t138 109t222 45.5q178 0 321.5 -90.5t228 -267t84.5 -432.5q0 -253 -83 -430t-226 -270t-324 -93q-132 0 -219 44t-139.5 106.5t-81.5 118.5h-21v-242h-356zM557 768q0 -149 42.5 -261t123 -174.5t195.5 -62.5q120 0 201 64.5
t122.5 177t41.5 256.5q0 143 -41 254t-122 174t-202 63q-116 0 -197 -61t-122.5 -171t-41.5 -259zM-97 1651v229h958v-229h-958z" />
    <glyph glyph-name="uni0181" unicode="&#x181;" horiz-adv-x="2380" 
d="M904 1738h-263q-82 0 -124 -37t-56.5 -95t-14.5 -120v-105h-334v179q0 145 62.5 255t180.5 171.5t283 61.5h266v-310zM730 0v2048h785q222 0 369.5 -69.5t220.5 -189.5t73 -272q0 -125 -47.5 -213.5t-128.5 -143.5t-181 -79v-20q109 -6 209 -66.5t164 -170.5t64 -266
q0 -159 -77 -285.5t-232 -199.5t-389 -73h-830zM1102 310h399q202 0 291.5 77.5t89.5 199.5q0 91 -45 164.5t-128 116t-198 42.5h-409v-600zM1102 1177h367q96 0 173 35.5t121.5 101t44.5 155.5q0 119 -83.5 196t-247.5 77h-375v-565z" />
    <glyph glyph-name="uni0182" unicode="&#x182;" horiz-adv-x="1843" 
d="M202 0v2048h1317v-311h-946v-480h395q235 0 403.5 -76.5t258.5 -215.5t90 -327q0 -189 -90 -332.5t-258.5 -224.5t-403.5 -81h-766zM573 304h395q124 0 210 47t130.5 124t44.5 167q0 130 -99.5 221.5t-285.5 91.5h-395v-651z" />
    <glyph glyph-name="uni0183" unicode="&#x183;" horiz-adv-x="1775" 
d="M1438 2048v-278h-874v-488h15q28 56 79 119.5t138 109t222 45.5q178 0 321.5 -90.5t228 -267t84.5 -432.5q0 -253 -83 -430t-226 -270t-324 -93q-132 0 -219 44t-139.5 106.5t-81.5 118.5h-21v-242h-356v2048h1236zM557 768q0 -149 42.5 -261t123 -174.5t195.5 -62.5
q120 0 201 64.5t122.5 177t41.5 256.5q0 143 -41 254t-122 174t-202 63q-116 0 -197 -61t-122.5 -171t-41.5 -259z" />
    <glyph glyph-name="uni0184" unicode="&#x184;" horiz-adv-x="2143" 
d="M846 2048v-311h-813v311h813zM769 1257h520q235 0 403.5 -76.5t258.5 -215.5t90 -327q0 -189 -90 -332.5t-258.5 -224.5t-403.5 -81h-767v2048h372v-1744h395q124 0 210 47t130.5 124t44.5 167q0 130 -99.5 221.5t-285.5 91.5h-520v302z" />
    <glyph glyph-name="uni0185" unicode="&#x185;" horiz-adv-x="1846" 
d="M357 2112h69v-672h-69l-250 248v173zM578 1337h164q26 51 76.5 101.5t129.5 84t191 33.5q176 0 320 -90.5t229.5 -267t85.5 -432.5q0 -254 -83.5 -431t-227 -269.5t-321.5 -92.5q-118 0 -197.5 33.5t-128.5 84t-74 100.5h-164v1146zM1426 768q0 145 -41.5 256t-124.5 173
t-208 62q-127 0 -206 -64t-116 -175t-36 -252q-1 -141 36 -254t116.5 -178.5t205.5 -65.5q124 0 207 63.5t125 176t42 258.5zM361 2048h362v-820l-129 -466l123 -464v-298h-356v2048z" />
    <glyph glyph-name="uni0186" unicode="&#x186;" horiz-adv-x="2094" 
d="M139 691h375q16 -91 58.5 -163t107 -122t146 -75.5t174.5 -25.5q168 0 296.5 83.5t201.5 244t73 391.5q0 235 -73 395.5t-201.5 242t-294.5 81.5q-92 0 -173 -24.5t-145.5 -72.5t-108 -117.5t-61.5 -160.5l-375 2q22 147 91 274.5t181.5 225t262.5 152t332 54.5
q270 0 482 -125t334 -360.5t122 -566.5t-123 -566.5t-335 -360.5t-480 -125q-169 0 -316.5 48t-263 140.5t-189.5 226.5t-98 304z" />
    <glyph glyph-name="uni0187" unicode="&#x187;" horiz-adv-x="2297" 
d="M1955 1357h-356v237q0 163 74.5 275.5t197.5 170.5t269 58q47 0 91.5 -1.5t89.5 -10.5v-296q-21 2 -52 4.5t-55 2.5q-64 0 -123 -22t-97.5 -74.5t-38.5 -143.5v-200zM1955 1357h-374q-16 92 -59 163.5t-107 121.5t-145.5 75.5t-175.5 25.5q-167 0 -296 -83.5t-202 -244
t-73 -391.5q0 -235 73.5 -395.5t202 -242t294.5 -81.5q92 0 172.5 24.5t145 72.5t109 118t61.5 160l374 -2q-21 -146 -90.5 -274t-181.5 -225.5t-262 -152t-333 -54.5q-270 0 -482 125t-334 361t-122 566q0 331 123 566.5t335 360.5t480 125q171 0 318 -48t262 -140.5
t189.5 -226t97.5 -304.5z" />
    <glyph glyph-name="uni0188" unicode="&#x188;" horiz-adv-x="1781" 
d="M1518 1004h-342v222q0 148 62 250.5t168 156t239 53.5q41 0 82.5 -4t80.5 -16v-252q-22 3 -45.5 6t-49.5 3q-92 0 -143.5 -44t-51.5 -154v-221zM856 -30q-230 0 -394.5 101t-253 279.5t-88.5 411.5q0 234 90 413.5t254.5 280t389.5 100.5q187 0 331.5 -68.5t230.5 -193
t98 -290.5h-346q-21 111 -99.5 185.5t-209.5 74.5q-111 0 -195 -59.5t-130.5 -170.5t-46.5 -266q0 -157 46 -269.5t129.5 -173t196.5 -60.5q80 0 143.5 30.5t106.5 88.5t59 141h346q-13 -163 -96 -288.5t-226 -196t-336 -70.5z" />
    <glyph glyph-name="uni0189" unicode="&#x189;" horiz-adv-x="2040" 
d="M896 0h-519v321h501q214 0 357 78.5t215 235t72 391.5t-72 390.5t-212.5 233t-348.5 77.5h-523v321h544q305 0 524.5 -122.5t337.5 -351.5t118 -548q0 -320 -118.5 -550t-341 -353t-534.5 -123zM573 2048v-2048h-371v2048h371zM-94 958v228h959v-228h-959z" />
    <glyph glyph-name="uni018A" unicode="&#x18a;" horiz-adv-x="2580" 
d="M112 1381v179q0 145 62.5 255t180.5 171.5t283 61.5h266v-321h-263q-82 0 -124 -34.5t-56.5 -89.5t-14.5 -117v-105h-334zM1436 0h-694v2048h708q305 0 524.5 -122.5t337.5 -351.5t118 -548q0 -320 -118.5 -550t-341 -353t-534.5 -123zM1113 321h305q214 0 357 78.5
t215 235t72 391.5t-72 390.5t-212.5 233t-348.5 77.5h-316v-1406z" />
    <glyph glyph-name="uni018B" unicode="&#x18b;" horiz-adv-x="1851" 
d="M1686 0h-764q-236 0 -404.5 81.5t-259.5 225t-91 331.5q0 187 91 327.5t259.5 218.5t404.5 78h379v452h-931v314h1316v-2028zM1301 308v645h-379q-189 0 -278.5 -90.5t-89.5 -220.5q0 -90 39.5 -166t121 -122t207.5 -46h379z" />
    <glyph glyph-name="uni018C" unicode="&#x18c;" horiz-adv-x="1775" 
d="M337 2048h1002v-278h-1002v278zM1574 0h-356v242h-22q-28 -56 -81 -118.5t-140 -106.5t-219 -44q-181 0 -324 93t-226 270t-83 430q0 256 84.5 432.5t228.5 267t321 90.5q135 0 222 -45.5t138 -109t79 -119.5h15v766h363v-2048zM1218 768q0 149 -41.5 259t-122 171
t-197.5 61q-121 0 -202 -63t-122 -174t-41 -254q0 -144 41.5 -256.5t123 -177t200.5 -64.5q115 0 196 62.5t123 174.5t42 261z" />
    <glyph glyph-name="uni018D" unicode="&#x18d;" horiz-adv-x="1736" 
d="M1393 -516h-1074v292h587q-19 19 -60 52.5t-92.5 74t-103.5 81.5q-143 117 -252 237t-171 252t-62 283v28q0 229 82 403t239.5 271.5t382.5 97.5q224 0 382 -93.5t241 -260t83 -386.5v-28q0 -180 -74 -324.5t-205 -237t-302 -117.5q-13 -2 -24 -2.5t-26 -0.5
q52 -44 113 -99t123 -113t117.5 -112.5t95.5 -98.5v-199zM1203 756v28q0 132 -30.5 240t-103.5 171.5t-200 63.5q-123 0 -196 -61.5t-106 -169.5t-33 -244v-28q0 -157 70 -269t161 -167q21 -8 43 -10.5t48 -2.5q124 0 200.5 61.5t111.5 163.5t35 224z" />
    <glyph glyph-name="uni018E" unicode="&#x18e;" horiz-adv-x="1711" 
d="M1510 2048v-2048h-1332v311h960v556h-892v311h892v559h-968v311h1340z" />
    <glyph glyph-name="uni018F" unicode="&#x18f;" horiz-adv-x="2112" 
d="M1032 -28q-256 0 -445.5 112t-294 321.5t-104.5 502.5v212h1466v-307h-1081v-43q0 -148 54.5 -252.5t157 -159.5t243.5 -55q172 0 285.5 77.5t169.5 213.5t56 312v228q0 138 -33.5 250t-105 191.5t-187.5 122.5t-282 43q-85 0 -175.5 -10.5t-175.5 -30.5t-158 -47
l-69 309q36 21 102 41t150.5 37t177.5 26.5t185 9.5q303 0 517 -117t327.5 -329t113.5 -496v-228q0 -270 -110.5 -481t-311.5 -332t-472 -121z" />
    <glyph glyph-name="uni0190" unicode="&#x190;" horiz-adv-x="1851" 
d="M1165 980h-287q-200 0 -355 64t-243 181t-88 275q0 181 94 310t261.5 197.5t387.5 68.5q211 0 374.5 -70t257 -197t94.5 -296h-385q0 115 -89 183t-253 68q-118 0 -197 -34t-119 -97.5t-40 -152.5q0 -80 35.5 -145.5t111 -104.5t198.5 -39h242v-211zM878 1100h287v-207
h-242q-126 0 -209 -34.5t-124 -103.5t-41 -171q0 -110 47.5 -176.5t131 -97t192.5 -30.5q192 0 288 79t96 197h386q0 -191 -102.5 -321.5t-275 -196.5t-383.5 -66q-222 0 -395.5 64t-273.5 194t-100 328q0 267 190 404.5t528 137.5z" />
    <glyph glyph-name="uni0191" unicode="&#x191;" horiz-adv-x="1690" 
d="M243 0h371v-118q0 -131 -39.5 -219.5t-110.5 -141t-167.5 -75t-209.5 -22.5q-23 0 -60 1.5t-81 8.5v286q18 -3 40.5 -4t41.5 -1q88 0 151.5 35t63.5 135v115zM243 0v2048h1313v-311h-942v-556h852v-311h-852v-870h-371z" />
    <glyph glyph-name="uni0192" unicode="&#x192;" horiz-adv-x="1243" 
d="M1058 1488v-270h-293v-1275q0 -252 -128.5 -385.5t-363.5 -133.5q-49 0 -94 4t-96 16l20 293q23 -8 66.5 -12t66.5 -4q90 0 130 59.5t40 162.5v1275h-236v270h236v134q1 253 141.5 385.5t374.5 132.5q63 0 127 -9.5t111 -21.5l-47 -287q-25 6 -55 10.5t-75 4.5
q-103 0 -160 -54t-58 -161v-134h293z" />
    <glyph glyph-name="uni0193" unicode="&#x193;" horiz-adv-x="2291" 
d="M1950 1394h-379l6 280q3 122 45.5 216t116.5 159t173 98t214 33q46 0 91 -4.5t89 -15.5v-293q-25 3 -51.5 6.5t-53.5 3.5q-68 0 -125 -16.5t-91.5 -60.5t-34.5 -126v-280zM1574 1394q-25 81 -68.5 145.5t-104 110.5t-138.5 69.5t-170 23.5q-165 0 -294 -83t-202.5 -243.5
t-73.5 -390.5q0 -232 73 -393t203 -244.5t302 -83.5q156 0 270.5 60t176.5 170.5t62 259.5l84 -13h-556v290h831v-246q0 -263 -112 -455t-308 -295.5t-450 -103.5q-283 0 -496.5 127.5t-333 363t-119.5 559.5q0 248 70.5 443t197.5 331.5t298 208t372 71.5q170 0 317 -49.5
t261.5 -140.5t188.5 -216t97 -276h-378z" />
    <glyph glyph-name="uni0194" unicode="&#x194;" horiz-adv-x="1990" 
d="M71 2048h417l631 -1438q105 -231 179.5 -396t114 -276.5t39.5 -183.5q0 -110 -56 -191.5t-158.5 -126t-242.5 -44.5q-211 0 -338 97t-127 271q0 39 10.5 83.5t34.5 106.5t63.5 150.5t96.5 213.5t135 297l631 1437h418l-875 -1862q-44 -95 -76 -171.5t-49.5 -136.5
t-17.5 -106q0 -48 25 -76.5t69 -28.5t69.5 29.5t25.5 76.5q0 46 -16.5 105t-47.5 135.5t-76 172.5z" />
    <glyph glyph-name="uni0195" unicode="&#x195;" horiz-adv-x="2733" 
d="M186 0v2048h354v-773h18q54 130 167.5 205.5t289.5 75.5q160 0 278.5 -67t184.5 -196t66 -315v-210h-362v154q0 155 -79.5 241.5t-222.5 86.5q-96 0 -171.5 -41.5t-118 -119.5t-42.5 -189v-900h-362zM1766 -28q-179 0 -310 71.5t-202.5 212t-71.5 346.5v166h362v-166
q0 -130 36.5 -200.5t91.5 -98t110 -27.5q121 0 211.5 113t141 351t50.5 614v182h362v-182q0 -474 -90.5 -780t-264.5 -454t-426 -148z" />
    <glyph glyph-name="uni0196" unicode="&#x196;" horiz-adv-x="808" 
d="M186 2048h362v-1608q0 -86 26 -123t92 -35q36 1 54.5 4.5t33.5 7.5l60 -274q-32 -10 -79.5 -19t-116.5 -11q-220 -6 -326 92t-106 299v1667z" />
    <glyph glyph-name="uni0197" unicode="&#x197;" horiz-adv-x="774" 
d="M573 2048v-2048h-371v2048h371zM-93 958v229h958v-229h-958z" />
    <glyph glyph-name="uni0198" unicode="&#x198;" horiz-adv-x="1999" 
d="M202 0v2048h371v-926h25l720 772q96 103 206 146.5t225.5 29.5t228.5 -84l-125 -265q-78 43 -141.5 26t-135.5 -93l-517 -544l851 -1110h-446l-638 848l-253 -275v-573h-371z" />
    <glyph glyph-name="uni0199" unicode="&#x199;" horiz-adv-x="1583" 
d="M1158 0l-450 620l-160 -174v-446h-362v1528h362v-582h20l520 590h431l-588 -656l633 -880h-406zM548 1381h-362v237q0 132 40 220t109 140.5t156 75t179 22.5q57 0 106.5 -3.5t84.5 -10.5v-283q-22 3 -46 5.5t-49 2.5q-86 0 -152 -35t-66 -134v-237z" />
    <glyph glyph-name="uni019A" unicode="&#x19a;" horiz-adv-x="734" 
d="M548 2048v-2048h-362v2048h362zM-113 947v229h958v-229h-958z" />
    <glyph glyph-name="uni019B" unicode="&#x19b;" horiz-adv-x="1846" 
d="M1085 1925v-259l-803 -273v259zM898 986l-344 -986h-404l570 1526l258 -6zM529 2102q155 0 241.5 -61.5t131.5 -173.5l584 -1449q17 -40 36 -71.5t45.5 -49.5t61.5 -18h27h21l3 -293q-24 -6 -60.5 -9t-79.5 -3q-105 0 -180 30.5t-129 96.5t-95 173l-397 1052l-151 354
q-28 66 -70.5 94.5t-106.5 28.5q-16 0 -36 -0.5t-41 -3.5l-6 279q36 10 98.5 17t102.5 7z" />
    <glyph glyph-name="uni019C" unicode="&#x19c;" horiz-adv-x="2638" 
d="M2046 332v1716h371v-2048h-340zM2085 692l131 4q0 -208 -63 -371.5t-191 -258t-325 -94.5q-152 0 -265 59t-175.5 195t-62.5 366v1456h368v-1456q0 -120 31.5 -189.5t84 -99t116.5 -29.5q130 0 207 55.5t110.5 150t33.5 212.5zM1176 692l134 4q0 -210 -62.5 -373.5
t-192 -257t-329.5 -93.5q-162 0 -274 60t-170.5 196t-58.5 364v1456h371v-1456q0 -120 30.5 -189.5t82 -99t115.5 -29.5q131 0 208.5 55t111.5 149.5t34 213.5z" />
    <glyph glyph-name="uni019D" unicode="&#x19d;" horiz-adv-x="2122" 
d="M238 0h371v-118q0 -131 -41 -219.5t-110.5 -141t-157.5 -75t-182 -22.5q-38 0 -91 1.5t-87 8.5v286q18 -3 40.5 -4t41.5 -1q89 0 152.5 35t63.5 135v115zM1921 2048v-2048h-330l-965 1395h-17v-1395h-371v2048h332l964 -1396h18v1396h369z" />
    <glyph glyph-name="uni019E" unicode="&#x19e;" horiz-adv-x="1717" 
d="M548 900v-900h-362v1536h346v-261h18q53 129 169.5 205t288.5 76q159 0 277.5 -67.5t183.5 -197t65 -313.5v-1554h-362v1498q0 153 -79 240.5t-220 87.5q-95 0 -168 -41.5t-115 -119.5t-42 -189z" />
    <glyph glyph-name="uni019F" unicode="&#x19f;" horiz-adv-x="2182" 
d="M2032 1024q0 -331 -123.5 -566.5t-336 -360.5t-481.5 -125t-481.5 125.5t-336 361t-123.5 565.5q0 331 123.5 566.5t336 360.5t481.5 125t481.5 -125t336 -360.5t123.5 -566.5zM1659 1024q0 233 -72.5 393.5t-200.5 243t-295 82.5t-295 -82.5t-200.5 -243t-72.5 -393.5
t72.5 -393.5t200.5 -243t295 -82.5t295 82.5t200.5 243t72.5 393.5zM1765 1154v-260h-1347v260h1347z" />
    <glyph glyph-name="uni01A0" unicode="&#x1a0;" horiz-adv-x="2254" 
d="M1955 2164h262q0 -284 -130 -441t-401 -157v212q148 0 208.5 102t60.5 284zM2032 1024q0 -331 -123.5 -566.5t-336 -360.5t-481.5 -125t-481.5 125.5t-336 361t-123.5 565.5q0 331 123.5 566.5t336 360.5t481.5 125t481.5 -125t336 -360.5t123.5 -566.5zM1659 1024
q0 233 -72.5 393.5t-200.5 243t-295 82.5t-295 -82.5t-200.5 -243t-72.5 -393.5t72.5 -393.5t200.5 -243t295 -82.5t295 82.5t200.5 243t72.5 393.5z" />
    <glyph glyph-name="uni01A1" unicode="&#x1a1;" horiz-adv-x="1748" 
d="M1506 1634h242q0 -244 -113.5 -383.5t-376.5 -139.5v170q104 0 157.5 43t72 122.5t18.5 187.5zM856 -30q-225 0 -390 99t-255.5 277t-90.5 416t90.5 417t255.5 278t390 99t390 -99t255.5 -278t90.5 -417t-90.5 -416t-255.5 -277t-390 -99zM858 260q122 0 204 67.5
t122.5 181.5t40.5 254q0 141 -40.5 255.5t-122.5 182.5t-204 68q-125 0 -207.5 -68t-123 -182.5t-40.5 -255.5q0 -140 40.5 -254t123 -181.5t207.5 -67.5z" />
    <glyph glyph-name="uni01A2" unicode="&#x1a2;" horiz-adv-x="2565" 
d="M1786 1158v-897q-59 -80 -167.5 -145.5t-254 -104.5t-317.5 -39q-212 0 -378.5 66.5t-282 192t-176 304t-60.5 403.5v150l390 4v-154q0 -204 54.5 -351.5t170.5 -227t299 -79.5q112 0 203.5 30t146.5 84v764h372zM1786 1787v-881l-372 -3v751q-54 54 -147 83t-199 29
q-140 0 -240.5 -42.5t-164 -126t-93.5 -206t-30 -281.5v-154l-390 2v152q0 228 61.5 407t179.5 304t287 190t384 65q168 0 310.5 -40t249 -105.5t164.5 -143.5zM2363 2048v-2624h-370v2200l-400 -170v377l489 217h281z" />
    <glyph glyph-name="uni01A3" unicode="&#x1a3;" horiz-adv-x="1987" 
d="M798 270q61 0 107 16.5t81 45.5v494h372v-577q-52 -78 -128 -140.5t-182.5 -99.5t-252.5 -37q-228 0 -381 101t-230 271.5t-77 377.5v44q0 226 76.5 405t230.5 282t388 103q136 0 244.5 -44t187.5 -112t124 -141v-508l-372 19v414q-34 36 -82 55.5t-114 19.5
q-128 0 -195.5 -68.5t-92 -181t-24.5 -243.5v-44q0 -131 32 -233t102.5 -160.5t185.5 -58.5zM1882 1536v-2112h-372v1679l-319 -145v383l427 195h264z" />
    <glyph glyph-name="uni01A4" unicode="&#x1a4;" horiz-adv-x="2341" 
d="M446 1381h-334v179q0 145 62.5 255t180.5 171.5t283 61.5h861q236 0 396.5 -88t243 -241.5t82.5 -348.5q0 -197 -83 -350t-245 -240.5t-399 -87.5h-392v-692h-372v1738h-89q-82 0 -124 -37t-56.5 -95t-14.5 -120v-105zM1102 997h342q138 0 226 48t130 132t42 193t-42 192
t-130.5 129.5t-227.5 46.5h-340v-741z" />
    <glyph glyph-name="uni01A5" unicode="&#x1a5;" horiz-adv-x="1759" 
d="M542 1536h-356q0 203 116.5 298t350.5 95q66 0 115.5 -7t74.5 -13v-256q-18 5 -50 10t-66 6q-91 1 -138 -33t-47 -100zM186 -576v2112h356v-254h21q28 56 79 119.5t138 109t222 45.5q178 0 321.5 -90.5t228 -267t84.5 -432.5q0 -253 -83 -430t-226 -270t-324 -93
q-132 0 -219 44t-139.5 106.5t-81.5 118.5h-15v-818h-362zM541 768q0 -149 42.5 -261t123 -174.5t195.5 -62.5q120 0 201 64.5t122.5 177t41.5 256.5q0 143 -41 254t-122 174t-202 63q-116 0 -197 -61t-122.5 -171t-41.5 -259z" />
    <glyph glyph-name="uni01A6" unicode="&#x1a6;" horiz-adv-x="2109" 
d="M142 1909v280h388v-280h-388zM142 2049h740q234 0 400.5 -69.5t255 -204.5t88.5 -331q0 -158 -55 -272.5t-157 -191t-240 -121.5l-120 -62h-644l-2 308h474q119 0 199 40t120.5 110.5t40.5 162.5q0 98 -38.5 169.5t-118 110.5t-203.5 39h-351v-1737h-389v2049zM1554 -486
l-732 1385h407l737 -1368v-17h-412z" />
    <glyph glyph-name="uni01A7" unicode="&#x1a7;" horiz-adv-x="1828" 
d="M513 1485h-357q4 173 97.5 306.5t258 209t382.5 75.5q216 0 385.5 -75.5t268 -211.5t98.5 -317q0 -220 -146.5 -352.5t-399.5 -197.5l-233 -60q-110 -28 -192.5 -63.5t-128.5 -88t-47 -132.5q1 -88 53 -153.5t143.5 -102t212.5 -36.5q116 0 209.5 35t152 106t65.5 178
h365q-8 -204 -106.5 -346t-274 -216t-414.5 -74q-245 0 -419 76.5t-266 213t-92 316.5q0 133 50 232t135.5 169t193.5 116t223 73l192 48q84 20 164.5 53t132.5 88.5t51 140.5q0 77 -44.5 137t-127.5 95t-199 35q-110 0 -193.5 -33t-133.5 -95t-59 -149z" />
    <glyph glyph-name="uni01A8" unicode="&#x1a8;" horiz-adv-x="1546" 
d="M146 1130q38 196 192.5 311t424.5 115q185 0 325.5 -57.5t218.5 -162t78 -246.5q1 -168 -105 -277.5t-327 -155.5l-263 -55q-206 -45 -207 -175q1 -78 79 -131t208 -53q124 0 202.5 53t101.5 157l354 -34q-33 -212 -204.5 -330.5t-454.5 -118.5q-192 0 -340 62
t-232 172.5t-84 255.5q1 165 108 267t324 149l261 56q118 27 168.5 69t49.5 109q1 78 -76 127t-190 49q-125 0 -193 -58t-89 -134z" />
    <glyph glyph-name="uni01A9" unicode="&#x1a9;" horiz-adv-x="1854" 
d="M1640 315v-315h-1298v315h1298zM1598 2028v-317h-1242v317h1242zM1232 1025v-23l-750 -1002h-287v210l629 802l-629 804v212h287z" />
    <glyph glyph-name="uni01AA" unicode="&#x1aa;" horiz-adv-x="1731" 
d="M882 1429l372 181v-1663q0 -124 49 -179t141 -55q25 0 53 3t59 9v-291q-41 -12 -92 -17.5t-100 -5.5q-231 0 -356.5 138t-125.5 398v1482zM175 1610q0 146 72.5 266.5t194.5 192.5t272 72q147 0 270 -72t196.5 -192.5t73.5 -266.5q-1 -145 -74 -266t-196 -193.5
t-270 -72.5q-149 0 -271 72t-194.5 193t-73.5 267zM715 1401q56 0 102.5 23.5t74 71t26.5 118.5q0 105 -60 158t-143 53q-60 0 -107 -24t-74 -71t-28 -116q0 -107 59.5 -160t149.5 -53z" />
    <glyph glyph-name="uni01AB" unicode="&#x1ab;" horiz-adv-x="1080" 
d="M713 258l277 57v-433q0 -219 -123.5 -337.5t-320.5 -118.5q-45 0 -86 3t-79 13v255q20 -3 44 -5.5t53 -2.5q57 0 111 16t89 58t35 119v376zM953 1536v-280h-883v280h883zM288 1904h362v-1442q0 -73 22.5 -111.5t59.5 -52.5t82 -14q34 0 62.5 5t43.5 9l61 -283
q-29 -10 -82.5 -22t-130.5 -14q-136 -4 -245 41.5t-172.5 141.5t-62.5 240v1502z" />
    <glyph glyph-name="uni01AC" unicode="&#x1ac;" horiz-adv-x="1960" 
d="M1848 2048v-311h-633v-1737h-368v1737h-225q-78 0 -120.5 -35.5t-59 -91t-16.5 -116.5v-104h-314v171q0 223 133 355t377 132h1226z" />
    <glyph glyph-name="uni01AD" unicode="&#x1ad;" horiz-adv-x="1210" 
d="M748 1466h-370v218q0 129 40 217t109.5 141t160.5 76t192 23q58 0 104.5 -5.5t85.5 -15.5v-247q-18 5 -43.5 8.5t-49.5 3.5q-59 0 -111 -17.5t-85 -61.5t-33 -122v-218zM1014 1488v-270h-872v270h872zM378 1559h370v-1107q0 -103 43 -138.5t115 -35.5q36 0 67 4t53 7
v-283q-47 -16 -105.5 -25t-130.5 -9q-122 0 -215 45.5t-145 144.5t-52 260v1137z" />
    <glyph glyph-name="uni01AE" unicode="&#x1ae;" horiz-adv-x="1858" 
d="M1113 0v-118q0 -99 69.5 -130t155.5 -31h83v-297h-178q-94 0 -183.5 22.5t-160.5 74.5t-112.5 140.5t-41.5 220.5v118h368zM112 1737v311h1634v-311h-633v-1737h-368v1737h-633z" />
    <glyph glyph-name="uni01AF" unicode="&#x1af;" horiz-adv-x="2446" 
d="M2073 2138h261q0 -201 -56 -342t-188 -215.5t-359 -74.5v216q149 0 222 49t96.5 142t23.5 225zM1493 2048h371v-1338q0 -220 -103.5 -387t-290.5 -260.5t-437 -93.5q-251 0 -438 93.5t-290 260.5t-103 387v1338h371v-1307q0 -128 56.5 -228t159.5 -156.5t244 -56.5
t244.5 56.5t159.5 156.5t56 228v1307z" />
    <glyph glyph-name="uni01B0" unicode="&#x1b0;" horiz-adv-x="1915" 
d="M1730 1615h233q0 -166 -47.5 -278.5t-161.5 -169.5t-315 -57v182q134 0 195 34.5t78 106.5t18 182zM1171 646v890h363v-1536h-352v273h-16q-52 -129 -170.5 -211t-291.5 -82q-151 0 -266.5 67.5t-180.5 197t-65 313.5v978h362v-922q1 -146 80.5 -232t209.5 -86
q80 0 155.5 39t124 116.5t47.5 194.5z" />
    <glyph glyph-name="uni01B1" unicode="&#x1b1;" horiz-adv-x="2176" 
d="M141 947q0 268 107 462t290 312v16h-397v311h784v-392q-116 -48 -209.5 -147.5t-148.5 -237.5t-55 -301q0 -189 74 -339t204 -237.5t298 -87.5q127 0 232 50.5t182 140.5t119.5 211t42.5 262q0 163 -55 301t-148.5 237.5t-209.5 147.5v392h784v-311h-397v-16
q183 -117 290 -311.5t107 -462.5q0 -214 -69.5 -392.5t-196.5 -309t-300 -202t-381 -71.5t-381 71.5t-300 202t-196.5 309t-69.5 392.5z" />
    <glyph glyph-name="uni01B2" unicode="&#x1b2;" horiz-adv-x="1846" 
d="M925 -28q-223 0 -398 80t-275 236t-100 387v1373h385v-1373q0 -197 100 -296t288 -99q187 0 285 99t98 296v865q0 123 -47.5 170.5t-152.5 47.5q-24 0 -54.5 -2t-58.5 -7v303q44 11 92 17.5t101 6.5q231 0 370.5 -138.5t139.5 -397.5v-865q0 -230 -102 -386.5
t-277 -236.5t-394 -80z" />
    <glyph glyph-name="uni01B3" unicode="&#x1b3;" horiz-adv-x="2145" 
d="M74 2048h409l541 -906h24l401 668q79 133 186 196t227 66t236 -45l-83 -283q-91 31 -154 8.5t-121 -114.5l-519 -829v-809h-370v809z" />
    <glyph glyph-name="uni01B4" unicode="&#x1b4;" horiz-adv-x="1784" 
d="M411 -576q-74 0 -136.5 11.5t-99.5 26.5l84 282q79 -23 141 -22t109.5 38.5t80.5 124.5l31 83l-557 1568h384l354 -1160h16l337 1078q38 124 97.5 225t147.5 161.5t213 60.5q76 0 145 -19.5t122 -50.5l-72 -272q-37 16 -72.5 25t-67.5 6q-64 -4 -102.5 -60t-77.5 -169
l-537 -1547q-63 -183 -195.5 -286.5t-344.5 -103.5z" />
    <glyph glyph-name="uni01B5" unicode="&#x1b5;" horiz-adv-x="1838" 
d="M164 0v231l1050 1506h-1056v311h1516v-231l-1049 -1506h1055v-311h-1516zM468 958v229h958v-229h-958z" />
    <glyph glyph-name="uni01B6" unicode="&#x1b6;" horiz-adv-x="1582" 
d="M166 0v230l792 993v13h-766v300h1209v-247l-754 -976v-13h780v-300h-1261zM308 659v229h958v-229h-958z" />
    <glyph glyph-name="uni01B7" unicode="&#x1b7;" horiz-adv-x="1928" 
d="M112 128h375q8 -123 71.5 -217t166.5 -146.5t228 -52.5q147 0 253 72t163 197t57 283q0 178 -71 307.5t-196.5 200t-288.5 70.5h-198v278l609 595v16h-1055v317h1528v-268l-685 -670v-20q219 -14 385 -122t259 -287.5t93 -410.5q0 -190 -62 -350.5t-175.5 -278.5
t-270 -183t-344.5 -65q-234 0 -421.5 94t-299.5 260t-121 381z" />
    <glyph glyph-name="uni01B8" unicode="&#x1b8;" horiz-adv-x="1928" 
d="M1816 128q-8 -215 -120.5 -381t-300 -260t-421.5 -94q-188 0 -344.5 65t-270 183t-175.5 278.5t-62 350.5q0 231 93 410.5t259.5 287.5t384.5 122v20l-685 670v268h1528v-317h-1055v-16l609 -595v-278h-198q-162 0 -288 -70.5t-197 -200t-71 -307.5q0 -158 57 -283
t163 -197t253 -72q125 0 228 52.5t167 146.5t71 217h375z" />
    <glyph glyph-name="uni01B9" unicode="&#x1b9;" horiz-adv-x="1821" 
d="M1671 45q-8 -178 -107 -309.5t-265 -203.5t-377 -72q-219 0 -390.5 77.5t-270.5 214.5t-99 317q0 148 71.5 276t210.5 213t342 102v16l-550 592v268h1334v-310h-866v-14l474 -520v-267h-203q-147 0 -243 -45.5t-142 -122t-46 -169.5q0 -101 48.5 -171.5t133.5 -108
t193 -37.5q102 0 184.5 32.5t134 93.5t58.5 148h375z" />
    <glyph glyph-name="uni01BA" unicode="&#x1ba;" horiz-adv-x="1587" 
d="M214 1536h1227v-217l-766 -661h-208v218l420 363h-673v297zM502 -173q1 -81 70.5 -124t179.5 -43q74 0 142.5 20.5t113.5 70.5t50 138h355q-1 -121 -75 -235.5t-218 -188.5t-353 -74q-191 0 -331.5 58t-218 161t-77.5 239q0 123 62 213t188 151t317 98q106 21 171.5 45.5
t95.5 60.5t30 93q0 69 -57.5 108.5t-176.5 39.5h-160l9 266h151q184 0 317.5 -56.5t205 -154t72.5 -219.5q-1 -136 -75 -225t-202 -144.5t-289 -91.5q-117 -26 -181.5 -58t-90 -69.5t-25.5 -78.5z" />
    <glyph glyph-name="uni01BB" unicode="&#x1bb;" horiz-adv-x="1750" 
d="M182 0v268l711 697q102 103 170 183t102 155t34 160q0 97 -44 166.5t-121 107.5t-175 38q-101 0 -177 -41.5t-117.5 -117.5t-41.5 -181h-353q0 195 89 339t245.5 223t359.5 79q206 0 362 -77t242.5 -211t86.5 -306q0 -115 -44 -226t-154.5 -246t-309.5 -327l-353 -359
v-14h892v-310h-1404zM706 974v229h958v-229h-958z" />
    <glyph glyph-name="uni01BC" unicode="&#x1bc;" horiz-adv-x="1754" 
d="M541 2048v-310h-444v310h444zM926 -28q-200 0 -358 75.5t-250.5 207.5t-98.5 302h360q10 -126 109 -205.5t238 -79.5q109 0 194 50t134 139t48 203q1 116 -49 206t-137 141.5t-200 51.5q-92 1 -181 -34t-141 -92l-335 55l107 1056h1188v-310h-881l-59 -543h12
q57 67 161 111.5t228 44.5q186 0 332 -87.5t230 -240.5t84 -350q0 -203 -93.5 -361.5t-259 -249t-382.5 -90.5z" />
    <glyph glyph-name="uni01BD" unicode="&#x1bd;" horiz-adv-x="1736" 
d="M673 638l-332 19l107 831h1015v-298h-709l-39 -273q46 26 127.5 48.5t173.5 24.5q171 2 292 -57t185.5 -172.5t64.5 -274.5q0 -145 -65 -260.5t-205 -182.5t-367 -67q-118 0 -232 27t-206.5 83.5t-147.5 143.5t-55 206l365 21q4 -87 79.5 -133.5t196.5 -46.5
q138 0 202.5 63t65.5 166q-1 100 -69.5 162.5t-198.5 62.5q-100 0 -158.5 -27.5t-89.5 -65.5zM608 1488v-298h-430v298h430z" />
    <glyph glyph-name="uni01BE" unicode="&#x1be;" horiz-adv-x="1587" 
d="M1068 409q0 60 -37 101t-95 75.5t-123.5 74.5t-124 96.5t-95.5 142t-38 212.5v743h374v-743q0 -93 36.5 -150.5t94 -95.5t121.5 -71.5t121.5 -77t93.5 -112t36 -178.5q0 -132 -77 -234.5t-217.5 -161t-330.5 -58.5q-211 0 -355.5 74.5t-219 190t-74.5 236.5h357
q5 -87 50 -138t111.5 -72t135.5 -21q81 0 138.5 20.5t87.5 58t30 88.5zM1193 1488v-270h-872v270h872z" />
    <glyph glyph-name="uni01BF" unicode="&#x1bf;" horiz-adv-x="1858" 
d="M627 1252v-1824h-373v2108h346zM571 879l-161 -69q20 164 62.5 300t114.5 236t176.5 155t246.5 55q193 0 325 -95t200.5 -265t68.5 -395v-71q0 -217 -74 -376t-216.5 -273.5t-346 -197t-463.5 -149.5l-24 294q218 36 387.5 121.5t266 228t96.5 352.5v71
q0 123 -31.5 226.5t-102 166t-187.5 62.5q-112 0 -183.5 -47t-108 -132t-46.5 -198z" />
    <glyph glyph-name="uni01C0" unicode="&#x1c0;" horiz-adv-x="812" 
d="M526 2024v-2024h-240v2024h240z" />
    <glyph glyph-name="uni01C1" unicode="&#x1c1;" horiz-adv-x="1075" 
d="M471 2024v-2024h-240v2024h240zM841 2024v-2024h-240v2024h240z" />
    <glyph glyph-name="uni01C2" unicode="&#x1c2;" horiz-adv-x="1086" 
d="M663 2024v-2024h-240v2024h240zM62 1239v229h958v-229h-958zM65 575v229h958v-229h-958z" />
    <glyph glyph-name="uni01C3" unicode="&#x1c3;" horiz-adv-x="870" 
d="M629 2048l-33 -1446h-322l-32 1446h387zM435 -22q-91 0 -155.5 64t-64.5 156q0 90 64.5 154t155.5 64q89 0 154.5 -64t65.5 -154q0 -61 -30.5 -111t-80 -79.5t-109.5 -29.5z" />
    <glyph glyph-name="uni01C5" unicode="&#x1c5;" horiz-adv-x="3622" 
d="M896 0h-694v2048h708q305 0 524.5 -122.5t337.5 -351.5t118 -548q0 -320 -118.5 -550t-341 -353t-534.5 -123zM573 321h305q214 0 357 78.5t215 235t72 391.5t-72 390.5t-212.5 233t-348.5 77.5h-316v-1406zM2206 0v230l792 993v13h-766v300h1209v-247l-754 -976v-13h780
v-300h-1261zM2626 2166l203 -256l203 256h317v-14l-379 -432h-283l-378 432v14h317z" />
    <glyph glyph-name="uni01C6" unicode="&#x1c6;" horiz-adv-x="3090" 
d="M756 -27q-181 0 -324 93t-226 270t-83 430q0 256 84.5 432.5t228.5 267t321 90.5q135 0 222 -45.5t138 -109t79 -119.5h15v766h363v-2048h-356v242h-22q-28 -56 -81 -118.5t-140 -106.5t-219 -44zM857 270q115 0 196 62.5t123 174.5t42 261t-41.5 259t-122 171t-197.5 61
q-121 0 -202 -63t-122 -174t-41 -254q0 -144 41.5 -256.5t123 -177t200.5 -64.5zM1675 0v230l792 993v13h-766v300h1209v-247l-754 -976v-13h780v-300h-1261zM2095 2166l203 -256l203 256h317v-14l-379 -432h-283l-378 432v14h317z" />
    <glyph glyph-name="uni01C7" unicode="&#x1c7;" horiz-adv-x="3173" 
d="M202 0v2048h371v-1737h902v-311h-1273zM2604 2048h368v-1440q-1 -198 -84 -340.5t-231.5 -219t-345.5 -76.5q-180 0 -323.5 64.5t-227.5 191.5t-84 316h369q1 -83 36.5 -143t98.5 -92t145 -32q89 0 151 37.5t94.5 111.5t33.5 182v1440z" />
    <glyph glyph-name="uni01C8" unicode="&#x1c8;" horiz-adv-x="2327" 
d="M202 0v2048h371v-1737h902v-311h-1273zM1780 1536h362v-1624q0 -166 -63 -274t-182 -161t-289 -53q-20 0 -37 0.5t-37 1.5v295q15 -1 27 -1.5t25 -0.5q104 0 149 50.5t45 147.5v1619zM1960 1754q-87 0 -148.5 57.5t-61.5 138.5q0 82 61.5 139.5t148.5 57.5
q86 0 147.5 -57.5t61.5 -139.5q0 -81 -61.5 -138.5t-147.5 -57.5z" />
    <glyph glyph-name="uni01C9" unicode="&#x1c9;" horiz-adv-x="1458" 
d="M548 2048v-2048h-362v2048h362zM881 1536h362v-1624q0 -166 -63 -274t-182 -161t-289 -53q-20 0 -37 0.5t-37 1.5v295q15 -1 27 -1.5t25 -0.5q104 0 149 50.5t45 147.5v1619zM1061 1754q-87 0 -148.5 57.5t-61.5 138.5q0 82 61.5 139.5t148.5 57.5q86 0 147.5 -57.5
t61.5 -139.5q0 -81 -61.5 -138.5t-147.5 -57.5z" />
    <glyph glyph-name="uni01CA" unicode="&#x1ca;" horiz-adv-x="3666" 
d="M1885 2048v-2048h-330l-965 1395h-17v-1395h-371v2048h332l964 -1396h18v1396h369zM3096 2048h368v-1440q-1 -198 -84 -340.5t-231.5 -219t-345.5 -76.5q-180 0 -323.5 64.5t-227.5 191.5t-84 316h369q1 -83 36.5 -143t98.5 -92t145 -32q89 0 151 37.5t94.5 111.5
t33.5 182v1440z" />
    <glyph glyph-name="uni01CB" unicode="&#x1cb;" horiz-adv-x="2758" 
d="M1885 2048v-2048h-330l-965 1395h-17v-1395h-371v2048h332l964 -1396h18v1396h369zM2210 1536h362v-1624q0 -166 -63 -274t-182 -161t-289 -53q-20 0 -37 0.5t-37 1.5v295q15 -1 27 -1.5t25 -0.5q104 0 149 50.5t45 147.5v1619zM2390 1754q-87 0 -148.5 57.5t-61.5 138.5
q0 82 61.5 139.5t148.5 57.5q86 0 147.5 -57.5t61.5 -139.5q0 -81 -61.5 -138.5t-147.5 -57.5z" />
    <glyph glyph-name="uni01CC" unicode="&#x1cc;" horiz-adv-x="2450" 
d="M548 900v-900h-362v1536h346v-261h18q53 129 169.5 205t288.5 76q159 0 277.5 -68t184 -197t64.5 -313v-978h-362v922q0 154 -79.5 241t-219.5 87q-95 0 -168.5 -41.5t-115 -119.5t-41.5 -189zM1903 1536h362v-1624q0 -166 -63 -274t-182 -161t-289 -53q-20 0 -37 0.5
t-37 1.5v295q15 -1 27 -1.5t25 -0.5q104 0 149 50.5t45 147.5v1619zM2083 1754q-87 0 -148.5 57.5t-61.5 138.5q0 82 61.5 139.5t148.5 57.5q86 0 147.5 -57.5t61.5 -139.5q0 -81 -61.5 -138.5t-147.5 -57.5z" />
    <glyph glyph-name="uni01CD" unicode="&#x1cd;" horiz-adv-x="2038" 
d="M465 0h-396l721 2048h458l722 -2048h-396l-547 1628h-16zM478 803h1080v-298h-1080v298zM816 2678l203 -256l203 256h317v-14l-378 -432h-283l-379 432v14h317z" />
    <glyph glyph-name="uni01CE" unicode="&#x1ce;" horiz-adv-x="1618" 
d="M628 -31q-146 0 -262.5 52.5t-184 155.5t-67.5 254q0 130 48 215t131 136t187.5 77.5t216.5 38.5q135 14 219 25.5t122.5 36t38.5 76.5v6q0 113 -67 175t-193 62q-133 0 -210.5 -58t-104.5 -137l-338 48q40 140 132 234.5t225 142t294 47.5q111 0 221 -26t201 -85.5
t146.5 -161.5t55.5 -255v-1028h-348v211h-12q-33 -64 -92.5 -119.5t-149 -89t-209.5 -33.5zM722 235q109 0 189 43.5t123.5 115.5t43.5 157v181q-17 -14 -57.5 -26t-90.5 -21t-99 -16t-85 -12q-81 -11 -145 -36t-101 -69.5t-37 -114.5q0 -100 73 -151t186 -51zM628 2166
l203 -256l203 256h317v-14l-378 -432h-283l-379 432v14h317z" />
    <glyph glyph-name="uni01CF" unicode="&#x1cf;" horiz-adv-x="774" 
d="M573 2048v-2048h-371v2048h371zM185 2678l203 -256l203 256h317v-14l-378 -432h-283l-379 432v14h317z" />
    <glyph glyph-name="uni01D0" unicode="&#x1d0;" horiz-adv-x="734" 
d="M186 0v1536h362v-1536h-362zM165 2166l203 -256l203 256h317v-14l-378 -432h-283l-379 432v14h317z" />
    <glyph glyph-name="uni01D1" unicode="&#x1d1;" horiz-adv-x="2182" 
d="M2032 1024q0 -331 -123.5 -566.5t-336 -360.5t-481.5 -125t-481.5 125.5t-336 361t-123.5 565.5q0 331 123.5 566.5t336 360.5t481.5 125t481.5 -125t336 -360.5t123.5 -566.5zM1659 1024q0 233 -72.5 393.5t-200.5 243t-295 82.5t-295 -82.5t-200.5 -243t-72.5 -393.5
t72.5 -393.5t200.5 -243t295 -82.5t295 82.5t200.5 243t72.5 393.5zM888 2678l203 -256l203 256h317v-14l-378 -432h-283l-379 432v14h317z" />
    <glyph glyph-name="uni01D2" unicode="&#x1d2;" horiz-adv-x="1712" 
d="M856 -30q-225 0 -390 99t-255.5 277t-90.5 416t90.5 417t255.5 278t390 99t390 -99t255.5 -278t90.5 -417t-90.5 -416t-255.5 -277t-390 -99zM858 260q122 0 204 67.5t122.5 181.5t40.5 254q0 141 -40.5 255.5t-122.5 182.5t-204 68q-125 0 -207.5 -68t-123 -182.5
t-40.5 -255.5q0 -140 40.5 -254t123 -181.5t207.5 -67.5zM653 2166l203 -256l203 256h317v-14l-378 -432h-283l-379 432v14h317z" />
    <glyph glyph-name="uni01D3" unicode="&#x1d3;" horiz-adv-x="2066" 
d="M1493 2048h371v-1338q0 -220 -103.5 -387t-290.5 -260.5t-437 -93.5q-251 0 -438 93.5t-290 260.5t-103 387v1338h371v-1307q0 -128 56.5 -228t159.5 -156.5t244 -56.5t244.5 56.5t159.5 156.5t56 228v1307zM830 2678l203 -256l203 256h317v-14l-378 -432h-283l-379 432
v14h317z" />
    <glyph glyph-name="uni01D4" unicode="&#x1d4;" horiz-adv-x="1713" 
d="M1165 646v890h362v-1536h-351v273h-16q-52 -129 -170.5 -211t-291.5 -82q-151 0 -266.5 67.5t-180.5 197t-65 313.5v978h362v-922q0 -146 80 -232t210 -86q80 0 155 39t123.5 116.5t48.5 194.5zM655 2166l203 -256l203 256h317v-14l-378 -432h-283l-379 432v14h317z" />
    <glyph glyph-name="uni01D5" unicode="&#x1d5;" horiz-adv-x="2066" 
d="M1493 2048h371v-1338q0 -220 -103.5 -387t-290.5 -260.5t-437 -93.5q-251 0 -438 93.5t-290 260.5t-103 387v1338h371v-1307q0 -128 56.5 -228t159.5 -156.5t244 -56.5t244.5 56.5t159.5 156.5t56 228v1307zM734 2274q-79 0 -136.5 56t-57.5 132q0 80 57.5 134.5
t136.5 54.5q81 0 136.5 -54.5t55.5 -134.5q0 -76 -55.5 -132t-136.5 -56zM1334 2274q-79 0 -136.5 56t-57.5 132q0 80 57.5 134.5t136.5 54.5q81 0 136.5 -54.5t55.5 -134.5q0 -76 -55.5 -132t-136.5 -56zM1514 3072v-221h-962v221h962z" />
    <glyph glyph-name="uni01D6" unicode="&#x1d6;" horiz-adv-x="1713" 
d="M1165 646v890h362v-1536h-351v273h-16q-52 -129 -170.5 -211t-291.5 -82q-151 0 -266.5 67.5t-180.5 197t-65 313.5v978h362v-922q0 -146 80 -232t210 -86q80 0 155 39t123.5 116.5t48.5 194.5zM560 1762q-79 0 -136.5 56t-57.5 132q0 80 57.5 134.5t136.5 54.5
q81 0 136.5 -54.5t55.5 -134.5q0 -76 -55.5 -132t-136.5 -56zM1160 1762q-79 0 -136.5 56t-57.5 132q0 80 57.5 134.5t136.5 54.5q81 0 136.5 -54.5t55.5 -134.5q0 -76 -55.5 -132t-136.5 -56zM1340 2560v-221h-962v221h962z" />
    <glyph glyph-name="uni01D7" unicode="&#x1d7;" horiz-adv-x="2066" 
d="M1493 2048h371v-1338q0 -220 -103.5 -387t-290.5 -260.5t-437 -93.5q-251 0 -438 93.5t-290 260.5t-103 387v1338h371v-1307q0 -128 56.5 -228t159.5 -156.5t244 -56.5t244.5 56.5t159.5 156.5t56 228v1307zM889 2688l282 337h346l-354 -337h-274zM742 2195
q-76 0 -131.5 53.5t-55.5 126.5q0 76 55.5 128t131.5 52q78 0 132 -52t54 -128q0 -73 -54 -126.5t-132 -53.5zM1325 2195q-75 0 -131 53.5t-56 126.5q0 76 56 128t131 52q79 0 132.5 -52t53.5 -128q0 -73 -53.5 -126.5t-132.5 -53.5z" />
    <glyph glyph-name="uni01D8" unicode="&#x1d8;" horiz-adv-x="1713" 
d="M1165 646v890h362v-1536h-351v273h-16q-52 -129 -170.5 -211t-291.5 -82q-151 0 -266.5 67.5t-180.5 197t-65 313.5v978h362v-922q0 -146 80 -232t210 -86q80 0 155 39t123.5 116.5t48.5 194.5zM559 1762q-79 0 -136.5 56t-57.5 132q0 80 57.5 134.5t136.5 54.5
q81 0 136.5 -54.5t55.5 -134.5q0 -76 -55.5 -132t-136.5 -56zM1159 1762q-79 0 -136.5 56t-57.5 132q0 80 57.5 134.5t136.5 54.5q81 0 136.5 -54.5t55.5 -134.5q0 -76 -55.5 -132t-136.5 -56zM720 2250l223 457h354l-307 -457h-270z" />
    <glyph glyph-name="uni01D9" unicode="&#x1d9;" horiz-adv-x="2066" 
d="M1493 2048h371v-1338q0 -220 -103.5 -387t-290.5 -260.5t-437 -93.5q-251 0 -438 93.5t-290 260.5t-103 387v1338h371v-1307q0 -128 56.5 -228t159.5 -156.5t244 -56.5t244.5 56.5t159.5 156.5t56 228v1307zM541 2426q0 67 48 113.5t131 46.5q85 0 133.5 -46.5
t48.5 -113.5q0 -68 -49 -113t-132 -45q-84 0 -132 46t-48 112zM1163 2425q0 66 48.5 112.5t133.5 46.5q81 0 130.5 -46t49.5 -112t-48.5 -113t-131.5 -47q-85 0 -133.5 46.5t-48.5 112.5zM841 2916l191 -159l190 159h318v-22l-383 -312h-249l-384 312v22h317z" />
    <glyph glyph-name="uni01DA" unicode="&#x1da;" horiz-adv-x="1713" 
d="M1165 646v890h362v-1536h-351v273h-16q-52 -129 -170.5 -211t-291.5 -82q-151 0 -266.5 67.5t-180.5 197t-65 313.5v978h362v-922q0 -146 80 -232t210 -86q80 0 155 39t123.5 116.5t48.5 194.5zM345 1894q0 69 50 119.5t133 50.5q84 0 135.5 -49.5t51.5 -120.5t-52 -119
t-135 -48q-81 0 -132 48.5t-51 118.5zM1005 1892q0 70 51.5 121t133.5 51q84 0 136 -51t52 -121q0 -68 -52 -117.5t-136 -49.5q-82 0 -133.5 49.5t-51.5 117.5zM654 2553l204 -205l207 205h316v-16l-405 -385h-235l-404 386v15h317z" />
    <glyph glyph-name="uni01DB" unicode="&#x1db;" horiz-adv-x="2066" 
d="M1493 2048h371v-1338q0 -220 -103.5 -387t-290.5 -260.5t-437 -93.5q-251 0 -438 93.5t-290 260.5t-103 387v1338h371v-1307q0 -128 56.5 -228t159.5 -156.5t244 -56.5t244.5 56.5t159.5 156.5t56 228v1307zM974 2829l179 -280h-208l-254 280h283zM540 2426
q0 67 48.5 113.5t129.5 46.5q85 0 134.5 -46.5t49.5 -113.5q0 -68 -49.5 -113t-132.5 -45q-84 0 -132 46t-48 112zM1162 2425q-1 67 49 113t133 46t131.5 -46.5t48.5 -111.5t-47.5 -112.5t-132.5 -47.5q-83 0 -133 46t-49 113z" />
    <glyph glyph-name="uni01DC" unicode="&#x1dc;" horiz-adv-x="1713" 
d="M1165 646v890h362v-1536h-351v273h-16q-52 -129 -170.5 -211t-291.5 -82q-151 0 -266.5 67.5t-180.5 197t-65 313.5v978h362v-922q0 -146 80 -232t210 -86q80 0 155 39t123.5 116.5t48.5 194.5zM343 1894q0 69 50.5 119.5t133.5 50.5q84 0 135.5 -49.5t51.5 -120.5
q0 -70 -51.5 -118.5t-135.5 -48.5q-81 0 -132.5 48.5t-51.5 118.5zM1003 1892q0 71 52.5 121.5t135.5 50.5q82 0 133.5 -51t51.5 -121q0 -68 -51.5 -117.5t-133.5 -49.5q-84 0 -136 49.5t-52 117.5zM772 2550l276 -420h-308l-383 420h415z" />
    <glyph glyph-name="uni01DD" unicode="&#x1dd;" horiz-adv-x="1669" 
d="M802 1566q232 0 399.5 -96.5t257.5 -274t90 -418.5q0 -237 -90.5 -416.5t-253.5 -280t-383 -100.5q-142 0 -268.5 45.5t-224 140.5t-153.5 241.5t-56 348.5v111h1259v-244h-912q1 -104 44.5 -185.5t122.5 -128.5t183 -47q112 0 195.5 53.5t130 140.5t47.5 189v213
q0 134 -49 229.5t-137 146t-206 50.5q-78 0 -143 -22.5t-111.5 -66.5t-70.5 -109l-339 38q32 134 122 233.5t229 154t317 54.5z" />
    <glyph glyph-name="uni01DE" unicode="&#x1de;" horiz-adv-x="2038" 
d="M465 0h-396l721 2048h458l722 -2048h-396l-547 1628h-16zM478 803h1080v-298h-1080v298zM720 2274q-79 0 -136.5 56t-57.5 132q0 80 57.5 134.5t136.5 54.5q81 0 136.5 -54.5t55.5 -134.5q0 -76 -55.5 -132t-136.5 -56zM1320 2274q-79 0 -136.5 56t-57.5 132
q0 80 57.5 134.5t136.5 54.5q81 0 136.5 -54.5t55.5 -134.5q0 -76 -55.5 -132t-136.5 -56zM1500 3072v-221h-962v221h962z" />
    <glyph glyph-name="uni01DF" unicode="&#x1df;" horiz-adv-x="1618" 
d="M628 -31q-146 0 -262.5 52.5t-184 155.5t-67.5 254q0 130 48 215t131 136t187.5 77.5t216.5 38.5q135 14 219 25.5t122.5 36t38.5 76.5v6q0 113 -67 175t-193 62q-133 0 -210.5 -58t-104.5 -137l-338 48q40 140 132 234.5t225 142t294 47.5q111 0 221 -26t201 -85.5
t146.5 -161.5t55.5 -255v-1028h-348v211h-12q-33 -64 -92.5 -119.5t-149 -89t-209.5 -33.5zM722 235q109 0 189 43.5t123.5 115.5t43.5 157v181q-17 -14 -57.5 -26t-90.5 -21t-99 -16t-85 -12q-81 -11 -145 -36t-101 -69.5t-37 -114.5q0 -100 73 -151t186 -51zM532 1762
q-79 0 -136.5 56t-57.5 132q0 80 57.5 134.5t136.5 54.5q81 0 136.5 -54.5t55.5 -134.5q0 -76 -55.5 -132t-136.5 -56zM1132 1762q-79 0 -136.5 56t-57.5 132q0 80 57.5 134.5t136.5 54.5q81 0 136.5 -54.5t55.5 -134.5q0 -76 -55.5 -132t-136.5 -56zM1312 2560v-221h-962
v221h962z" />
    <glyph glyph-name="uni01E0" unicode="&#x1e0;" horiz-adv-x="2038" 
d="M465 0h-396l721 2048h458l722 -2048h-396l-547 1628h-16zM478 803h1080v-298h-1080v298zM1019 2273q-82 0 -140 55.5t-58 133.5t58 133.5t140 55.5t140.5 -55.5t58.5 -133.5t-58.5 -133.5t-140.5 -55.5zM1500 3072v-221h-962v221h962z" />
    <glyph glyph-name="uni01E1" unicode="&#x1e1;" horiz-adv-x="1618" 
d="M628 -31q-146 0 -262.5 52.5t-184 155.5t-67.5 254q0 130 48 215t131 136t187.5 77.5t216.5 38.5q135 14 219 25.5t122.5 36t38.5 76.5v6q0 113 -67 175t-193 62q-133 0 -210.5 -58t-104.5 -137l-338 48q40 140 132 234.5t225 142t294 47.5q111 0 221 -26t201 -85.5
t146.5 -161.5t55.5 -255v-1028h-348v211h-12q-33 -64 -92.5 -119.5t-149 -89t-209.5 -33.5zM722 235q109 0 189 43.5t123.5 115.5t43.5 157v181q-17 -14 -57.5 -26t-90.5 -21t-99 -16t-85 -12q-81 -11 -145 -36t-101 -69.5t-37 -114.5q0 -100 73 -151t186 -51zM1314 2553
v-221h-961v221h961zM834 1754q-82 0 -140 56t-58 133q0 79 58 134t140 55t140 -55t58 -134q0 -77 -58 -133t-140 -56z" />
    <glyph glyph-name="uni01E2" unicode="&#x1e2;" horiz-adv-x="2863" 
d="M69 0l915 2048h1702v-311h-961v-556h892v-311h-892v-559h969v-311h-1340v1690h-145l-732 -1690h-408zM527 505v298h1032v-298h-1032zM2317 2560v-221h-962v221h962z" />
    <glyph glyph-name="uni01E3" unicode="&#x1e3;" horiz-adv-x="2583" 
d="M1798 -30q-227 0 -390.5 103.5t-215.5 285.5l6 857q88 169 229.5 254.5t334.5 85.5q141 0 267.5 -45.5t224.5 -140.5t153.5 -241.5t55.5 -348.5v-111h-1238v244h891q-1 104 -45 185.5t-122.5 128.5t-182.5 47q-111 0 -195 -53.5t-130.5 -140.5t-46.5 -189v-213
q0 -134 49 -229.5t137 -146t206 -50.5q78 0 142.5 22.5t111 66.5t70.5 109l339 -38q-32 -134 -122 -233.5t-225 -154t-304 -54.5zM722 235q109 0 189 43.5t123.5 115.5t43.5 157v181q-17 -14 -57.5 -26t-90.5 -21t-99 -16t-85 -12q-81 -11 -145 -36t-101 -69.5t-37 -114.5
q0 -100 73 -151t186 -51zM644 -31q-154 0 -274 52.5t-188 155.5t-68 254q0 130 48.5 215t131.5 136.5t187.5 77.5t215.5 38q136 14 219.5 26t122 36.5t38.5 75.5v6q0 113 -67 175t-193 62q-132 0 -210 -58t-105 -137l-338 48q40 140 132 234.5t225.5 142t298.5 47.5
q68 0 140.5 -12.5t141 -43.5t123.5 -86t85 -141l-64 -1012h-25q-37 -86 -123.5 -152t-204 -103t-249.5 -37zM1748 2048v-221h-962v221h962z" />
    <glyph glyph-name="uni01E4" unicode="&#x1e4;" horiz-adv-x="2126" 
d="M2078 650v-170h-940v170h940zM1574 1394q-25 81 -68.5 145.5t-104 110.5t-138.5 69.5t-170 23.5q-165 0 -294 -83t-202.5 -243.5t-73.5 -390.5q0 -232 73 -393t203 -244.5t302 -83.5q156 0 270.5 60t176.5 170.5t62 259.5l84 -13h-556v290h831v-246q0 -263 -112 -455
t-308 -295.5t-450 -103.5q-283 0 -496.5 127.5t-333 363t-119.5 559.5q0 248 70.5 443t197.5 331.5t298 208t372 71.5q170 0 317 -49.5t261.5 -140.5t188.5 -216t97 -276h-378z" />
    <glyph glyph-name="uni01E5" unicode="&#x1e5;" horiz-adv-x="1761" 
d="M854 -608q-195 0 -335 52.5t-225 140.5t-118 195l326 79q22 -45 64 -89.5t113.5 -74t180.5 -29.5q154 0 255 74.5t101 244.5v291h-18q-28 -56 -81.5 -115t-141 -99t-219.5 -40q-177 0 -320.5 83.5t-228 250t-84.5 417.5q0 253 84.5 427.5t228.5 265t321 90.5
q135 0 222.5 -45.5t139.5 -109t79 -119.5h20v254h357v-1561q0 -197 -94 -326t-257 -193t-370 -64zM857 306q115 0 196 56t123 161t42 252q0 145 -41.5 254t-122 169.5t-197.5 60.5q-121 0 -202 -63t-122 -172.5t-41 -248.5q0 -141 41.5 -246.5t123 -164t200.5 -58.5z
M916 668v229h958v-229h-958z" />
    <glyph glyph-name="uni01E6" unicode="&#x1e6;" horiz-adv-x="2126" 
d="M1574 1394q-25 81 -68.5 145.5t-104 110.5t-138.5 69.5t-170 23.5q-165 0 -294 -83t-202.5 -243.5t-73.5 -390.5q0 -232 73 -393t203 -244.5t302 -83.5q156 0 270.5 60t176.5 170.5t62 259.5l84 -13h-556v290h831v-246q0 -263 -112 -455t-308 -295.5t-450 -103.5
q-283 0 -496.5 127.5t-333 363t-119.5 559.5q0 248 70.5 443t197.5 331.5t298 208t372 71.5q170 0 317 -49.5t261.5 -140.5t188.5 -216t97 -276h-378zM878 2678l203 -256l203 256h317v-14l-378 -432h-283l-379 432v14h317z" />
    <glyph glyph-name="uni01E7" unicode="&#x1e7;" horiz-adv-x="1761" 
d="M854 -608q-195 0 -335 52.5t-225 140.5t-118 195l326 79q22 -45 64 -89.5t113.5 -74t180.5 -29.5q154 0 255 74.5t101 244.5v291h-18q-28 -56 -81.5 -115t-141 -99t-219.5 -40q-177 0 -320.5 83.5t-228 250t-84.5 417.5q0 253 84.5 427.5t228.5 265t321 90.5
q135 0 222.5 -45.5t139.5 -109t79 -119.5h20v254h357v-1561q0 -197 -94 -326t-257 -193t-370 -64zM857 306q115 0 196 56t123 161t42 252q0 145 -41.5 254t-122 169.5t-197.5 60.5q-121 0 -202 -63t-122 -172.5t-41 -248.5q0 -141 41.5 -246.5t123 -164t200.5 -58.5z
M665 2166l203 -256l203 256h317v-14l-378 -432h-283l-379 432v14h317z" />
    <glyph glyph-name="uni01E8" unicode="&#x1e8;" horiz-adv-x="1906" 
d="M202 0v2048h371v-941h25l799 941h453l-792 -919l799 -1129h-446l-611 878l-227 -268v-610h-371zM752 2678l203 -256l203 256h317v-14l-378 -432h-283l-379 432v14h317z" />
    <glyph glyph-name="uni01E9" unicode="&#x1e9;" horiz-adv-x="1602" 
d="M516 482l-1 437h58l552 617h423l-679 -756h-75zM186 0v2048h362v-2048h-362zM1150 0l-500 699l244 255l689 -954h-433zM165 2678l203 -256l203 256h317v-14l-378 -432h-283l-379 432v14h317z" />
    <glyph glyph-name="uni01EA" unicode="&#x1ea;" horiz-adv-x="2182" 
d="M2032 1024q0 -331 -123.5 -566.5t-336 -360.5t-481.5 -125t-481.5 125.5t-336 361t-123.5 565.5q0 331 123.5 566.5t336 360.5t481.5 125t481.5 -125t336 -360.5t123.5 -566.5zM1659 1024q0 233 -72.5 393.5t-200.5 243t-295 82.5t-295 -82.5t-200.5 -243t-72.5 -393.5
t72.5 -393.5t200.5 -243t295 -82.5t295 82.5t200.5 243t72.5 393.5zM1130 -584q-130 0 -216.5 68t-101.5 196q-10 79 13.5 159t85.5 149t164 115l247 -105q-92 -51 -155.5 -109.5t-63.5 -136.5q0 -47 23.5 -73t75.5 -26q38 0 66.5 9.5t49.5 18.5l35 -205q-36 -21 -92 -40.5
t-131 -19.5z" />
    <glyph glyph-name="uni01EB" unicode="&#x1eb;" horiz-adv-x="1712" 
d="M856 -30q-225 0 -390 99t-255.5 277t-90.5 416t90.5 417t255.5 278t390 99t390 -99t255.5 -278t90.5 -417t-90.5 -416t-255.5 -277t-390 -99zM858 260q122 0 204 67.5t122.5 181.5t40.5 254q0 141 -40.5 255.5t-122.5 182.5t-204 68q-125 0 -207.5 -68t-123 -182.5
t-40.5 -255.5q0 -140 40.5 -254t123 -181.5t207.5 -67.5zM860 -582q-129 0 -215.5 68t-102.5 196q-10 78 14 158t85.5 149t164.5 116l247 -105q-93 -52 -156.5 -110t-62.5 -136q-1 -48 23 -74t76 -26q37 0 66 10t49 18l35 -204q-36 -21 -92 -40.5t-131 -19.5z" />
    <glyph glyph-name="uni01EC" unicode="&#x1ec;" horiz-adv-x="2182" 
d="M2032 1024q0 -331 -123.5 -566.5t-336 -360.5t-481.5 -125t-481.5 125.5t-336 361t-123.5 565.5q0 331 123.5 566.5t336 360.5t481.5 125t481.5 -125t336 -360.5t123.5 -566.5zM1659 1024q0 233 -72.5 393.5t-200.5 243t-295 82.5t-295 -82.5t-200.5 -243t-72.5 -393.5
t72.5 -393.5t200.5 -243t295 -82.5t295 82.5t200.5 243t72.5 393.5zM1130 -584q-130 0 -216.5 68t-101.5 196q-10 79 13.5 159t85.5 149t164 115l247 -105q-92 -51 -155.5 -109.5t-63.5 -136.5q0 -47 23.5 -73t75.5 -26q38 0 66.5 9.5t49.5 18.5l35 -205q-36 -21 -92 -40.5
t-131 -19.5zM1572 2560v-221h-962v221h962z" />
    <glyph glyph-name="uni01ED" unicode="&#x1ed;" horiz-adv-x="1712" 
d="M856 -30q-225 0 -390 99t-255.5 277t-90.5 416t90.5 417t255.5 278t390 99t390 -99t255.5 -278t90.5 -417t-90.5 -416t-255.5 -277t-390 -99zM858 260q122 0 204 67.5t122.5 181.5t40.5 254q0 141 -40.5 255.5t-122.5 182.5t-204 68q-125 0 -207.5 -68t-123 -182.5
t-40.5 -255.5q0 -140 40.5 -254t123 -181.5t207.5 -67.5zM860 -582q-129 0 -215.5 68t-102.5 196q-10 78 14 158t85.5 149t164.5 116l247 -105q-93 -52 -156.5 -110t-62.5 -136q-1 -48 23 -74t76 -26q37 0 66 10t49 18l35 -204q-36 -21 -92 -40.5t-131 -19.5zM1337 2048
v-221h-962v221h962z" />
    <glyph glyph-name="uni01EE" unicode="&#x1ee;" horiz-adv-x="1928" 
d="M112 128h375q8 -123 71.5 -217t166.5 -146.5t228 -52.5q147 0 253 72t163 197t57 283q0 178 -71 307.5t-196.5 200t-288.5 70.5h-198v278l609 595v16h-1055v317h1528v-268l-685 -670v-20q219 -14 385 -122t259 -287.5t93 -410.5q0 -190 -62 -350.5t-175.5 -278.5
t-270 -183t-344.5 -65q-234 0 -421.5 94t-299.5 260t-121 381zM762 2678l203 -256l203 256h317v-14l-378 -432h-283l-379 432v14h317z" />
    <glyph glyph-name="uni01EF" unicode="&#x1ef;" horiz-adv-x="1821" 
d="M150 45h375q7 -87 58 -148t134 -93.5t185 -32.5q108 0 193 37.5t133.5 108t48.5 171.5q0 93 -46.5 169.5t-141.5 122t-243 45.5h-203v267l474 520v14h-866v310h1334v-268l-550 -592v-16q152 -12 268.5 -64t195.5 -133t119 -182t40 -212q0 -180 -98.5 -317t-270 -214.5
t-390.5 -77.5q-210 0 -376.5 72t-265.5 203.5t-107 309.5zM706 2166l203 -256l203 256h317v-14l-378 -432h-283l-379 432v14h317z" />
    <glyph glyph-name="uni01F0" unicode="&#x1f0;" horiz-adv-x="734" 
d="M186 1536h362v-1624q0 -166 -63 -274t-182 -161t-289 -53q-20 0 -37 0.5t-37 1.5v295q15 -1 27 -1.5t25 -0.5q104 0 149 50.5t45 147.5v1619zM162 2166l203 -256l203 256h317v-14l-378 -432h-283l-379 432v14h317z" />
    <glyph glyph-name="uni01F1" unicode="&#x1f1;" horiz-adv-x="3878" 
d="M896 0h-694v2048h708q305 0 524.5 -122.5t337.5 -351.5t118 -548q0 -320 -118.5 -550t-341 -353t-534.5 -123zM573 321h305q214 0 357 78.5t215 235t72 391.5t-72 390.5t-212.5 233t-348.5 77.5h-316v-1406zM2204 0v231l1050 1506h-1056v311h1516v-231l-1049 -1506h1055
v-311h-1516z" />
    <glyph glyph-name="uni01F2" unicode="&#x1f2;" horiz-adv-x="3622" 
d="M896 0h-694v2048h708q305 0 524.5 -122.5t337.5 -351.5t118 -548q0 -320 -118.5 -550t-341 -353t-534.5 -123zM573 321h305q214 0 357 78.5t215 235t72 391.5t-72 390.5t-212.5 233t-348.5 77.5h-316v-1406zM2206 0v230l792 993v13h-766v300h1209v-247l-754 -976v-13h780
v-300h-1261z" />
    <glyph glyph-name="uni01F3" unicode="&#x1f3;" horiz-adv-x="3090" 
d="M756 -27q-181 0 -324 93t-226 270t-83 430q0 256 84.5 432.5t228.5 267t321 90.5q135 0 222 -45.5t138 -109t79 -119.5h15v766h363v-2048h-356v242h-22q-28 -56 -81 -118.5t-140 -106.5t-219 -44zM857 270q115 0 196 62.5t123 174.5t42 261t-41.5 259t-122 171t-197.5 61
q-121 0 -202 -63t-122 -174t-41 -254q0 -144 41.5 -256.5t123 -177t200.5 -64.5zM1675 0v230l792 993v13h-766v300h1209v-247l-754 -976v-13h780v-300h-1261z" />
    <glyph glyph-name="uni01F4" unicode="&#x1f4;" horiz-adv-x="2126" 
d="M1574 1394q-25 81 -68.5 145.5t-104 110.5t-138.5 69.5t-170 23.5q-165 0 -294 -83t-202.5 -243.5t-73.5 -390.5q0 -232 73 -393t203 -244.5t302 -83.5q156 0 270.5 60t176.5 170.5t62 259.5l84 -13h-556v290h831v-246q0 -263 -112 -455t-308 -295.5t-450 -103.5
q-283 0 -496.5 127.5t-333 363t-119.5 559.5q0 248 70.5 443t197.5 331.5t298 208t372 71.5q170 0 317 -49.5t261.5 -140.5t188.5 -216t97 -276h-378zM943 2250l224 457h354l-307 -457h-271z" />
    <glyph glyph-name="uni01F5" unicode="&#x1f5;" horiz-adv-x="1761" 
d="M854 -608q-195 0 -335 52.5t-225 140.5t-118 195l326 79q22 -45 64 -89.5t113.5 -74t180.5 -29.5q154 0 255 74.5t101 244.5v291h-18q-28 -56 -81.5 -115t-141 -99t-219.5 -40q-177 0 -320.5 83.5t-228 250t-84.5 417.5q0 253 84.5 427.5t228.5 265t321 90.5
q135 0 222.5 -45.5t139.5 -109t79 -119.5h20v254h357v-1561q0 -197 -94 -326t-257 -193t-370 -64zM857 306q115 0 196 56t123 161t42 252q0 145 -41.5 254t-122 169.5t-197.5 60.5q-121 0 -202 -63t-122 -172.5t-41 -248.5q0 -141 41.5 -246.5t123 -164t200.5 -58.5z
M729 1738l224 457h354l-307 -457h-271z" />
    <glyph glyph-name="uni01F6" unicode="&#x1f6;" horiz-adv-x="3154" 
d="M2249 -28q-220 0 -383.5 82t-253.5 239t-90 382v195h-949v-870h-371v2048h371v-867h949v867h372v-1373q0 -192 93.5 -288t261.5 -96q167 0 257.5 96t90.5 288v834h371v-834q0 -227 -89 -384t-251 -238t-379 -81z" />
    <glyph glyph-name="uni01F7" unicode="&#x1f7;" horiz-adv-x="1997" 
d="M594 2048v-2624h-385v2624h385zM414 -254v311q250 57 435.5 164t307.5 248.5t182.5 305.5t60.5 337v76q0 130 -23.5 236.5t-75 182.5t-136 117.5t-206.5 41.5q-141 0 -239 -51.5t-158 -141t-86 -206.5v551q76 71 195 114.5t285 43.5q247 0 435.5 -100t294 -298.5
t105.5 -493.5v-72q0 -248 -96.5 -467t-277.5 -398.5t-434.5 -307.5t-568.5 -193z" />
    <glyph glyph-name="uni01F8" unicode="&#x1f8;" horiz-adv-x="2086" 
d="M1885 2048v-2048h-330l-965 1395h-17v-1395h-371v2048h332l964 -1396h18v1396h369zM912 2250l-307 457h355l223 -457h-271z" />
    <glyph glyph-name="uni01F9" unicode="&#x1f9;" horiz-adv-x="1717" 
d="M548 900v-900h-362v1536h346v-261h18q53 129 169.5 205t288.5 76q159 0 277.5 -68t184 -197t64.5 -313v-978h-362v922q0 154 -79.5 241t-219.5 87q-95 0 -168.5 -41.5t-115 -119.5t-41.5 -189zM727 1738l-307 457h355l223 -457h-271z" />
    <glyph glyph-name="uni01FA" unicode="&#x1fa;" horiz-adv-x="2038" 
d="M465 0h-396l721 2048h458l722 -2048h-396l-547 1628h-16zM478 803h1080v-298h-1080v298zM896 2838l200 275h320l-274 -275h-246zM1020 2183q-126 0 -214 82.5t-88 199.5q0 78 40.5 142t109 102.5t152.5 38.5q125 0 213.5 -83t88.5 -200q0 -78 -41 -142t-109.5 -102
t-151.5 -38zM1020 2336q58 1 97.5 38.5t39.5 90.5q0 54 -39.5 92t-97.5 37q-58 0 -98 -37.5t-40 -91.5q0 -53 39.5 -91t98.5 -38z" />
    <glyph glyph-name="uni01FB" unicode="&#x1fb;" horiz-adv-x="1618" 
d="M628 -31q-146 0 -262.5 52.5t-184 155.5t-67.5 254q0 130 48 215t131 136t187.5 77.5t216.5 38.5q135 14 219 25.5t122.5 36t38.5 76.5v6q0 113 -67 175t-193 62q-133 0 -210.5 -58t-104.5 -137l-338 48q40 140 132 234.5t225 142t294 47.5q111 0 221 -26t201 -85.5
t146.5 -161.5t55.5 -255v-1028h-348v211h-12q-33 -64 -92.5 -119.5t-149 -89t-209.5 -33.5zM722 235q109 0 189 43.5t123.5 115.5t43.5 157v181q-17 -14 -57.5 -26t-90.5 -21t-99 -16t-85 -12q-81 -11 -145 -36t-101 -69.5t-37 -114.5q0 -100 73 -151t186 -51zM708 2326
l200 275h320l-274 -275h-246zM832 1671q-126 0 -214 82.5t-88 199.5q0 78 40.5 142t109 102.5t152.5 38.5q125 0 213.5 -83t88.5 -200q0 -78 -41 -142t-109.5 -102t-151.5 -38zM832 1824q58 1 97.5 38.5t39.5 90.5q0 54 -39.5 92t-97.5 37q-58 0 -98 -37.5t-40 -91.5
q0 -53 39.5 -91t98.5 -38z" />
    <glyph glyph-name="uni01FC" unicode="&#x1fc;" horiz-adv-x="2863" 
d="M69 0l915 2048h1702v-311h-961v-556h892v-311h-892v-559h969v-311h-1340v1690h-145l-732 -1690h-408zM527 505v298h1032v-298h-1032zM1697 2250l224 457h354l-307 -457h-271z" />
    <glyph glyph-name="uni01FD" unicode="&#x1fd;" horiz-adv-x="2583" 
d="M1798 -30q-227 0 -390.5 103.5t-215.5 285.5l6 857q88 169 229.5 254.5t334.5 85.5q141 0 267.5 -45.5t224.5 -140.5t153.5 -241.5t55.5 -348.5v-111h-1238v244h891q-1 104 -45 185.5t-122.5 128.5t-182.5 47q-111 0 -195 -53.5t-130.5 -140.5t-46.5 -189v-213
q0 -134 49 -229.5t137 -146t206 -50.5q78 0 142.5 22.5t111 66.5t70.5 109l339 -38q-32 -134 -122 -233.5t-225 -154t-304 -54.5zM722 235q109 0 189 43.5t123.5 115.5t43.5 157v181q-17 -14 -57.5 -26t-90.5 -21t-99 -16t-85 -12q-81 -11 -145 -36t-101 -69.5t-37 -114.5
q0 -100 73 -151t186 -51zM644 -31q-154 0 -274 52.5t-188 155.5t-68 254q0 130 48.5 215t131.5 136.5t187.5 77.5t215.5 38q136 14 219.5 26t122 36.5t38.5 75.5v6q0 113 -67 175t-193 62q-132 0 -210 -58t-105 -137l-338 48q40 140 132 234.5t225.5 142t298.5 47.5
q68 0 140.5 -12.5t141 -43.5t123.5 -86t85 -141l-64 -1012h-25q-37 -86 -123.5 -152t-204 -103t-249.5 -37zM1128 1738l224 457h354l-307 -457h-271z" />
    <glyph glyph-name="uni01FE" unicode="&#x1fe;" horiz-adv-x="2182" 
d="M453 -94l-181 124l1453 2108l181 -124zM2032 1024q0 -331 -123.5 -566.5t-336 -360.5t-481.5 -125t-481.5 125.5t-336 361t-123.5 565.5q0 331 123.5 566.5t336 360.5t481.5 125t481.5 -125t336 -360.5t123.5 -566.5zM1659 1024q0 233 -72.5 393.5t-200.5 243t-295 82.5
t-295 -82.5t-200.5 -243t-72.5 -393.5t72.5 -393.5t200.5 -243t295 -82.5t295 82.5t200.5 243t72.5 393.5zM952 2250l224 457h354l-307 -457h-271z" />
    <glyph glyph-name="uni01FF" unicode="&#x1ff;" horiz-adv-x="1712" 
d="M399 -94l-181 124l1093 1588l183 -124zM856 -32q-225 0 -390 99t-255.5 277.5t-90.5 415.5q0 238 90.5 417t255.5 278t390 99t390 -99t255.5 -278t90.5 -417q0 -237 -90.5 -415.5t-255.5 -277.5t-390 -99zM858 258q122 0 204 67.5t122.5 181.5t40.5 255
q0 140 -40.5 254.5t-122.5 182.5t-204 68q-125 0 -207.5 -68t-123 -182.5t-40.5 -254.5q0 -141 40.5 -255t123 -181.5t207.5 -67.5zM717 1736l224 457h354l-307 -457h-271z" />
    <glyph glyph-name="uni0200" unicode="&#x200;" horiz-adv-x="2038" 
d="M465 0h-396l721 2048h458l722 -2048h-396l-547 1628h-16zM478 803h1080v-298h-1080v298zM659 2250l-318 457h366l223 -457h-271zM1131 2250l-224 457h358l131 -457h-265z" />
    <glyph glyph-name="uni0201" unicode="&#x201;" horiz-adv-x="1618" 
d="M628 -31q-146 0 -262.5 52.5t-184 155.5t-67.5 254q0 130 48 215t131 136t187.5 77.5t216.5 38.5q135 14 219 25.5t122.5 36t38.5 76.5v6q0 113 -67 175t-193 62q-133 0 -210.5 -58t-104.5 -137l-338 48q40 140 132 234.5t225 142t294 47.5q111 0 221 -26t201 -85.5
t146.5 -161.5t55.5 -255v-1028h-348v211h-12q-33 -64 -92.5 -119.5t-149 -89t-209.5 -33.5zM722 235q109 0 189 43.5t123.5 115.5t43.5 157v181q-17 -14 -57.5 -26t-90.5 -21t-99 -16t-85 -12q-81 -11 -145 -36t-101 -69.5t-37 -114.5q0 -100 73 -151t186 -51zM471 1738
l-318 457h366l223 -457h-271zM943 1738l-224 457h358l131 -457h-265z" />
    <glyph glyph-name="uni0202" unicode="&#x202;" horiz-adv-x="2038" 
d="M465 0h-396l721 2048h458l722 -2048h-396l-547 1628h-16zM478 803h1080v-298h-1080v298zM549 2297q0 175 126 288t343 113q215 0 341 -113t127 -288h-271q-1 74 -46.5 130t-150.5 56q-109 0 -153.5 -57t-44.5 -129h-271z" />
    <glyph glyph-name="uni0203" unicode="&#x203;" horiz-adv-x="1618" 
d="M628 -31q-146 0 -262.5 52.5t-184 155.5t-67.5 254q0 130 48 215t131 136t187.5 77.5t216.5 38.5q135 14 219 25.5t122.5 36t38.5 76.5v6q0 113 -67 175t-193 62q-133 0 -210.5 -58t-104.5 -137l-338 48q40 140 132 234.5t225 142t294 47.5q111 0 221 -26t201 -85.5
t146.5 -161.5t55.5 -255v-1028h-348v211h-12q-33 -64 -92.5 -119.5t-149 -89t-209.5 -33.5zM722 235q109 0 189 43.5t123.5 115.5t43.5 157v181q-17 -14 -57.5 -26t-90.5 -21t-99 -16t-85 -12q-81 -11 -145 -36t-101 -69.5t-37 -114.5q0 -100 73 -151t186 -51zM361 1785
q0 175 126 288t343 113q215 0 341 -113t127 -288h-271q-1 74 -46.5 130t-150.5 56q-109 0 -153.5 -57t-44.5 -129h-271z" />
    <glyph glyph-name="uni0204" unicode="&#x204;" horiz-adv-x="1711" 
d="M202 0v2048h1332v-311h-961v-556h892v-311h-892v-559h969v-311h-1340zM509 2250l-318 457h366l223 -457h-271zM981 2250l-224 457h358l131 -457h-265z" />
    <glyph glyph-name="uni0205" unicode="&#x205;" horiz-adv-x="1669" 
d="M866 -30q-231 0 -398.5 96.5t-257.5 274t-90 418.5q0 237 90.5 416.5t253.5 280t383 100.5q142 0 268.5 -45.5t224 -140.5t153.5 -241.5t56 -348.5v-111h-1259v244h912q-1 104 -45 185.5t-122.5 128.5t-182.5 47q-111 0 -195 -53.5t-130.5 -140t-47.5 -189.5v-213
q0 -134 49 -229.5t137 -146t206 -50.5q79 0 143 22.5t111 66.5t71 109l338 -38q-32 -134 -121.5 -233.5t-228.5 -154t-318 -54.5zM477 1738l-318 457h366l223 -457h-271zM949 1738l-224 457h358l131 -457h-265z" />
    <glyph glyph-name="uni0206" unicode="&#x206;" horiz-adv-x="1711" 
d="M202 0v2048h1332v-311h-961v-556h892v-311h-892v-559h969v-311h-1340zM398 2297q0 175 126 288t343 113q215 0 341 -113t127 -288h-271q-1 74 -46.5 130t-150.5 56q-109 0 -153.5 -57t-44.5 -129h-271z" />
    <glyph glyph-name="uni0207" unicode="&#x207;" horiz-adv-x="1669" 
d="M866 -30q-231 0 -398.5 96.5t-257.5 274t-90 418.5q0 237 90.5 416.5t253.5 280t383 100.5q142 0 268.5 -45.5t224 -140.5t153.5 -241.5t56 -348.5v-111h-1259v244h912q-1 104 -45 185.5t-122.5 128.5t-182.5 47q-111 0 -195 -53.5t-130.5 -140t-47.5 -189.5v-213
q0 -134 49 -229.5t137 -146t206 -50.5q79 0 143 22.5t111 66.5t71 109l338 -38q-32 -134 -121.5 -233.5t-228.5 -154t-318 -54.5zM366 1785q0 175 126 288t343 113q215 0 341 -113t127 -288h-271q-1 74 -46.5 130t-150.5 56q-109 0 -153.5 -57t-44.5 -129h-271z" />
    <glyph glyph-name="uni0208" unicode="&#x208;" horiz-adv-x="774" 
d="M573 2048v-2048h-371v2048h371zM28 2250l-318 457h366l223 -457h-271zM500 2250l-224 457h358l131 -457h-265z" />
    <glyph glyph-name="uni0209" unicode="&#x209;" horiz-adv-x="734" 
d="M186 0v1536h362v-1536h-362zM8 1738l-318 457h366l223 -457h-271zM480 1738l-224 457h358l131 -457h-265z" />
    <glyph glyph-name="uni020A" unicode="&#x20a;" horiz-adv-x="774" 
d="M573 2048v-2048h-371v2048h371zM-82 2297q0 175 126 288t343 113q215 0 341 -113t127 -288h-271q-1 74 -46.5 130t-150.5 56q-109 0 -153.5 -57t-44.5 -129h-271z" />
    <glyph glyph-name="uni020B" unicode="&#x20b;" horiz-adv-x="734" 
d="M186 0v1536h362v-1536h-362zM-102 1785q0 175 126 288t343 113q215 0 341 -113t127 -288h-271q-1 74 -46.5 130t-150.5 56q-109 0 -153.5 -57t-44.5 -129h-271z" />
    <glyph glyph-name="uni020C" unicode="&#x20c;" horiz-adv-x="2182" 
d="M2032 1024q0 -331 -123.5 -566.5t-336 -360.5t-481.5 -125t-481.5 125.5t-336 361t-123.5 565.5q0 331 123.5 566.5t336 360.5t481.5 125t481.5 -125t336 -360.5t123.5 -566.5zM1659 1024q0 233 -72.5 393.5t-200.5 243t-295 82.5t-295 -82.5t-200.5 -243t-72.5 -393.5
t72.5 -393.5t200.5 -243t295 -82.5t295 82.5t200.5 243t72.5 393.5zM731 2250l-318 457h366l223 -457h-271zM1203 2250l-224 457h358l131 -457h-265z" />
    <glyph glyph-name="uni020D" unicode="&#x20d;" horiz-adv-x="1712" 
d="M856 -30q-225 0 -390 99t-255.5 277t-90.5 416t90.5 417t255.5 278t390 99t390 -99t255.5 -278t90.5 -417t-90.5 -416t-255.5 -277t-390 -99zM858 260q122 0 204 67.5t122.5 181.5t40.5 254q0 141 -40.5 255.5t-122.5 182.5t-204 68q-125 0 -207.5 -68t-123 -182.5
t-40.5 -255.5q0 -140 40.5 -254t123 -181.5t207.5 -67.5zM496 1738l-318 457h366l223 -457h-271zM968 1738l-224 457h358l131 -457h-265z" />
    <glyph glyph-name="uni020E" unicode="&#x20e;" horiz-adv-x="2182" 
d="M2032 1024q0 -331 -123.5 -566.5t-336 -360.5t-481.5 -125t-481.5 125.5t-336 361t-123.5 565.5q0 331 123.5 566.5t336 360.5t481.5 125t481.5 -125t336 -360.5t123.5 -566.5zM1659 1024q0 233 -72.5 393.5t-200.5 243t-295 82.5t-295 -82.5t-200.5 -243t-72.5 -393.5
t72.5 -393.5t200.5 -243t295 -82.5t295 82.5t200.5 243t72.5 393.5zM621 2297q0 175 126 288t343 113q215 0 341 -113t127 -288h-271q-1 74 -46.5 130t-150.5 56q-109 0 -153.5 -57t-44.5 -129h-271z" />
    <glyph glyph-name="uni020F" unicode="&#x20f;" horiz-adv-x="1712" 
d="M856 -30q-225 0 -390 99t-255.5 277t-90.5 416t90.5 417t255.5 278t390 99t390 -99t255.5 -278t90.5 -417t-90.5 -416t-255.5 -277t-390 -99zM858 260q122 0 204 67.5t122.5 181.5t40.5 254q0 141 -40.5 255.5t-122.5 182.5t-204 68q-125 0 -207.5 -68t-123 -182.5
t-40.5 -255.5q0 -140 40.5 -254t123 -181.5t207.5 -67.5zM386 1785q0 175 126 288t343 113q215 0 341 -113t127 -288h-271q-1 74 -46.5 130t-150.5 56q-109 0 -153.5 -57t-44.5 -129h-271z" />
    <glyph glyph-name="uni0210" unicode="&#x210;" horiz-adv-x="1832" 
d="M202 0v2048h768q236 0 396.5 -82t243 -229.5t82.5 -343.5q0 -197 -83.5 -341.5t-245.5 -223t-398 -78.5h-547v308h497q138 0 226 38.5t130.5 113t42.5 183.5t-43 186.5t-131 118t-227 40.5h-340v-1738h-371zM1260 928l507 -928h-414l-498 928h405zM544 2250l-318 457h366
l223 -457h-271zM1016 2250l-224 457h358l131 -457h-265z" />
    <glyph glyph-name="uni0211" unicode="&#x211;" horiz-adv-x="1117" 
d="M186 0v1536h351v-256h16q42 133 144.5 205.5t234.5 72.5q30 0 67.5 -2.5t62.5 -7.5v-333q-23 8 -72.5 14.5t-95.5 6.5q-99 0 -177.5 -42.5t-123.5 -117.5t-45 -173v-903h-362zM254 1738l-318 457h366l223 -457h-271zM726 1738l-224 457h358l131 -457h-265z" />
    <glyph glyph-name="uni0212" unicode="&#x212;" horiz-adv-x="1832" 
d="M202 0v2048h768q236 0 396.5 -82t243 -229.5t82.5 -343.5q0 -197 -83.5 -341.5t-245.5 -223t-398 -78.5h-547v308h497q138 0 226 38.5t130.5 113t42.5 183.5t-43 186.5t-131 118t-227 40.5h-340v-1738h-371zM1260 928l507 -928h-414l-498 928h405zM434 2297
q0 175 126 288t343 113q215 0 341 -113t127 -288h-271q-1 74 -46.5 130t-150.5 56q-109 0 -153.5 -57t-44.5 -129h-271z" />
    <glyph glyph-name="uni0213" unicode="&#x213;" horiz-adv-x="1117" 
d="M186 0v1536h351v-256h16q42 133 144.5 205.5t234.5 72.5q30 0 67.5 -2.5t62.5 -7.5v-333q-23 8 -72.5 14.5t-95.5 6.5q-99 0 -177.5 -42.5t-123.5 -117.5t-45 -173v-903h-362zM143 1785q0 175 126 288t343 113q215 0 341 -113t127 -288h-271q-1 74 -46.5 130t-150.5 56
q-109 0 -153.5 -57t-44.5 -129h-271z" />
    <glyph glyph-name="uni0214" unicode="&#x214;" horiz-adv-x="2066" 
d="M1493 2048h371v-1338q0 -220 -103.5 -387t-290.5 -260.5t-437 -93.5q-251 0 -438 93.5t-290 260.5t-103 387v1338h371v-1307q0 -128 56.5 -228t159.5 -156.5t244 -56.5t244.5 56.5t159.5 156.5t56 228v1307zM673 2250l-318 457h366l223 -457h-271zM1145 2250l-224 457
h358l131 -457h-265z" />
    <glyph glyph-name="uni0215" unicode="&#x215;" horiz-adv-x="1713" 
d="M1165 646v890h362v-1536h-351v273h-16q-52 -129 -170.5 -211t-291.5 -82q-151 0 -266.5 67.5t-180.5 197t-65 313.5v978h362v-922q0 -146 80 -232t210 -86q80 0 155 39t123.5 116.5t48.5 194.5zM498 1738l-318 457h366l223 -457h-271zM970 1738l-224 457h358l131 -457
h-265z" />
    <glyph glyph-name="uni0216" unicode="&#x216;" horiz-adv-x="2066" 
d="M1493 2048h371v-1338q0 -220 -103.5 -387t-290.5 -260.5t-437 -93.5q-251 0 -438 93.5t-290 260.5t-103 387v1338h371v-1307q0 -128 56.5 -228t159.5 -156.5t244 -56.5t244.5 56.5t159.5 156.5t56 228v1307zM562 2297q0 175 126 288t343 113q215 0 341 -113t127 -288
h-271q-1 74 -46.5 130t-150.5 56q-109 0 -153.5 -57t-44.5 -129h-271z" />
    <glyph glyph-name="uni0217" unicode="&#x217;" horiz-adv-x="1713" 
d="M1165 646v890h362v-1536h-351v273h-16q-52 -129 -170.5 -211t-291.5 -82q-151 0 -266.5 67.5t-180.5 197t-65 313.5v978h362v-922q0 -146 80 -232t210 -86q80 0 155 39t123.5 116.5t48.5 194.5zM388 1785q0 175 126 288t343 113q215 0 341 -113t127 -288h-271
q-1 74 -46.5 130t-150.5 56q-109 0 -153.5 -57t-44.5 -129h-271z" />
    <glyph glyph-name="uni0218" unicode="&#x218;" horiz-adv-x="1828" 
d="M1315 1485q-14 131 -117.5 204t-268.5 73q-116 0 -199 -35t-127 -95t-45 -137q0 -64 29.5 -111t80.5 -79.5t113 -54.5t125 -37l192 -48q116 -27 223.5 -73t193 -116t135.5 -169t50 -232q0 -180 -92 -316.5t-265.5 -213t-419.5 -76.5q-239 0 -414.5 74t-274 216
t-106.5 346h365q8 -107 66 -178t151.5 -106t209.5 -35q121 0 212.5 36.5t143.5 102t53 153.5q-1 80 -47 132.5t-128.5 88t-192.5 63.5l-233 60q-253 65 -399.5 197.5t-146.5 352.5q0 181 98.5 317t268.5 211.5t385 75.5q218 0 382.5 -75.5t258.5 -209t97 -306.5h-357z
M629 -686l120 502h344l-203 -502h-261z" />
    <glyph glyph-name="uni0219" unicode="&#x219;" horiz-adv-x="1546" 
d="M1400 1130l-330 -36q-14 50 -48.5 94t-92.5 71t-142 27q-113 0 -189.5 -49t-75.5 -127q-1 -67 49.5 -109t167.5 -69l262 -56q218 -47 324.5 -149t107.5 -267q-1 -145 -84.5 -255.5t-231.5 -172.5t-340 -62q-282 0 -454 118.5t-205 330.5l353 34q24 -104 102 -157t203 -53
q129 0 207.5 53t78.5 131q0 66 -50.5 109t-156.5 66l-262 55q-221 46 -327 155.5t-105 277.5q-1 142 77.5 246.5t219 162t324.5 57.5q270 0 425.5 -115t192.5 -311zM494 -664l120 502h344l-203 -502h-261z" />
    <glyph glyph-name="uni021A" unicode="&#x21a;" horiz-adv-x="1858" 
d="M112 1737v311h1634v-311h-633v-1737h-368v1737h-633zM638 -664l120 502h344l-203 -502h-261z" />
    <glyph glyph-name="uni021B" unicode="&#x21b;" horiz-adv-x="1070" 
d="M953 1536v-280h-883v280h883zM288 1904h362v-1442q0 -73 22.5 -111.5t59.5 -52.5t82 -14q34 0 62.5 5t43.5 9l61 -283q-29 -10 -82.5 -22t-130.5 -14q-136 -4 -245 41.5t-172.5 141.5t-62.5 240v1502zM308 -664l120 502h344l-203 -502h-261z" />
    <glyph glyph-name="uni021C" unicode="&#x21c;" horiz-adv-x="1850" 
d="M318 446v287q252 74 430.5 146.5t292.5 153.5t167.5 178t53.5 221q0 166 -89 250t-261 84q-107 0 -186 -32t-121.5 -89.5t-42.5 -134.5h-385q0 170 94.5 297.5t260.5 198t380 70.5q219 0 384 -67t257 -200t92 -331q0 -185 -87 -342t-256 -285t-416 -229t-568 -176z
M1057 812l105 220q156 -18 271.5 -87.5t178.5 -189.5t63 -289q0 -232 -99 -410t-280.5 -307.5t-429.5 -215.5t-548 -133v306q229 45 409 110.5t305 158t190.5 218.5t65.5 289q0 158 -51.5 235t-179.5 95z" />
    <glyph glyph-name="uni021D" unicode="&#x21d;" horiz-adv-x="1589" 
d="M326 238v270q236 68 389 148.5t227 179t74 216.5q0 110 -56.5 166t-168.5 56q-76 0 -131 -26t-85 -73t-29 -113h-372q0 153 75.5 263.5t216.5 170.5t334 60q280 0 434 -124.5t154 -350.5q0 -190 -122.5 -351.5t-359 -285.5t-580.5 -206zM856 573l109 162
q220 -28 335.5 -150.5t115.5 -330.5q0 -330 -273.5 -544t-816.5 -310v278q263 78 420 162t226.5 190t69.5 245q0 125 -51 204t-135 94z" />
    <glyph glyph-name="uni021E" unicode="&#x21e;" horiz-adv-x="2095" 
d="M202 0v2048h371v-867h949v867h372v-2048h-372v870h-949v-870h-371zM850 2680l203 -256l203 256h317v-14l-378 -432h-283l-379 432v14h317z" />
    <glyph glyph-name="uni021F" unicode="&#x21f;" horiz-adv-x="1726" 
d="M548 900v-900h-362v2048h354v-773h18q54 130 167.5 205.5t289.5 75.5q160 0 279 -67t184.5 -196t65.5 -315v-978h-362v922q0 155 -79.5 241.5t-222.5 86.5q-96 0 -171.5 -41.5t-118 -119.5t-42.5 -189zM162 2678l203 -256l203 256h317v-14l-378 -432h-283l-379 432v14
h317z" />
    <glyph glyph-name="uni0220" unicode="&#x220;" horiz-adv-x="1853" 
d="M1675 -572h-375v2010q0 118 -43.5 192.5t-127 110t-203.5 35.5q-161 0 -306.5 -73t-267.5 -207v329q78 76 175 132.5t209.5 87.5t236.5 31q191 0 350.5 -74t255.5 -216.5t96 -347.5v-2010zM553 2048v-2048h-371v2048h371z" />
    <glyph glyph-name="uni0221" unicode="&#x221;" horiz-adv-x="2022" 
d="M1210 341h364v-507q0 -87 47.5 -129.5t111.5 -42.5q61 0 100 36t39 92q0 54 -36 92t-108 41q-66 6 -137 -29.5t-148 -96.5l-400 -348l-174 221l363 317q110 86 233.5 131t258.5 45q219 0 346.5 -105t127.5 -275q0 -109 -54.5 -189.5t-159.5 -125t-258 -44.5
q-191 0 -304 67.5t-162.5 177.5t-49.5 238v434zM759 -27q-181 0 -324 93t-226 270t-83 430q0 256 84.5 432.5t228.5 267t321 90.5q136 0 222.5 -45.5t138 -109t78.5 -119.5h15v766h363v-2048h-356v242h-22q-28 -56 -80.5 -118.5t-140 -106.5t-219.5 -44zM860 270
q116 0 196.5 62.5t123 174.5t42.5 261t-42 259t-122.5 171t-197.5 61q-120 0 -201.5 -63t-122.5 -174t-41 -254q0 -144 42 -256.5t123 -177t200 -64.5z" />
    <glyph glyph-name="uni0222" unicode="&#x222;" horiz-adv-x="1851" 
d="M912 1252h30q230 0 404 -72t272.5 -211t98.5 -342q0 -211 -100 -357.5t-274.5 -222t-400.5 -75.5h-30q-226 0 -401.5 75.5t-276 221t-100.5 354.5q0 205 98.5 345t274 212t405.5 72zM942 974h-30q-177 0 -282.5 -89t-105.5 -262q0 -171 106 -256t282 -85h30
q176 0 280.5 84.5t104.5 260.5q0 171 -104.5 259t-280.5 88zM903 1288h45q112 0 198.5 18.5t135.5 73t48 164.5q0 102 -48.5 157t-148.5 79v296q174 -3 306 -64t206.5 -178.5t74.5 -289.5q0 -194 -100.5 -311t-275 -169.5t-396.5 -52.5h-45q-166 0 -306.5 28.5t-244 91.5
t-161 165t-57.5 248q0 172 74.5 289.5t206.5 178.5t305 64v-296q-100 -24 -148 -79t-48 -157q0 -110 49 -165t134.5 -73t195.5 -18z" />
    <glyph glyph-name="uni0223" unicode="&#x223;" horiz-adv-x="1850" 
d="M910 1235h31q219 0 392.5 -65.5t274 -201.5t100.5 -347q0 -215 -100 -359.5t-273.5 -217t-393.5 -72.5h-31q-221 0 -394.5 72.5t-273.5 216.5t-100 357q0 212 100 349t273.5 202.5t394.5 65.5zM941 966h-31q-182 0 -288.5 -90.5t-106.5 -257.5q0 -166 106.5 -257
t288.5 -91h31q183 0 288 91t105 260q0 165 -105 255t-288 90zM946 1263q116 0 204 28t138 94.5t50 181.5q0 124 -56.5 190t-150.5 101v282q166 -3 296.5 -68t205.5 -190.5t75 -309.5q0 -212 -102 -337.5t-274.5 -181t-385.5 -55.5h-43q-211 0 -384 55.5t-275 181t-102 337.5
q0 183 74.5 308.5t205 191t296.5 68.5v-282q-94 -35 -148.5 -101t-54.5 -190q0 -116 50 -182.5t137.5 -94t200.5 -27.5h43z" />
    <glyph glyph-name="uni0224" unicode="&#x224;" horiz-adv-x="1838" 
d="M158 1737v311h1516v-231l-1056 -1506h577q244 0 377.5 -131t133.5 -354v-162h-312v95q0 63 -16.5 118t-59.5 89t-123 34h-1031v231l1056 1506h-1062z" />
    <glyph glyph-name="uni0225" unicode="&#x225;" horiz-adv-x="1573" 
d="M1165 -355v93q0 64 -15.5 124t-59.5 99t-129 39h-793v234l778 1004h-770v298h1222v-228l-775 -1010h338q245 0 377.5 -133.5t132.5 -353.5v-166h-306z" />
    <glyph glyph-name="uni0226" unicode="&#x226;" horiz-adv-x="2038" 
d="M465 0h-396l721 2048h458l722 -2048h-396l-547 1628h-16zM478 803h1080v-298h-1080v298zM1020 2266q-87 0 -148.5 57.5t-61.5 138.5q0 82 62 139.5t148 57.5t147.5 -57.5t61.5 -139.5q0 -81 -61.5 -138.5t-147.5 -57.5z" />
    <glyph glyph-name="uni0227" unicode="&#x227;" horiz-adv-x="1618" 
d="M628 -31q-146 0 -262.5 52.5t-184 155.5t-67.5 254q0 130 48 215t131 136t187.5 77.5t216.5 38.5q135 14 219 25.5t122.5 36t38.5 76.5v6q0 113 -67 175t-193 62q-133 0 -210.5 -58t-104.5 -137l-338 48q40 140 132 234.5t225 142t294 47.5q111 0 221 -26t201 -85.5
t146.5 -161.5t55.5 -255v-1028h-348v211h-12q-33 -64 -92.5 -119.5t-149 -89t-209.5 -33.5zM722 235q109 0 189 43.5t123.5 115.5t43.5 157v181q-17 -14 -57.5 -26t-90.5 -21t-99 -16t-85 -12q-81 -11 -145 -36t-101 -69.5t-37 -114.5q0 -100 73 -151t186 -51zM832 1754
q-87 0 -148.5 57.5t-61.5 138.5q0 82 62 139.5t148 57.5t147.5 -57.5t61.5 -139.5q0 -81 -61.5 -138.5t-147.5 -57.5z" />
    <glyph glyph-name="uni0228" unicode="&#x228;" horiz-adv-x="1711" 
d="M202 0v2048h1332v-311h-961v-556h892v-311h-892v-559h969v-311h-1340zM760 8h196l-16 -85q94 -14 159.5 -72.5t65.5 -168.5q1 -142 -127 -228t-365 -86l-4 178q115 0 183 30.5t69 96.5q2 64 -47.5 93.5t-156.5 40.5z" />
    <glyph glyph-name="uni0229" unicode="&#x229;" horiz-adv-x="1669" 
d="M866 -30q-231 0 -398.5 96.5t-257.5 274t-90 418.5q0 237 90.5 416.5t253.5 280t383 100.5q142 0 268.5 -45.5t224 -140.5t153.5 -241.5t56 -348.5v-111h-1259v244h912q-1 104 -45 185.5t-122.5 128.5t-182.5 47q-111 0 -195 -53.5t-130.5 -140t-47.5 -189.5v-213
q0 -134 49 -229.5t137 -146t206 -50.5q79 0 143 22.5t111 66.5t71 109l338 -38q-32 -134 -121.5 -233.5t-228.5 -154t-318 -54.5zM742 8h196l-16 -85q94 -14 159.5 -72.5t65.5 -168.5q1 -142 -127 -228t-365 -86l-4 178q115 0 183 30.5t69 96.5q2 64 -47.5 93.5t-156.5 40.5
z" />
    <glyph glyph-name="uni022A" unicode="&#x22a;" horiz-adv-x="2182" 
d="M2032 1024q0 -331 -123.5 -566.5t-336 -360.5t-481.5 -125t-481.5 125.5t-336 361t-123.5 565.5q0 331 123.5 566.5t336 360.5t481.5 125t481.5 -125t336 -360.5t123.5 -566.5zM1659 1024q0 233 -72.5 393.5t-200.5 243t-295 82.5t-295 -82.5t-200.5 -243t-72.5 -393.5
t72.5 -393.5t200.5 -243t295 -82.5t295 82.5t200.5 243t72.5 393.5zM792 2274q-79 0 -136.5 56t-57.5 132q0 80 57.5 134.5t136.5 54.5q81 0 136.5 -54.5t55.5 -134.5q0 -76 -55.5 -132t-136.5 -56zM1392 2274q-79 0 -136.5 56t-57.5 132q0 80 57.5 134.5t136.5 54.5
q81 0 136.5 -54.5t55.5 -134.5q0 -76 -55.5 -132t-136.5 -56zM1572 3072v-221h-962v221h962z" />
    <glyph glyph-name="uni022B" unicode="&#x22b;" horiz-adv-x="1712" 
d="M856 -30q-225 0 -390 99t-255.5 277t-90.5 416t90.5 417t255.5 278t390 99t390 -99t255.5 -278t90.5 -417t-90.5 -416t-255.5 -277t-390 -99zM858 260q122 0 204 67.5t122.5 181.5t40.5 254q0 141 -40.5 255.5t-122.5 182.5t-204 68q-125 0 -207.5 -68t-123 -182.5
t-40.5 -255.5q0 -140 40.5 -254t123 -181.5t207.5 -67.5zM557 1762q-79 0 -136.5 56t-57.5 132q0 80 57.5 134.5t136.5 54.5q81 0 136.5 -54.5t55.5 -134.5q0 -76 -55.5 -132t-136.5 -56zM1157 1762q-79 0 -136.5 56t-57.5 132q0 80 57.5 134.5t136.5 54.5q81 0 136.5 -54.5
t55.5 -134.5q0 -76 -55.5 -132t-136.5 -56zM1337 2560v-221h-962v221h962z" />
    <glyph glyph-name="uni022C" unicode="&#x22c;" horiz-adv-x="2182" 
d="M2032 1024q0 -331 -123.5 -566.5t-336 -360.5t-481.5 -125t-481.5 125.5t-336 361t-123.5 565.5q0 331 123.5 566.5t336 360.5t481.5 125t481.5 -125t336 -360.5t123.5 -566.5zM1659 1024q0 233 -72.5 393.5t-200.5 243t-295 82.5t-295 -82.5t-200.5 -243t-72.5 -393.5
t72.5 -393.5t200.5 -243t295 -82.5t295 82.5t200.5 243t72.5 393.5zM1340 2561l157 -43q0 -100 -66 -175.5t-167 -75.5q-75 0 -124.5 24t-94 48t-105.5 24q-40 0 -68.5 -36.5t-27.5 -84.5l-156 44q0 97 64 174.5t164 77.5q62 0 113.5 -23t102 -46.5t108.5 -23.5
q39 0 69.5 33t30.5 83zM1574 2922v-226h-966v226h966z" />
    <glyph glyph-name="uni022D" unicode="&#x22d;" horiz-adv-x="1712" 
d="M856 -30q-225 0 -390 99t-255.5 277t-90.5 416t90.5 417t255.5 278t390 99t390 -99t255.5 -278t90.5 -417t-90.5 -416t-255.5 -277t-390 -99zM858 260q122 0 204 67.5t122.5 181.5t40.5 254q0 141 -40.5 255.5t-122.5 182.5t-204 68q-125 0 -207.5 -68t-123 -182.5
t-40.5 -255.5q0 -140 40.5 -254t123 -181.5t207.5 -67.5zM1155 2120l224 -15q1 -102 -41 -183.5t-114 -129t-163 -47.5q-68 0 -115.5 18.5t-87 42t-81.5 42t-98 18.5q-49 0 -85 -37.5t-36 -98.5l-222 11q1 98 42 180.5t112 132.5t161 50q56 0 102.5 -18.5t90 -42t88.5 -41.5
t99 -18q51 0 88 36.5t36 99.5zM1344 2502v-225h-965v225h965z" />
    <glyph glyph-name="uni022E" unicode="&#x22e;" horiz-adv-x="2182" 
d="M2032 1024q0 -331 -123.5 -566.5t-336 -360.5t-481.5 -125t-481.5 125.5t-336 361t-123.5 565.5q0 331 123.5 566.5t336 360.5t481.5 125t481.5 -125t336 -360.5t123.5 -566.5zM1659 1024q0 233 -72.5 393.5t-200.5 243t-295 82.5t-295 -82.5t-200.5 -243t-72.5 -393.5
t72.5 -393.5t200.5 -243t295 -82.5t295 82.5t200.5 243t72.5 393.5zM1092 2266q-87 0 -148.5 57.5t-61.5 138.5q0 82 62 139.5t148 57.5t147.5 -57.5t61.5 -139.5q0 -81 -61.5 -138.5t-147.5 -57.5z" />
    <glyph glyph-name="uni022F" unicode="&#x22f;" horiz-adv-x="1712" 
d="M856 -30q-225 0 -390 99t-255.5 277t-90.5 416t90.5 417t255.5 278t390 99t390 -99t255.5 -278t90.5 -417t-90.5 -416t-255.5 -277t-390 -99zM858 260q122 0 204 67.5t122.5 181.5t40.5 254q0 141 -40.5 255.5t-122.5 182.5t-204 68q-125 0 -207.5 -68t-123 -182.5
t-40.5 -255.5q0 -140 40.5 -254t123 -181.5t207.5 -67.5zM856 1754q-87 0 -148.5 57.5t-61.5 138.5q0 82 62 139.5t148 57.5t147.5 -57.5t61.5 -139.5q0 -81 -61.5 -138.5t-147.5 -57.5z" />
    <glyph glyph-name="uni0230" unicode="&#x230;" horiz-adv-x="2182" 
d="M2032 1024q0 -331 -123.5 -566.5t-336 -360.5t-481.5 -125t-481.5 125.5t-336 361t-123.5 565.5q0 331 123.5 566.5t336 360.5t481.5 125t481.5 -125t336 -360.5t123.5 -566.5zM1659 1024q0 233 -72.5 393.5t-200.5 243t-295 82.5t-295 -82.5t-200.5 -243t-72.5 -393.5
t72.5 -393.5t200.5 -243t295 -82.5t295 82.5t200.5 243t72.5 393.5zM1091 2273q-82 0 -140 55.5t-58 133.5t58 133.5t140 55.5t140.5 -55.5t58.5 -133.5t-58.5 -133.5t-140.5 -55.5zM1572 3072v-221h-962v221h962z" />
    <glyph glyph-name="uni0231" unicode="&#x231;" horiz-adv-x="1712" 
d="M856 -30q-225 0 -390 99t-255.5 277t-90.5 416t90.5 417t255.5 278t390 99t390 -99t255.5 -278t90.5 -417t-90.5 -416t-255.5 -277t-390 -99zM858 260q122 0 204 67.5t122.5 181.5t40.5 254q0 141 -40.5 255.5t-122.5 182.5t-204 68q-125 0 -207.5 -68t-123 -182.5
t-40.5 -255.5q0 -140 40.5 -254t123 -181.5t207.5 -67.5zM1339 2553v-221h-961v221h961zM859 1754q-82 0 -140 56t-58 133q0 79 58 134t140 55t140 -55t58 -134q0 -77 -58 -133t-140 -56z" />
    <glyph glyph-name="uni0232" unicode="&#x232;" horiz-adv-x="1984" 
d="M62 2048h419l501 -906h20l501 906h419l-745 -1284v-764h-370v764zM1473 2560v-221h-962v221h962z" />
    <glyph glyph-name="uni0233" unicode="&#x233;" horiz-adv-x="1622" 
d="M411 -576q-74 0 -136.5 11.5t-99.5 26.5l84 282q79 -23 141 -22t109.5 38.5t80.5 124.5l31 83l-557 1568h384l354 -1160h16l355 1160h385l-615 -1722q-43 -122 -114 -209.5t-173.5 -134t-244.5 -46.5zM1291 2048v-221h-962v221h962z" />
    <glyph glyph-name="uni0234" unicode="&#x234;" horiz-adv-x="1113" 
d="M170 371h362v-524q0 -70 42 -115.5t114 -45.5q54 0 88.5 38t34.5 91q0 48 -36.5 84t-98.5 36q-108 0 -197 -55t-196 -144l-280 -255l-190 212l253 232q71 56 153 106t167.5 88.5t169.5 60.5t158 22q120 0 211.5 -50.5t143 -137t52.5 -192.5q-1 -107 -54 -197.5
t-150.5 -145.5t-231.5 -55q-106 0 -199.5 36t-164.5 103.5t-111.5 163t-39.5 212.5v432zM532 2048v-2048h-362v2048h362z" />
    <glyph glyph-name="uni0235" unicode="&#x235;" horiz-adv-x="2222" 
d="M1172 140h362v-123q0 -61 44 -102t106 -41q59 0 94.5 38.5t35.5 99.5q0 63 -41 97.5t-104 35.5q-40 0 -89 -11.5t-101.5 -35.5t-103 -60.5t-94.5 -85.5l-250 -273l-192 179l253 270q76 87 151 139.5t150 79.5t151 36t155 9q121 0 217 -50t151.5 -138.5t55.5 -205.5
q1 -117 -56.5 -206.5t-163 -140.5t-251.5 -51q-110 0 -198.5 32t-151.5 92t-96.5 143.5t-33.5 185.5v87zM548 900v-900h-362v1536h346v-261h18q53 129 169.5 205t288.5 76q159 0 277.5 -68t184 -197t64.5 -313v-978h-362v922q0 154 -79.5 241t-219.5 87q-95 0 -168.5 -41.5
t-115 -119.5t-41.5 -189z" />
    <glyph glyph-name="uni0236" unicode="&#x236;" horiz-adv-x="1449" 
d="M394 1904h362v-1532q0 -60 43.5 -101t109.5 -41q54 0 92.5 33t38.5 96q0 50 -32 85t-108 35q-45 0 -109 -26t-145.5 -81.5t-181 -144t-218.5 -213.5l-176 208q173 183 322 298.5t283.5 170.5t262.5 55q195 0 303.5 -107t108.5 -266q0 -77 -26.5 -149.5t-82.5 -130
t-143 -91.5t-208 -34q-107 0 -197 31t-157.5 92.5t-104.5 152t-37 207.5v1453zM1058 1536v-280h-882v280h882z" />
    <glyph glyph-name="uni0237" unicode="&#x237;" horiz-adv-x="734" 
d="M186 1536h362v-1624q0 -166 -63 -274t-182 -161t-289 -53q-20 0 -37 0.5t-37 1.5v295q15 -1 27 -1.5t25 -0.5q104 0 149 50.5t45 147.5v1619z" />
    <glyph glyph-name="uni0238" unicode="&#x238;" horiz-adv-x="2634" 
d="M2478 776v-28q0 -227 -72 -402t-205.5 -274.5t-317.5 -99.5q-139 0 -242.5 55.5t-175.5 156.5t-115 240t-62 306v56q25 230 94.5 403.5t193 270t309.5 96.5q184 0 317 -97t204.5 -272.5t71.5 -410.5zM2105 748v28q0 139 -31 247.5t-101 170.5t-187 62q-156 0 -239 -111
t-101 -287v-199q16 -114 57 -201t111.5 -135.5t175.5 -48.5q121 0 189.5 63.5t97 171t28.5 239.5zM1130 317v1731h374v-2048h-338zM156 748v28q0 235 71.5 410.5t204.5 272.5t318 97t309 -96.5t193.5 -270t93.5 -403.5v-56q-18 -167 -61.5 -306t-115.5 -240t-175.5 -156.5
t-241.5 -55.5q-184 0 -318 99.5t-206 274.5t-72 402zM530 776v-28q0 -132 28 -239.5t96.5 -171t189.5 -63.5q105 0 175.5 48.5t111.5 135.5t58 201v199q-12 118 -53 207.5t-112.5 140t-175.5 50.5q-117 0 -187 -62t-100.5 -170.5t-30.5 -247.5z" />
    <glyph glyph-name="uni0239" unicode="&#x239;" horiz-adv-x="2634" 
d="M1130 -572v1808l42 300h303l29 -284v-1824h-374zM156 748v28q0 235 71.5 410.5t204.5 272.5t318 97t309 -96.5t193.5 -270t93.5 -403.5v-56q-18 -167 -61.5 -306t-115.5 -240t-175.5 -156.5t-241.5 -55.5q-184 0 -318 99.5t-206 274.5t-72 402zM530 776v-28
q0 -132 28 -239.5t96.5 -171t189.5 -63.5q105 0 175.5 48.5t111.5 135.5t58 201v199q-12 118 -53 207.5t-112.5 140t-175.5 50.5q-117 0 -187 -62t-100.5 -170.5t-30.5 -247.5zM2478 776v-28q0 -227 -72 -402t-205.5 -274.5t-317.5 -99.5q-139 0 -242.5 55.5t-175.5 156.5
t-115 240t-62 306v56q25 230 94.5 403.5t193 270t309.5 96.5q184 0 317 -97t204.5 -272.5t71.5 -410.5zM2105 748v28q0 139 -31 247.5t-101 170.5t-187 62q-156 0 -239 -111t-101 -287v-199q16 -114 57 -201t111.5 -135.5t175.5 -48.5q121 0 189.5 63.5t97 171t28.5 239.5z
" />
    <glyph glyph-name="uni023A" unicode="&#x23a;" horiz-adv-x="2038" 
d="M1670 2308l-858 -2568h-250l857 2568h251zM465 0h-396l721 2048h458l722 -2048h-396l-547 1628h-16zM478 803h1080v-298h-1080v298z" />
    <glyph glyph-name="uni023B" unicode="&#x23b;" horiz-adv-x="2094" 
d="M501 -260l857 2568h251l-858 -2568h-250zM1955 1357h-374q-16 92 -59 163.5t-107 121.5t-145.5 75.5t-175.5 25.5q-167 0 -296 -83.5t-202 -244t-73 -391.5q0 -235 73.5 -395.5t202 -242t294.5 -81.5q92 0 172.5 24.5t145 72.5t109 118t61.5 160l374 -2
q-21 -146 -90.5 -274t-181.5 -225.5t-262 -152t-333 -54.5q-270 0 -482 125t-334 361t-122 566q0 331 123 566.5t335 360.5t480 125q171 0 318 -48t262 -140.5t189.5 -226t97.5 -304.5z" />
    <glyph glyph-name="uni023C" unicode="&#x23c;" horiz-adv-x="1630" 
d="M1418 2048l-951 -2624h-227l951 2624h227zM856 -30q-230 0 -394.5 101t-253 279.5t-88.5 411.5q0 234 90 413.5t254.5 280t389.5 100.5q187 0 331.5 -68.5t230.5 -193t98 -290.5h-346q-21 111 -99.5 185.5t-209.5 74.5q-111 0 -195 -59.5t-130.5 -170.5t-46.5 -266
q0 -157 46 -269.5t129.5 -173t196.5 -60.5q80 0 143.5 30.5t106.5 88.5t59 141h346q-13 -163 -96 -288.5t-226 -196t-336 -70.5z" />
    <glyph glyph-name="uni023D" unicode="&#x23d;" horiz-adv-x="1594" 
d="M202 0v2048h371v-1737h902v-311h-1273zM-93 958v229h958v-229h-958z" />
    <glyph glyph-name="uni023E" unicode="&#x23e;" horiz-adv-x="1858" 
d="M406 -260l858 2568h250l-857 -2568h-251zM112 1737v311h1634v-311h-633v-1737h-368v1737h-633z" />
    <glyph glyph-name="uni023F" unicode="&#x23f;" horiz-adv-x="1549" 
d="M427 390q122 -228 199 -368t127.5 -212.5t89.5 -98.5t83 -26q74 0 133 35t101 70l116 -201q-61 -55 -153.5 -110t-206.5 -55q-112 0 -196 49.5t-149.5 132.5t-122.5 181l-265 457zM1400 1130l-330 -36q-14 50 -48.5 94t-92.5 71t-142 27q-113 0 -189.5 -49t-75.5 -127
q-1 -67 49.5 -109t167.5 -69l262 -56q218 -47 324.5 -149t107.5 -267q-1 -145 -84.5 -255.5t-231.5 -172.5t-340 -62q-282 0 -454 118.5t-205 330.5l353 34q24 -104 102 -157t203 -53q129 0 207.5 53t78.5 131q0 66 -50.5 109t-156.5 66l-262 55q-221 46 -327 155.5
t-105 277.5q-1 142 77.5 246.5t219 162t324.5 57.5q270 0 425.5 -115t192.5 -311z" />
    <glyph glyph-name="uni0240" unicode="&#x240;" horiz-adv-x="1695" 
d="M528 298h134q125 0 215 -40.5t155.5 -105t116 -137.5t95 -137t91.5 -105t107 -41q42 0 81 15.5t72 37.5t57 42l124 -238q-61 -58 -152 -111.5t-212 -53.5q-103 0 -177 41.5t-130.5 107t-107.5 139.5t-107 139.5t-129 107t-176 41.5h-57v298zM623 298v-298h-455v234
l778 1004h-770v298h1222v-228z" />
    <glyph glyph-name="uni0241" unicode="&#x241;" horiz-adv-x="1587" 
d="M645 678h119q128 0 196.5 59.5t94.5 158t26 214.5v212q0 74 -13 150.5t-46.5 141.5t-95.5 104.5t-162 39.5q-132 0 -204 -77.5t-76 -196.5h-367q2 176 85.5 309.5t227.5 208t329 74.5q233 0 391 -101.5t239 -272.5t81 -380v-212q0 -206 -80.5 -376t-239 -271t-392.5 -101
h-113v316zM974 678v-678h-388v678h388z" />
    <glyph glyph-name="uni0242" unicode="&#x242;" horiz-adv-x="1589" 
d="M182 953q0 188 78 323t217.5 207.5t322.5 72.5q187 0 323 -68.5t209.5 -199t73.5 -317.5q0 -157 -59 -276t-183 -185t-317 -66h-163v210h81q144 0 207 81t63 225q0 135 -54 217t-180 82q-122 0 -183.5 -80t-61.5 -226h-374zM618 654h373v-654h-373v654z" />
    <glyph glyph-name="uni0243" unicode="&#x243;" horiz-adv-x="2022" 
d="M372 0v2048h784q222 0 369.5 -69.5t221 -189.5t73.5 -272q0 -125 -48 -213.5t-129 -143.5t-181 -79v-20q109 -6 209.5 -66.5t164.5 -170.5t64 -266q0 -159 -77 -285.5t-232 -199.5t-390 -73h-829zM743 310h399q202 0 291.5 77.5t89.5 199.5q0 91 -45 164.5t-128 116
t-198 42.5h-409v-600zM743 1177h367q96 0 173 35.5t121.5 101t44.5 155.5q0 119 -83.5 196t-247.5 77h-375v-565zM71 495v229h958v-229h-958z" />
    <glyph glyph-name="uni0244" unicode="&#x244;" horiz-adv-x="2123" 
d="M2134 1172v-220h-2145v220h2145zM1526 2048h372v-1338q0 -220 -104 -387t-291 -260.5t-437 -93.5t-437 93.5t-290.5 260.5t-103.5 387v1338h371v-1307q0 -128 56.5 -228t160 -156.5t243.5 -56.5q141 0 244.5 56.5t159.5 156.5t56 228v1307z" />
    <glyph glyph-name="uni0245" unicode="&#x245;" horiz-adv-x="2109" 
d="M1545 0l-513 1644l-72 404h287l725 -2048h-427zM1074 1644l-509 -1644h-427l722 2048h287z" />
    <glyph glyph-name="uni0246" unicode="&#x246;" horiz-adv-x="1711" 
d="M1412 2308l-740 -2568h-228l740 2568h228zM202 0v2048h1332v-311h-961v-556h892v-311h-892v-559h969v-311h-1340z" />
    <glyph glyph-name="uni0247" unicode="&#x247;" horiz-adv-x="1675" 
d="M1418 2048l-951 -2624h-227l951 2624h227zM866 -30q-231 0 -398.5 96.5t-257.5 274t-90 418.5q0 237 90.5 416.5t253.5 280t383 100.5q142 0 268.5 -45.5t224 -140.5t153.5 -241.5t56 -348.5v-111h-1259v244h912q-1 104 -45 185.5t-122.5 128.5t-182.5 47
q-111 0 -195 -53.5t-130.5 -140t-47.5 -189.5v-213q0 -134 49 -229.5t137 -146t206 -50.5q79 0 143 22.5t111 66.5t71 109l338 -38q-32 -134 -121.5 -233.5t-228.5 -154t-318 -54.5z" />
    <glyph glyph-name="uni0248" unicode="&#x248;" horiz-adv-x="1579" 
d="M1010 2048h368v-1440q-1 -198 -84 -340.5t-231.5 -219t-345.5 -76.5q-180 0 -323.5 64.5t-227.5 191.5t-84 316h369q1 -83 36.5 -143t98.5 -92t145 -32q89 0 151 37.5t94.5 111.5t33.5 182v1440zM712 1107v229h958v-229h-958z" />
    <glyph glyph-name="uni0249" unicode="&#x249;" horiz-adv-x="734" 
d="M186 1536h362v-1624q0 -166 -63 -274t-182 -161t-289 -53q-20 0 -37 0.5t-37 1.5v295q15 -1 27 -1.5t25 -0.5q104 0 149 50.5t45 147.5v1619zM-114 803v229h958v-229h-958zM366 1754q-87 0 -148.5 57.5t-61.5 138.5q0 82 62 139.5t148 57.5t147.5 -57.5t61.5 -139.5
q0 -81 -61.5 -138.5t-147.5 -57.5z" />
    <glyph glyph-name="uni024A" unicode="&#x24a;" horiz-adv-x="2289" 
d="M1976 2048v-2166q0 -99 65 -134t153 -35q24 0 48.5 2.5t46.5 5.5v-283q-34 -7 -83 -10.5t-109 -3.5q-101 0 -188.5 24t-154 78t-103.5 141.5t-37 214.5v428h-16q-76 -153 -227.5 -246.5t-358.5 -93.5q-189 0 -346.5 79t-273 222t-179 336.5t-63.5 421.5q0 224 63.5 415
t179.5 332.5t274 220.5t345 79q209 0 360 -93t226 -240h20v305h358zM1070 305q190 0 311 92t178 254.5t57 374.5q0 210 -59.5 372.5t-180.5 256t-304 93.5q-169 0 -291.5 -90.5t-188.5 -252.5t-66 -379q0 -226 67 -387.5t189.5 -247.5t287.5 -86z" />
    <glyph glyph-name="uni024B" unicode="&#x24b;" horiz-adv-x="1886" 
d="M1694 -576q-100 0 -187.5 24t-154.5 78t-104 141.5t-37 214.5v105h363v-105q0 -66 30.5 -103t80 -51.5t106.5 -14.5q25 0 49 2.5t46 5.5v-283q-33 -7 -83 -10.5t-109 -3.5zM756 -27q-181 0 -324 93t-226 270t-83 430q0 256 84.5 432.5t228.5 267t321 90.5
q102 0 175.5 -26.5t124.5 -68.5t85 -89.5t54 -89.5h161v-1040h-161q-28 -56 -81 -118.5t-140 -106.5t-219 -44zM1574 -13h-363v369l98 402l-91 464v314h356v-1549zM857 270q115 0 196 62.5t123 174.5t42 261t-41.5 259t-122 171t-197.5 61q-121 0 -202 -63t-122 -174
t-41 -254q0 -144 41.5 -256.5t123 -177t200.5 -64.5z" />
    <glyph glyph-name="uni024C" unicode="&#x24c;" horiz-adv-x="1877" 
d="M457 770h-431v291h431v-291zM240 0v2048h769q235 0 396 -82t243 -229.5t82 -343.5q0 -197 -83 -341.5t-245 -223t-399 -78.5h-547v308h498q137 0 225 38.5t130.5 113t42.5 183.5t-42.5 186.5t-131 118t-227.5 40.5h-340v-1738h-371zM1298 928l508 -928h-415l-497 928h404
z" />
    <glyph glyph-name="uni024D" unicode="&#x24d;" horiz-adv-x="1117" 
d="M186 0v1536h351v-256h16q42 133 144.5 205.5t234.5 72.5q30 0 67.5 -2.5t62.5 -7.5v-333q-23 8 -72.5 14.5t-95.5 6.5q-99 0 -177.5 -42.5t-123.5 -117.5t-45 -173v-903h-362zM-112 627v229h958v-229h-958z" />
    <glyph glyph-name="uni024E" unicode="&#x24e;" horiz-adv-x="1989" 
d="M1970 1623v-202h-1951v202h1951zM62 2048h419l501 -906h20l501 906h419l-745 -1284v-764h-370v764z" />
    <glyph glyph-name="uni024F" unicode="&#x24f;" horiz-adv-x="1634" 
d="M1558 1056v-205h-1487v205h1487zM421 -576q-74 0 -136.5 11.5t-99.5 26.5l84 282q79 -23 141 -22t109 38.5t80 124.5l31 83l-556 1568h384l353 -1160h16l355 1160h386l-615 -1722q-43 -122 -114 -209.5t-174 -134t-244 -46.5z" />
    <glyph glyph-name="uni0250" unicode="&#x250;" horiz-adv-x="1618" 
d="M990 1567q147 0 263.5 -52.5t184 -155.5t67.5 -254q0 -130 -48.5 -215t-131.5 -136t-187.5 -77.5t-215.5 -38.5q-136 -14 -220 -25.5t-122 -36t-38 -76.5v-6q0 -113 66.5 -175t193.5 -62q133 0 210 58t105 137l337 -48q-39 -140 -131.5 -234.5t-225 -142t-294.5 -47.5
q-110 0 -220.5 26t-201.5 85.5t-146.5 162t-55.5 254.5v1028h348v-211h12q33 64 93 119.5t149 89t209 33.5zM897 1301q-109 0 -189.5 -43.5t-124 -115.5t-43.5 -157v-181q18 14 58 26t90.5 21t99.5 16.5t85 11.5q81 11 144.5 36t100.5 70t37 114q0 100 -72.5 151t-185.5 51z
" />
    <glyph glyph-name="uni0251" unicode="&#x251;" horiz-adv-x="1825" 
d="M777 -32q-193 2 -340.5 104t-230.5 282t-83 414q0 233 87 410.5t237 277.5t339 100q130 0 232 -47.5t175 -133t118 -199.5h116l83 -404l192 -772h-292l-180 772q-15 75 -44 159.5t-75 159t-114.5 121.5t-163.5 47q-109 0 -188.5 -62.5t-123 -173.5t-43.5 -254
t42.5 -256.5t119.5 -178t178 -64.5q91 0 161 48.5t120 125t82.5 162t48.5 158.5l163 772h289l-172 -772l-83 -402h-109q-44 -114 -117.5 -203.5t-178.5 -140.5t-245 -50z" />
    <glyph glyph-name="uni0252" unicode="&#x252;" horiz-adv-x="1851" 
d="M1675 810v-54q0 -228 -67.5 -405.5t-197 -279t-314.5 -101.5q-135 0 -233.5 55.5t-165.5 156.5t-107.5 240t-58.5 305v83q25 223 88.5 391t180.5 261.5t300 93.5q182 0 310.5 -94.5t197 -262.5t67.5 -389zM1302 756v54q0 122 -28.5 224t-97 163.5t-188.5 61.5
q-116 0 -184.5 -56.5t-105 -152.5t-54.5 -216v-116q13 -123 50 -225t107.5 -163t185.5 -61t184 66t100 176.5t31 244.5zM668 0h-322v1060q0 106 -26.5 146t-75.5 40q-9 0 -16.5 -2t-15.5 -2l-32 276q43 22 86.5 30t91.5 8q169 0 265.5 -119.5t96.5 -374.5v-743z" />
    <glyph glyph-name="uni0253" unicode="&#x253;" horiz-adv-x="1759" 
d="M1003 -27q-132 0 -219 44t-139.5 106.5t-81.5 118.5h-21v-242h-356v1618q0 133 41 222t111.5 140.5t158.5 73.5t181 22q62 0 108.5 -3.5t82.5 -10.5v-283q-22 3 -45.5 5.5t-48.5 2.5q-58 0 -110 -14.5t-84.5 -51.5t-32.5 -103v-336h15q28 56 79 119.5t138 109t222 45.5
q178 0 321.5 -90.5t228 -267t84.5 -432.5q0 -253 -83 -430t-226 -270t-324 -93zM902 270q120 0 201 64.5t122.5 177t41.5 256.5q0 143 -41 254t-122 174t-202 63q-116 0 -197 -61t-122.5 -171t-41.5 -259t42.5 -261t123 -174.5t195.5 -62.5z" />
    <glyph glyph-name="uni0254" unicode="&#x254;" horiz-adv-x="1586" 
d="M133 506h349q5 -70 41 -123t99.5 -83t147.5 -30q127 0 194.5 66.5t92.5 172t25 221.5v56q0 114 -25.5 222.5t-93.5 179.5t-197 71q-139 0 -208 -86.5t-76 -228.5h-349q4 192 82.5 329t218.5 210t327 73q230 0 383.5 -102.5t231 -277t77.5 -390.5v-56q0 -211 -78.5 -383
t-232 -273.5t-378.5 -101.5q-180 0 -321 70.5t-223.5 191t-86.5 272.5z" />
    <glyph glyph-name="uni0255" unicode="&#x255;" horiz-adv-x="1633" 
d="M862 -30q-227 0 -393 99.5t-256 279t-90 417.5q0 233 90 411t254.5 278.5t389.5 100.5q187 0 331.5 -68.5t230.5 -193t99 -290.5h-347q-21 111 -99.5 185.5t-209.5 74.5q-111 0 -195 -59.5t-130.5 -170.5t-46.5 -266q0 -157 46 -271.5t130 -176.5t196 -62v-288zM323 -108
l-236 171q74 98 154 200t170.5 195.5t193.5 168.5t220 118.5t251 43.5q133 0 227.5 -43t145 -122t50.5 -187q1 -134 -75.5 -239.5t-219 -166.5t-342.5 -61v288q139 0 221.5 47.5t84.5 120.5q1 53 -36.5 79t-77.5 26q-65 0 -137.5 -35t-148 -97.5t-152 -144t-150.5 -174
t-143 -188.5z" />
    </font>
</defs>
</svg>
