<?xml version="1.0" standalone="no"?>
<!DOCTYPE svg PUBLIC "-//W3C//DTD SVG 1.1//EN" "http://www.w3.org/Graphics/SVG/1.1/DTD/svg11.dtd" >
<svg xmlns="http://www.w3.org/2000/svg" xmlns:xlink="http://www.w3.org/1999/xlink" version="1.1">
<metadata>
Created by FontForge 20201107 at Wed Sep  1 18:46:30 2021
 By 
Copyright 2020 The Inter Project Authors (https://github.com/rsms/inter)
</metadata>
<defs>
<font id="Inter-Regular" horiz-adv-x="0" >
  <font-face 
    font-family="Inter"
    font-weight="400"
    font-stretch="normal"
    units-per-em="2816"
    panose-1="2 0 5 3 0 0 0 2 0 4"
    ascent="2252"
    descent="-564"
    x-height="1536"
    cap-height="2048"
    bbox="-2080 -900 7274 3072"
    underline-thickness="192"
    underline-position="-560"
    unicode-range="U+0020-1F852"
  />
<missing-glyph horiz-adv-x="2800" 
d="M248 -640v512h2304v-512h-2304zM248 1472v512h2304v-512h-2304zM248 2176v512h2304v-512h-2304zM248 64v512h2304v-512h-2304zM248 768v512h2304v-512h-2304z" />
    <glyph glyph-name=".notdef" horiz-adv-x="2800" 
d="M248 -640v512h2304v-512h-2304zM248 1472v512h2304v-512h-2304zM248 2176v512h2304v-512h-2304zM248 64v512h2304v-512h-2304zM248 768v512h2304v-512h-2304z" />
    <glyph glyph-name=".null" 
 />
    <glyph glyph-name="nonmarkingreturn" horiz-adv-x="938" 
 />
    <glyph glyph-name="uni0020" unicode=" " horiz-adv-x="792" 
 />
    <glyph glyph-name="uni0021" unicode="!" horiz-adv-x="784" 
d="M528 2048l-20 -1472h-232l-20 1472h272zM392 -16q-74 0 -127 53t-53 127t53 127t127 53t127 -53t53 -127q0 -49 -24.5 -90t-65 -65.5t-90.5 -24.5z" />
    <glyph glyph-name="uni0022" unicode="&#x22;" horiz-adv-x="1136" 
d="M420 2048v-704h-220v704h220zM932 2048v-704h-220v704h220z" />
    <glyph glyph-name="uni0023" unicode="#" horiz-adv-x="1776" 
d="M980 0l336 2048h200l-336 -2048h-200zM48 568l32 200h1528l-32 -200h-1528zM260 0l336 2048h200l-336 -2048h-200zM168 1280l32 200h1528l-32 -200h-1528z" />
    <glyph glyph-name="uni0024" unicode="$" horiz-adv-x="1796" 
d="M816 -256v2560h164v-2560h-164zM1368 1536q-18 152 -146 236t-314 84q-136 0 -237.5 -44t-158 -121t-56.5 -175q0 -82 39.5 -140.5t101.5 -97t130 -63t125 -39.5l208 -56q80 -21 178.5 -58t189 -100.5t149.5 -162.5t59 -243q0 -166 -86.5 -300t-252 -213t-401.5 -79
q-220 0 -380.5 71t-252 198t-103.5 295h256q10 -116 78.5 -191.5t174 -112t227.5 -36.5q142 0 255 46.5t179 130t66 195.5q0 102 -57 166t-150 104t-201 70l-252 72q-240 69 -380 197t-140 335q0 172 93.5 300.5t252 200t354.5 71.5q198 0 352 -70.5t244.5 -192.5t95.5 -277
h-240z" />
    <glyph glyph-name="uni0025" unicode="%" horiz-adv-x="2288" 
d="M1256 384v108q0 112 46.5 205.5t136 150t217.5 56.5q130 0 218 -56.5t133 -150t45 -205.5v-108q0 -112 -45.5 -205.5t-134 -150t-216.5 -56.5q-130 0 -219 56.5t-135 150t-46 205.5zM1460 492v-108q0 -93 44 -166.5t152 -73.5q105 0 148.5 73.5t43.5 166.5v108
q0 93 -42 166.5t-150 73.5q-105 0 -150.5 -73.5t-45.5 -166.5zM236 1556v108q0 112 46.5 205.5t136 150t217.5 56.5q130 0 218 -56.5t133 -150t45 -205.5v-108q0 -112 -45.5 -205.5t-134 -150t-216.5 -56.5q-130 0 -219 56.5t-135 150t-46 205.5zM440 1664v-108
q0 -93 44 -166.5t152 -73.5q105 0 148.5 73.5t43.5 166.5v108q0 93 -42 166.5t-150 73.5q-105 0 -150.5 -73.5t-45.5 -166.5zM312 0l1408 2048h228l-1408 -2048h-228z" />
    <glyph glyph-name="uni0026" unicode="&#x26;" horiz-adv-x="1800" 
d="M796 -28q-202 0 -348 74t-225 203t-79 295q0 128 54.5 227.5t151 185t222.5 171.5l296 220q87 57 139.5 122t52.5 170q0 78 -68.5 151t-179.5 73q-78 0 -137.5 -39.5t-93 -100t-33.5 -124.5q0 -72 39.5 -145.5t101 -150t127.5 -156.5l940 -1148h-284l-776 936
q-108 130 -196 236t-140 209t-52 223q0 138 61.5 242.5t173 163t261.5 58.5q154 0 265 -59.5t171 -157t60 -211.5q0 -147 -73 -255t-199 -201l-408 -304q-138 -102 -187 -198t-49 -138q0 -96 50 -179t141 -134t213 -51q116 0 226 49.5t199.5 143.5t142 226t52.5 297h228
q0 -204 -47 -333t-106 -202t-95 -109q-12 -15 -22 -30t-22 -30q-99 -111 -250 -165.5t-298 -54.5z" />
    <glyph glyph-name="uni0027" unicode="'" horiz-adv-x="624" 
d="M420 2048v-704h-220v704h220z" />
    <glyph glyph-name="uni0028" unicode="(" horiz-adv-x="1020" 
d="M300 864q0 378 98.5 695.5t281.5 584.5h208q-72 -99 -134.5 -243.5t-109.5 -317t-73.5 -356.5t-26.5 -363q0 -238 46 -483t124 -455t174 -342h-208q-183 267 -281.5 584.5t-98.5 695.5z" />
    <glyph glyph-name="uni0029" unicode=")" horiz-adv-x="1020" 
d="M720 864q0 -378 -98.5 -695.5t-281.5 -584.5h-208q72 99 134.5 243.5t109.5 317t73.5 357t26.5 362.5q0 238 -46 483t-124 455t-174 342h208q183 -267 281.5 -584.5t98.5 -695.5z" />
    <glyph glyph-name="uni002A" unicode="*" horiz-adv-x="1408" 
d="M608 896l16 440l-372 -236l-96 168l392 204l-392 204l96 168l372 -236l-16 440h192l-16 -440l372 236l96 -168l-392 -204l392 -204l-96 -168l-372 236l16 -440h-192z" />
    <glyph glyph-name="uni002B" unicode="+" horiz-adv-x="1856" 
d="M816 140v1320h224v-1320h-224zM268 688v224h1320v-224h-1320z" />
    <glyph glyph-name="uni002C" unicode="," horiz-adv-x="788" 
d="M568 280l-16 -108q-17 -114 -51.5 -244t-71.5 -245t-61 -183h-180q13 64 34 169t42.5 234.5t35.5 264.5l12 112h256z" />
    <glyph glyph-name="uni002D" unicode="-" horiz-adv-x="1296" 
d="M1096 988v-220h-896v220h896z" />
    <glyph glyph-name="uni002E" unicode="." horiz-adv-x="776" 
d="M388 -16q-74 0 -127 53t-53 127t53 127t127 53t127 -53t53 -127q0 -49 -24.5 -90t-65 -65.5t-90.5 -24.5z" />
    <glyph glyph-name="uni002F" unicode="/" horiz-adv-x="1004" 
d="M940 2144l-660 -2452h-216l660 2452h216z" />
    <glyph glyph-name="uni0030" unicode="0" horiz-adv-x="1760" 
d="M880 -28q-226 0 -385 123.5t-243 359t-84 569.5q0 332 84.5 567.5t244 360t383.5 124.5t383.5 -124.5t244 -360t84.5 -567.5q0 -334 -84 -569.5t-243 -359t-385 -123.5zM880 192q224 0 348 216t124 616q0 266 -56.5 453t-162 285t-253.5 98q-222 0 -347 -218.5
t-125 -617.5q0 -266 56 -452t161.5 -283t254.5 -97z" />
    <glyph glyph-name="uni0031" unicode="1" horiz-adv-x="1308" 
d="M932 2048v-2048h-248v1788h-12l-500 -332v252l512 340h248z" />
    <glyph glyph-name="uni0032" unicode="2" horiz-adv-x="1704" 
d="M212 0v180l676 740q119 130 196 226.5t114.5 182t37.5 179.5q0 108 -51.5 187t-140.5 122t-200 43q-118 0 -205.5 -48.5t-135 -135.5t-47.5 -204h-236q0 180 83 316t226.5 212t322.5 76q180 0 319 -76t218 -205t79 -287q0 -113 -40.5 -220.5t-140 -239t-275.5 -320.5
l-460 -492v-16h952v-220h-1292z" />
    <glyph glyph-name="uni0033" unicode="3" horiz-adv-x="1792" 
d="M904 -28q-198 0 -352.5 68t-245 189.5t-98.5 282.5h252q8 -99 68 -170.5t157 -110.5t215 -39q132 0 234 46t160 128t58 190q0 113 -56 199.5t-164 135.5t-264 49h-164v220h164q122 0 214.5 44t145 124t52.5 188q0 104 -46 181t-129.5 120t-196.5 43q-106 0 -199.5 -38.5
t-152.5 -111t-64 -174.5h-240q6 161 97 282.5t238.5 189.5t324.5 68q190 0 326 -76.5t209 -201.5t73 -270q0 -173 -90.5 -295t-245.5 -169v-16q194 -32 303 -164.5t109 -327.5q0 -167 -90.5 -299.5t-246.5 -208.5t-355 -76z" />
    <glyph glyph-name="uni0034" unicode="4" horiz-adv-x="1808" 
d="M164 420v204l900 1424h148v-316h-100l-680 -1076v-16h1212v-220h-1480zM1128 0v482v95v1471h236v-2048h-236z" />
    <glyph glyph-name="uni0035" unicode="5" horiz-adv-x="1712" 
d="M852 -28q-176 0 -317 70t-226 192t-93 278h240q14 -139 126.5 -229.5t269.5 -90.5q126 0 224.5 59t155 162.5t56.5 234.5q0 134 -58.5 239.5t-160.5 166.5t-233 62q-94 1 -193 -28.5t-163 -75.5l-232 28l124 1008h1064v-220h-856l-72 -604h12q63 50 158 83t198 33
q188 0 335.5 -89.5t232 -244.5t84.5 -354q0 -196 -87.5 -349.5t-240.5 -242t-348 -88.5z" />
    <glyph glyph-name="uni0036" unicode="6" horiz-adv-x="1756" 
d="M892 -28q-126 2 -252 48t-230 155.5t-167 297t-63 471.5q0 272 51 482.5t148 355t234.5 219.5t310.5 75q172 0 306.5 -68.5t219.5 -190.5t110 -281h-244q-34 138 -132 229t-260 91q-238 0 -374.5 -207t-137.5 -581h16q56 85 133.5 145.5t171.5 93.5t199 33
q176 0 322 -87.5t234 -241t88 -351.5q0 -190 -85 -347.5t-238.5 -250t-360.5 -90.5zM892 192q126 0 226.5 63t159 169t58.5 236q0 127 -56.5 231.5t-155 166.5t-224.5 62q-95 0 -177 -37.5t-143.5 -102.5t-96.5 -148.5t-35 -175.5q0 -122 57.5 -228t158 -171t228.5 -65z" />
    <glyph glyph-name="uni0037" unicode="7" horiz-adv-x="1608" 
d="M276 0l916 1812v16h-1056v220h1312v-232l-912 -1816h-260z" />
    <glyph glyph-name="uni0038" unicode="8" horiz-adv-x="1736" 
d="M868 -28q-206 0 -363.5 73.5t-245.5 203t-87 295.5q-1 130 51 240.5t142.5 185t202.5 94.5v12q-147 38 -234 165.5t-86 290.5q-1 156 79 279t220.5 194t320.5 71q178 0 318 -71t220.5 -194t81.5 -279q-1 -163 -88.5 -290.5t-231.5 -165.5v-12q111 -20 200 -94.5t142 -185
t54 -240.5q-1 -166 -89.5 -295.5t-245 -203t-361.5 -73.5zM868 192q139 0 240 45t156 127t56 192q-1 116 -60 205t-160.5 140t-231.5 51q-131 0 -233.5 -51t-161 -140t-57.5 -205q-1 -110 53.5 -192t156.5 -127t242 -45zM868 1164q110 0 195.5 44t134.5 123t50 185
q-1 104 -49 181.5t-133 120t-198 42.5q-115 0 -201 -42.5t-133 -120t-46 -181.5q-1 -106 47.5 -185t134.5 -123t198 -44z" />
    <glyph glyph-name="uni0039" unicode="9" horiz-adv-x="1756" 
d="M864 2076q126 -1 252 -48t230 -155.5t167 -295.5t63 -469q0 -273 -51.5 -484.5t-148 -356.5t-234 -220t-310.5 -75q-172 0 -306.5 68.5t-220 191t-109.5 284.5h244q33 -141 131.5 -232.5t260.5 -91.5q237 0 374.5 207t137.5 585h-16q-56 -84 -133 -145t-171 -94t-200 -33
q-176 0 -322.5 87.5t-234 241t-87.5 351.5q0 188 84.5 344.5t238 249.5t361.5 90zM864 1856q-126 0 -226.5 -62.5t-159 -168t-58.5 -233.5t56.5 -232.5t155 -166t224.5 -61.5q95 0 177 37.5t143.5 103t96.5 149t35 174.5q0 120 -57.5 225t-158 170t-228.5 65z" />
    <glyph glyph-name="uni003A" unicode=":" horiz-adv-x="776" 
d="M388 -16q-74 0 -127 53t-53 127t53 127t127 53t127 -53t53 -127q0 -49 -24.5 -90t-65 -65.5t-90.5 -24.5zM388 1124q-74 0 -127 53t-53 127t53 127t127 53t127 -53t53 -127q0 -49 -24.5 -90t-65 -65.5t-90.5 -24.5z" />
    <glyph glyph-name="uni003B" unicode=";" horiz-adv-x="788" 
d="M568 280l-16 -108q-17 -114 -51.5 -244t-71.5 -245t-61 -183h-180q13 64 34 169t42.5 234.5t35.5 264.5l12 112h256zM424 1124q-74 0 -127 53t-53 127t53 127t127 53t127 -53t53 -127q0 -49 -24.5 -90t-65 -65.5t-90.5 -24.5z" />
    <glyph glyph-name="uni003C" unicode="&#x3c;" horiz-adv-x="1856" 
d="M284 720v160l1288 656v-256l-988 -476l8 16v-40l-8 16l988 -476v-256z" />
    <glyph glyph-name="uni003D" unicode="=" horiz-adv-x="1856" 
d="M312 988v216h1232v-216h-1232zM312 396v216h1232v-216h-1232z" />
    <glyph glyph-name="uni003E" unicode="&#x3e;" horiz-adv-x="1856" 
d="M1572 720l-1288 -656v256l988 476l-8 -16v40l8 -16l-988 476v256l1288 -656v-160z" />
    <glyph glyph-name="uni003F" unicode="?" horiz-adv-x="1428" 
d="M524 576v12q2 191 40 304t108 183t168 129q59 36 106 85.5t74.5 114.5t27.5 144q0 98 -46 170t-123 111t-171 39q-82 0 -158 -34t-127 -107t-59 -191h-252q8 170 88.5 291t213 185t294.5 64q176 0 306.5 -70t202 -192t71.5 -278q0 -110 -33.5 -199t-96 -159t-150.5 -124
q-88 -55 -141 -115.5t-77 -143.5t-26 -207v-12h-240zM652 -16q-74 0 -127 53t-53 127t53 127t127 53t127 -53t53 -127q0 -49 -24.5 -90t-65 -65.5t-90.5 -24.5z" />
    <glyph glyph-name="uni0040" unicode="@" horiz-adv-x="2636" 
d="M1396 -540q-306 0 -541 83.5t-395 245.5t-242 397t-82 538q0 293 83.5 524t243 392.5t388 246.5t517.5 85q281 0 492.5 -91.5t354 -247t214 -349.5t71.5 -400q0 -145 -14 -294t-59 -273.5t-138.5 -200.5t-252.5 -76q-70 0 -154 22t-149 73t-77 137h-12
q-24 -58 -73.5 -110t-129 -83t-193.5 -27q-130 5 -229 58.5t-165.5 146t-100 215t-33.5 264.5q0 135 40 247t111.5 196t168 134.5t208.5 62.5q100 10 182 -8.5t135 -55t67 -80.5h12v112h212v-904q0 -84 47 -148t137 -64q102 0 156.5 70t75 216t20.5 374q0 134 -36.5 264.5
t-110 244.5t-185.5 201t-262.5 136.5t-341.5 49.5q-235 0 -420.5 -72.5t-315 -211t-197 -336t-67.5 -448.5q0 -255 67.5 -453t200 -334t328.5 -206.5t452 -70.5q110 0 217 21t189 46t118 37l56 -184q-62 -26 -161.5 -52t-212 -43t-214.5 -17zM1280 256q134 0 217 54t121 163
t38 275q0 168 -42 262t-124 132t-202 38q-114 0 -194.5 -59.5t-123 -158t-42.5 -214.5q0 -128 34 -240.5t111 -182t207 -69.5z" />
    <glyph glyph-name="uni0041" unicode="A" horiz-adv-x="1904" 
d="M332 0h-260l752 2048h256l752 -2048h-260l-612 1724h-16zM428 800h1048v-220h-1048v220z" />
    <glyph glyph-name="uni0042" unicode="B" horiz-adv-x="1832" 
d="M248 0v2048h716q214 0 353 -73.5t207 -197t68 -273.5q0 -132 -46.5 -218t-122 -136t-163.5 -74v-20q94 -6 189 -66t159 -172t64 -274q0 -154 -70 -277t-221 -195t-393 -72h-740zM496 220h492q243 0 345.5 94.5t102.5 229.5q0 104 -53 192.5t-151 142t-232 53.5h-504v-712
zM496 1148h460q112 0 202.5 44t144 124t53.5 188q0 135 -94 229.5t-298 94.5h-468v-680z" />
    <glyph glyph-name="uni0043" unicode="C" horiz-adv-x="2048" 
d="M1896 1408h-248q-22 107 -76.5 188t-132 136.5t-171.5 83.5t-196 28q-186 0 -336.5 -94t-239 -277t-88.5 -449t88.5 -449t239 -277t336.5 -94q102 0 196 28t171.5 83.5t132 137t76.5 187.5h248q-28 -157 -102 -281t-184 -210.5t-246.5 -131.5t-291.5 -45q-262 0 -466 128
t-321 364t-117 560t117 560t321 364t466 128q155 0 291.5 -45t246.5 -131.5t184 -210t102 -281.5z" />
    <glyph glyph-name="uni0044" unicode="D" horiz-adv-x="2024" 
d="M880 0h-632v2048h660q298 0 510 -122.5t325 -351t113 -546.5q0 -320 -114 -550.5t-332 -354t-530 -123.5zM496 220h368q254 0 421 98t249 279t82 431q0 248 -81 427.5t-242 276t-401 96.5h-396v-1608z" />
    <glyph glyph-name="uni0045" unicode="E" horiz-adv-x="1684" 
d="M248 0v2048h1236v-220h-988v-692h924v-220h-924v-696h1004v-220h-1252z" />
    <glyph glyph-name="uni0046" unicode="F" horiz-adv-x="1652" 
d="M248 0v2048h1228v-220h-980v-692h888v-220h-888v-916h-248z" />
    <glyph glyph-name="uni0047" unicode="G" horiz-adv-x="2092" 
d="M1648 1408q-33 101 -86.5 181.5t-127 137.5t-166.5 87t-204 30q-182 0 -331 -94t-237 -277t-88 -449t89 -449t241 -277t342 -94q176 0 310.5 75.5t210 214t75.5 326.5l76 -16h-616v220h780v-220q0 -253 -107.5 -440t-296 -289.5t-432.5 -102.5q-272 0 -477.5 128
t-320 364t-114.5 560q0 243 65.5 437.5t185.5 331.5t284 210t361 73q162 0 302.5 -48.5t251 -137t184.5 -211t102 -271.5h-256z" />
    <glyph glyph-name="uni0048" unicode="H" horiz-adv-x="2084" 
d="M248 0v2048h248v-912h1092v912h248v-2048h-248v916h-1092v-916h-248z" />
    <glyph glyph-name="uni0049" unicode="I" horiz-adv-x="744" 
d="M496 2048v-2048h-248v2048h248z" />
    <glyph glyph-name="uni004A" unicode="J" horiz-adv-x="1528" 
d="M1032 2048h248v-1464q0 -196 -72 -333t-203 -208t-309 -71q-168 0 -299 61.5t-206 175.5t-75 271h244q0 -87 43.5 -151.5t119.5 -100.5t173 -36q107 0 182 45t114.5 132.5t39.5 214.5v1464z" />
    <glyph glyph-name="uni004B" unicode="K" horiz-adv-x="1836" 
d="M248 0v2048h248v-1016h24l920 1016h324l-860 -924l860 -1124h-300l-712 952l-256 -288v-664h-248z" />
    <glyph glyph-name="uni004C" unicode="L" horiz-adv-x="1584" 
d="M248 0v2048h248v-1828h952v-220h-1200z" />
    <glyph glyph-name="uni004D" unicode="M" horiz-adv-x="2504" 
d="M248 2048h296l696 -1700h24l696 1700h296v-2048h-232v1556h-20l-640 -1556h-224l-640 1556h-20v-1556h-232v2048z" />
    <glyph glyph-name="uni004E" unicode="N" horiz-adv-x="2120" 
d="M1872 2048v-2048h-240l-1116 1608h-20v-1608h-248v2048h240l1120 -1612h20v1612h244z" />
    <glyph glyph-name="uni004F" unicode="O" horiz-adv-x="2144" 
d="M1976 1024q0 -324 -117 -560t-321 -364t-466 -128t-466 128t-321 364t-117 560t117 560t321 364t466 128t466 -128t321 -364t117 -560zM1736 1024q0 266 -88.5 449t-239 277t-336.5 94t-336.5 -94t-239 -277t-88.5 -449t88.5 -449t239 -277t336.5 -94t336.5 94t239 277
t88.5 449z" />
    <glyph glyph-name="uni0050" unicode="P" horiz-adv-x="1788" 
d="M248 0v2048h692q241 0 394.5 -86.5t227.5 -233.5t74 -328t-73.5 -329t-226.5 -235.5t-392 -87.5h-496v220h488q165 0 265 57t145.5 154.5t45.5 220.5t-45.5 220t-146.5 152.5t-268 55.5h-436v-1828h-248z" />
    <glyph glyph-name="uni0051" unicode="Q" horiz-adv-x="2144" 
d="M992 640h272l228 -300l60 -80l340 -452h-272l-224 300l-56 76zM1976 1024q0 -324 -117 -560t-321 -364t-466 -128t-466 128t-321 364t-117 560t117 560t321 364t466 128t466 -128t321 -364t117 -560zM1736 1024q0 266 -88.5 449t-239 277t-336.5 94t-336.5 -94t-239 -277
t-88.5 -449t88.5 -449t239 -277t336.5 -94t336.5 94t239 277t88.5 449z" />
    <glyph glyph-name="uni0052" unicode="R" horiz-adv-x="1800" 
d="M248 0v2048h692q240 0 394 -81.5t228 -223.5t74 -323t-74 -321t-227 -219.5t-391 -79.5h-560v224h552q164 0 264.5 48t146 136.5t45.5 211.5t-46 215t-147 142.5t-267 50.5h-436v-1828h-248zM1212 920l504 -920h-288l-496 920h280z" />
    <glyph glyph-name="uni0053" unicode="S" horiz-adv-x="1796" 
d="M1368 1536q-18 152 -146 236t-314 84q-136 0 -237.5 -44t-158 -121t-56.5 -175q0 -82 39.5 -140.5t101.5 -97t130 -63t125 -39.5l208 -56q80 -21 178.5 -58t189 -100.5t149.5 -162.5t59 -243q0 -166 -86.5 -300t-252 -213t-401.5 -79q-220 0 -380.5 71t-252 198
t-103.5 295h256q10 -116 78.5 -191.5t174 -112t227.5 -36.5q142 0 255 46.5t179 130t66 195.5q0 102 -57 166t-150 104t-201 70l-252 72q-240 69 -380 197t-140 335q0 172 93.5 300.5t252 200t354.5 71.5q198 0 352 -70.5t244.5 -192.5t95.5 -277h-240z" />
    <glyph glyph-name="uni0054" unicode="T" horiz-adv-x="1808" 
d="M136 1828v220h1536v-220h-644v-1828h-248v1828h-644z" />
    <glyph glyph-name="uni0055" unicode="U" horiz-adv-x="2088" 
d="M1592 2048h248v-1356q0 -210 -98.5 -374.5t-277.5 -259t-420 -94.5t-420 94.5t-277.5 259t-98.5 374.5v1356h248v-1336q0 -150 66 -266.5t188.5 -183t293.5 -66.5t294 66.5t188.5 183t65.5 266.5v1336z" />
    <glyph glyph-name="uni0056" unicode="V" horiz-adv-x="1904" 
d="M332 2048l608 -1724h24l608 1724h260l-752 -2048h-256l-752 2048h260z" />
    <glyph glyph-name="uni0057" unicode="W" horiz-adv-x="2672" 
d="M620 0l-560 2048h252l428 -1668h20l436 1668h280l436 -1668h20l428 1668h252l-560 -2048h-256l-452 1632h-16l-452 -1632h-256z" />
    <glyph glyph-name="uni0058" unicode="X" horiz-adv-x="1808" 
d="M368 2048l528 -852h16l528 852h292l-644 -1024l644 -1024h-292l-528 836h-16l-528 -836h-292l660 1024l-660 1024h292z" />
    <glyph glyph-name="uni0059" unicode="Y" horiz-adv-x="1872" 
d="M72 2048h284l568 -956h24l568 956h284l-740 -1204v-844h-248v844z" />
    <glyph glyph-name="uni005A" unicode="Z" horiz-adv-x="1760" 
d="M180 0v180l1104 1648h-1116v220h1412v-180l-1104 -1648h1116v-220h-1412z" />
    <glyph glyph-name="uni005B" unicode="[" horiz-adv-x="1020" 
d="M332 -416v2560h592v-196h-368v-2168h368v-196h-592z" />
    <glyph glyph-name="uni005C" unicode="\" horiz-adv-x="1004" 
d="M724 -308l-660 2452h216l660 -2452h-216z" />
    <glyph glyph-name="uni005D" unicode="]" horiz-adv-x="1020" 
d="M688 2144v-2560h-592v196h368v2168h-368v196h592z" />
    <glyph glyph-name="uni005E" unicode="^" horiz-adv-x="1320" 
d="M624 1872h72v-100h-72v100zM112 1120l412 864h272l412 -864h-236l-324 692h24l-320 -692h-240z" />
    <glyph glyph-name="uni005F" unicode="_" horiz-adv-x="1272" 
d="M1276 0v-220h-1280v220h1280z" />
    <glyph glyph-name="uni0060" unicode="`" horiz-adv-x="1400" 
d="M752 1744l-312 464h276l244 -464h-208z" />
    <glyph glyph-name="uni0061" unicode="a" horiz-adv-x="1588" 
d="M668 -36q-146 0 -265 55.5t-189 161t-70 255.5q0 132 52 214.5t139 129.5t192.5 70.5t212.5 37.5q140 18 227.5 27.5t128 32.5t40.5 80v8q0 148 -80.5 230t-243.5 82q-169 0 -265 -74t-135 -158l-224 80q60 140 160.5 218.5t220 110t235.5 31.5q74 0 170.5 -17.5
t187 -71.5t150.5 -163t60 -292v-1012h-236v208h-12q-24 -50 -80 -107t-149 -97t-227 -40zM704 176q140 0 236.5 55t146 142t49.5 183v216q-15 -18 -65.5 -32.5t-116 -25t-127 -18t-99.5 -12.5q-92 -12 -171.5 -38.5t-128 -79t-48.5 -142.5q0 -123 91.5 -185.5t232.5 -62.5z
" />
    <glyph glyph-name="uni0062" unicode="b" horiz-adv-x="1748" 
d="M248 0v2048h236v-756h20q26 40 72.5 102.5t134 112t237.5 49.5q194 0 342 -97t231 -275t83 -420q0 -244 -83 -422.5t-230 -276t-339 -97.5q-148 0 -237 49.5t-137 113t-74 105.5h-28v-236h-228zM480 768q0 -174 51 -306.5t149 -207t240 -74.5q148 0 247.5 78.5t150 212
t50.5 297.5q0 162 -49.5 292.5t-149 207t-249.5 76.5q-144 0 -242 -72.5t-148 -202t-50 -301.5z" />
    <glyph glyph-name="uni0063" unicode="c" horiz-adv-x="1572" 
d="M840 -32q-216 0 -372 102t-240 281t-84 409q0 234 86.5 413.5t242 281t363.5 101.5q162 0 292 -60t213 -168t103 -252h-236q-27 105 -119.5 186.5t-248.5 81.5q-138 0 -241.5 -71.5t-161 -201t-57.5 -303.5q0 -178 56.5 -310t160 -205t243.5 -73q92 0 167 32t127 92
t74 144h236q-20 -136 -98.5 -244.5t-207 -172t-298.5 -63.5z" />
    <glyph glyph-name="uni0064" unicode="d" horiz-adv-x="1748" 
d="M796 -32q-192 0 -339 97.5t-230 276t-83 422.5q0 242 83 420t231 275t342 97q150 0 237.5 -49.5t134 -112t72.5 -102.5h20v756h236v-2048h-228v236h-28q-26 -42 -74 -105.5t-137 -113t-237 -49.5zM828 180q142 0 240 74.5t149 207t51 306.5q0 172 -50 301.5t-148 202
t-242 72.5q-150 0 -249.5 -76.5t-149 -207t-49.5 -292.5q0 -164 50.5 -297.5t150 -212t247.5 -78.5z" />
    <glyph glyph-name="uni0065" unicode="e" horiz-adv-x="1640" 
d="M860 -32q-222 0 -382.5 98.5t-247 276t-86.5 413.5t86.5 416.5t242 282t363.5 101.5q120 0 237 -40t213 -129.5t153 -236.5t57 -362v-100h-1184v204h944q0 130 -51.5 232t-146 161t-222.5 59q-141 0 -243.5 -69.5t-157.5 -180.5t-55 -238v-136q0 -174 60.5 -294.5
t168.5 -183t251 -62.5q93 0 168.5 26.5t130.5 80t85 133.5l228 -64q-36 -116 -121 -203.5t-210 -136t-281 -48.5z" />
    <glyph glyph-name="uni0066" unicode="f" horiz-adv-x="1016" 
d="M900 1536v-200h-828v200h828zM320 0v1748q0 132 62 220t161 132t209 44q87 0 142 -14t82 -26l-68 -204q-18 6 -49.5 15t-82.5 9q-117 0 -168.5 -59t-51.5 -173v-1692h-236z" />
    <glyph glyph-name="uni0067" unicode="g" horiz-adv-x="1716" 
d="M836 -608q-171 0 -294 43.5t-204.5 114t-129.5 150.5l188 132q32 -42 81 -96.5t134.5 -95t224.5 -40.5q186 0 307 90t121 282v312h-20q-26 -42 -73.5 -103.5t-136 -109t-238.5 -47.5q-186 0 -333.5 88t-233 256t-85.5 408q0 236 83 411.5t231 272t342 96.5
q150 0 238.5 -49.5t136 -112t73.5 -102.5h24v244h228v-1580q0 -198 -89.5 -322.5t-240 -183t-334.5 -58.5zM828 236q142 0 240 65t149 187t51 292q0 166 -50 293t-148 199t-242 72q-150 0 -249.5 -76t-149 -204t-49.5 -284q0 -160 50.5 -282.5t150 -192t247.5 -69.5z" />
    <glyph glyph-name="uni0068" unicode="h" horiz-adv-x="1664" 
d="M452 924v-924h-236v2048h236v-752h20q54 119 162.5 189.5t289.5 70.5q157 0 275 -62.5t183.5 -191t65.5 -326.5v-976h-236v960q0 183 -94.5 283.5t-261.5 100.5q-116 0 -207.5 -49t-144 -143t-52.5 -228z" />
    <glyph glyph-name="uni0069" unicode="i" horiz-adv-x="668" 
d="M216 0v1536h236v-1536h-236zM336 1792q-69 0 -118.5 47t-49.5 113t49.5 113t118.5 47t118.5 -47t49.5 -113t-49.5 -113t-118.5 -47z" />
    <glyph glyph-name="uni006A" unicode="j" horiz-adv-x="668" 
d="M216 1536h236v-1648q0 -142 -48.5 -246t-146 -161t-245.5 -57h-24h-24v220h22h22q108 0 158 63.5t50 180.5v1648zM332 1792q-69 0 -118.5 47t-49.5 113t49.5 113t118.5 47t118.5 -47t49.5 -113t-49.5 -113t-118.5 -47z" />
    <glyph glyph-name="uni006B" unicode="k" horiz-adv-x="1532" 
d="M436 560l-4 292h48l672 684h292l-716 -724h-20zM216 0v2048h236v-2048h-236zM1192 0l-600 760l168 164l732 -924h-300z" />
    <glyph glyph-name="uni006C" unicode="l" horiz-adv-x="668" 
d="M452 2048v-2048h-236v2048h236z" />
    <glyph glyph-name="uni006D" unicode="m" horiz-adv-x="2448" 
d="M216 0v1536h228v-240h20q48 123 155 191.5t257 68.5q152 0 253.5 -68.5t158.5 -191.5h16q59 119 177 189.5t283 70.5q206 0 337 -128.5t131 -399.5v-1028h-236v1028q0 170 -93 243t-219 73q-162 0 -251 -97.5t-89 -246.5v-1000h-240v1052q0 131 -85 211.5t-219 80.5
q-92 0 -171.5 -49t-128 -135.5t-48.5 -199.5v-960h-236z" />
    <glyph glyph-name="uni006E" unicode="n" horiz-adv-x="1648" 
d="M452 924v-924h-236v1536h228v-240h20q54 117 164 188.5t284 71.5q156 0 273 -63.5t182 -192t65 -324.5v-976h-236v960q0 181 -94 282.5t-258 101.5q-113 0 -201.5 -49t-139.5 -143t-51 -228z" />
    <glyph glyph-name="uni006F" unicode="o" horiz-adv-x="1680" 
d="M840 -32q-208 0 -364.5 99t-244 277t-87.5 416q0 240 87.5 419t244 278t364.5 99t364.5 -99t244 -278t87.5 -419q0 -238 -87.5 -416t-244 -277t-364.5 -99zM840 180q158 0 260 81t151 213t49 286t-49 287t-151 215t-260 82t-260 -82t-151 -215t-49 -287t49 -286t151 -213
t260 -81z" />
    <glyph glyph-name="uni0070" unicode="p" horiz-adv-x="1716" 
d="M216 -576v2112h228v-244h28q26 40 72.5 102.5t134 112t237.5 49.5q194 0 342 -97t231 -275t83 -420q0 -244 -83 -422.5t-230 -276t-339 -97.5q-148 0 -237 49.5t-137 113t-74 105.5h-20v-812h-236zM448 768q0 -174 51 -306.5t149 -207t240 -74.5q148 0 247.5 78.5
t150 212t50.5 297.5q0 162 -49.5 292.5t-149 207t-249.5 76.5q-144 0 -242 -72.5t-148 -202t-50 -301.5z" />
    <glyph glyph-name="uni0071" unicode="q" horiz-adv-x="1716" 
d="M1264 -576v812h-20q-26 -42 -74 -105.5t-137 -113t-237 -49.5q-192 0 -339 97.5t-230 276t-83 422.5q0 242 83 420t231 275t342 97q150 0 237.5 -49.5t134 -112t72.5 -102.5h28v244h228v-2112h-236zM828 180q142 0 240 74.5t149 207t51 306.5q0 172 -50 301.5t-148 202
t-242 72.5q-150 0 -249.5 -76.5t-149 -207t-49.5 -292.5q0 -164 50.5 -297.5t150 -212t247.5 -78.5z" />
    <glyph glyph-name="uni0072" unicode="r" horiz-adv-x="1048" 
d="M216 0v1536h228v-232h16q42 114 152 185t248 71q26 0 65 -1t59 -3v-240q-12 3 -54.5 9.5t-89.5 6.5q-112 0 -199.5 -46.5t-138 -128t-50.5 -185.5v-972h-236z" />
    <glyph glyph-name="uni0073" unicode="s" horiz-adv-x="1472" 
d="M1304 1192l-212 -60q-20 53 -58.5 103.5t-104.5 83.5t-169 33q-141 0 -234.5 -64.5t-93.5 -163.5q0 -88 64 -139t200 -85l228 -56q206 -50 307 -152.5t101 -263.5q0 -132 -75.5 -236t-210.5 -164t-314 -60q-235 0 -389 102t-195 298l224 56q32 -124 121.5 -186t234.5 -62
q165 0 262.5 70.5t97.5 169.5q0 80 -56 134.5t-172 81.5l-256 60q-211 50 -309.5 155.5t-98.5 264.5q0 130 73.5 230t201 157t289.5 57q228 0 358.5 -100t185.5 -264z" />
    <glyph glyph-name="uni0074" unicode="t" horiz-adv-x="1024" 
d="M884 1536v-200h-796v200h796zM320 1904h236v-1464q0 -100 29.5 -149.5t76 -66t98.5 -16.5q39 0 64 4.5t40 7.5l48 -212q-24 -9 -67 -18.5t-109 -9.5q-100 0 -195.5 43t-158 131t-62.5 222v1528z" />
    <glyph glyph-name="uni0075" unicode="u" horiz-adv-x="1636" 
d="M1184 628v908h236v-1536h-236v260h-16q-54 -117 -168 -198.5t-288 -81.5q-144 0 -256 63.5t-176 192t-64 324.5v976h236v-960q0 -168 94.5 -268t241.5 -100q88 0 179.5 45t154 138t62.5 237z" />
    <glyph glyph-name="uni0076" unicode="v" horiz-adv-x="1568" 
d="M1472 1536l-568 -1536h-240l-568 1536h256l424 -1224h16l424 1224h256z" />
    <glyph glyph-name="uni0077" unicode="w" horiz-adv-x="2288" 
d="M564 0l-468 1536h248l332 -1176h16l328 1176h252l324 -1172h16l332 1172h248l-468 -1536h-232l-336 1180h-24l-336 -1180h-232z" />
    <glyph glyph-name="uni0078" unicode="x" horiz-adv-x="1520" 
d="M392 1536l368 -628l368 628h272l-496 -768l496 -768h-272l-368 596l-368 -596h-272l488 768l-488 768h272z" />
    <glyph glyph-name="uni0079" unicode="y" horiz-adv-x="1568" 
d="M368 -576q-60 0 -107 9.5t-65 18.5l60 208q86 -22 152 -16t117.5 58.5t94.5 169.5l44 120l-568 1544h256l424 -1224h16l424 1224h256l-652 -1760q-44 -119 -109 -197.5t-150.5 -116.5t-192.5 -38z" />
    <glyph glyph-name="uni007A" unicode="z" horiz-adv-x="1524" 
d="M172 0v180l872 1120v16h-844v220h1148v-188l-848 -1112v-16h876v-220h-1204z" />
    <glyph glyph-name="uni007B" unicode="{" horiz-adv-x="1020" 
d="M104 860v124q167 0 233.5 70t66.5 234v320q0 138 26.5 239t86.5 167t160 98t247 32v-196q-116 0 -182.5 -36t-94 -111.5t-27.5 -192.5v-400q0 -78 -20.5 -142t-75.5 -110t-156.5 -71t-263.5 -25zM924 -416q-147 0 -247 32t-160 98t-86.5 167t-26.5 239v320
q0 164 -66.5 234t-233.5 70v124q162 0 263.5 -25t156.5 -71t75.5 -110t20.5 -142v-400q0 -117 27.5 -192t94 -111.5t182.5 -36.5v-196zM104 744v240h236v-240h-236z" />
    <glyph glyph-name="uni007C" unicode="|" horiz-adv-x="920" 
d="M560 2708v-3368h-200v3368h200z" />
    <glyph glyph-name="uni007D" unicode="}" horiz-adv-x="1020" 
d="M916 868v-124q-167 0 -233.5 -70t-66.5 -234v-320q0 -138 -26.5 -239t-86.5 -167t-160 -98t-247 -32v196q116 0 182.5 36.5t94 111.5t27.5 192v400q0 78 20.5 142t75.5 110t156.5 71t263.5 25zM96 2144q147 0 247 -32t160 -98t86.5 -167t26.5 -239v-320q0 -164 66.5 -234
t233.5 -70v-124q-162 0 -263.5 25t-156.5 71t-75.5 110t-20.5 142v400q0 117 -27.5 192.5t-94 111.5t-182.5 36v196zM916 984v-240h-236v240h236z" />
    <glyph glyph-name="uni007E" unicode="~" horiz-adv-x="1856" 
d="M232 608q-3 166 54 267t148.5 147t193.5 46t186.5 -44.5t193.5 -139.5q74 -64 118.5 -90t97.5 -26q86 0 136 62.5t48 181.5h216q3 -166 -53.5 -267t-148.5 -147t-194 -46t-186 44.5t-194 139.5q-73 64 -118 90t-98 26q-81 0 -133.5 -56.5t-50.5 -187.5h-216z" />
    <glyph glyph-name="uni00A0" unicode="&#xa0;" horiz-adv-x="792" 
 />
    <glyph glyph-name="uni00A1" unicode="&#xa1;" horiz-adv-x="784" 
d="M528 -520h-272l20 1472h232zM392 1544q74 0 127 -53t53 -127t-53 -127t-127 -53t-127 53t-53 127q0 50 24.5 90.5t65.5 65t90 24.5z" />
    <glyph glyph-name="uni00A2" unicode="&#xa2;" horiz-adv-x="1572" 
d="M744 0v2048h164v-2048h-164zM840 230q-216 0 -372 102t-240 281t-84 409q0 234 86.5 413.5t242 281t363.5 101.5q162 0 292 -60t213 -168t103 -252h-236q-27 105 -119.5 186.5t-248.5 81.5q-138 0 -241.5 -71.5t-161 -201t-57.5 -303.5q0 -178 56.5 -310t160 -205
t243.5 -73q92 0 167 32t127 92t74 144h236q-20 -136 -98.5 -244.5t-207 -172t-298.5 -63.5z" />
    <glyph glyph-name="uni00A3" unicode="&#xa3;" horiz-adv-x="1776" 
d="M1540 0h-1356v220h1356v-220zM1108 796h-932v228h932v-228zM612 1428l32 -868q6 -126 -22.5 -232.5t-109.5 -163.5l-248 56q60 0 92 60t43 140t9 140l-28 868q-8 218 79.5 362t230 215t298.5 71q143 0 260 -51.5t197 -138.5t112 -195.5t3 -222.5l-232 64
q14 104 -31.5 176.5t-126 110t-170.5 37.5q-96 0 -185 -45.5t-146 -140t-57 -242.5z" />
    <glyph glyph-name="uni00A4" unicode="&#xa4;" horiz-adv-x="2036" 
d="M1012 -28q-169 0 -317 65.5t-260.5 183.5t-175.5 275t-63 340t63 339.5t175.5 273.5t260.5 182t317 65q170 0 318.5 -65t261 -182t176.5 -273.5t64 -339.5t-64 -340t-176.5 -275t-261 -183.5t-318.5 -65.5zM1012 192q123 0 230.5 50.5t188.5 139.5t127 205.5t46 248.5
q0 178 -79.5 324t-214 233t-298.5 87t-299.5 -87t-216 -233t-80.5 -324q0 -176 80.5 -322.5t216 -234t299.5 -87.5zM1592 1272l-160 168l276 284l164 -168zM1708 -20l-276 284l160 164l280 -280zM324 -20l-160 168l276 280l164 -164zM440 1272l-276 284l160 168l280 -284z
" />
    <glyph glyph-name="uni00A5" unicode="&#xa5;" horiz-adv-x="1544" 
d="M316 2048l524 -1140l-192 -80l-608 1220h276zM704 908l524 1140h276l-608 -1220zM896 1076v-1076h-248v1076h248zM1344 1020v-180h-1144v180h1144zM1344 624v-180h-1144v180h1144z" />
    <glyph glyph-name="uni00A6" unicode="&#xa6;" horiz-adv-x="748" 
d="M264 552h220v-936h-220v936zM484 2048v-932h-220v932h220z" />
    <glyph glyph-name="uni00A7" unicode="&#xa7;" horiz-adv-x="1552" 
d="M1272 1564h-228q0 129 -65.5 214.5t-206.5 85.5q-90 0 -147.5 -33t-85 -83t-27.5 -100q0 -60 34 -112.5t84 -94t98 -69.5l388 -228q39 -22 89 -59t96 -90.5t76.5 -125.5t30.5 -165q0 -74 -38.5 -148t-102 -131t-139.5 -81v-4q72 -63 106 -145.5t34 -178.5
q0 -148 -72 -243.5t-188 -142t-248 -46.5q-158 0 -281 62.5t-193 178t-70 275.5h232q0 -147 88.5 -225.5t223.5 -78.5q111 0 195.5 54.5t84.5 165.5q0 76 -34 127t-84 86t-98 63l-388 224q-39 23 -89 60t-96 91.5t-76.5 127t-30.5 165.5q0 72 36 147t99 134t145 83v8
q-63 63 -101.5 141.5t-38.5 174.5q0 124 63 220.5t173 152t252 55.5q154 0 266 -65.5t173 -181t61 -265.5zM1188 704q0 58 -27 106.5t-70 87t-91 66.5l-392 228q-44 26 -101.5 1t-100 -87t-42.5 -146q0 -96 58.5 -157.5t133.5 -106.5l372 -216q42 -24 103.5 0t109 83
t47.5 141z" />
    <glyph glyph-name="uni00A8" unicode="&#xa8;" horiz-adv-x="1664" 
d="M544 1792q-63 0 -111.5 48.5t-48.5 111.5q0 69 48.5 114.5t111.5 45.5q69 0 114.5 -45.5t45.5 -114.5q0 -63 -45.5 -111.5t-114.5 -48.5zM1120 1792q-63 0 -111.5 48.5t-48.5 111.5q0 69 48.5 114.5t111.5 45.5q69 0 114.5 -45.5t45.5 -114.5q0 -63 -45.5 -111.5
t-114.5 -48.5z" />
    <glyph glyph-name="uni00A9" unicode="&#xa9;" horiz-adv-x="2576" 
d="M704 1024q0 164 80 299t215 215t299 80q142 0 262.5 -61t199.5 -166.5t98 -238.5h-242q-20 103 -111 168.5t-207 65.5q-100 0 -182 -49t-131 -131t-49 -182t49 -182t131 -131t182 -49q116 0 196.5 65.5t101.5 168.5h242q-19 -133 -93 -238.5t-189.5 -166.5t-257.5 -61
q-164 0 -299 80t-215 215t-80 299zM1288 -32q-218 0 -409.5 82t-337 227.5t-228 336.5t-81.5 410t83.5 410t227.5 336.5t336 227.5t409 82q219 0 410.5 -82t336 -227.5t226.5 -336.5t83 -410t-81 -410t-227 -336.5t-337 -227.5t-411 -82zM1288 200q171 0 321 64t263 177
t177 262.5t63 319.5q-1 171 -65 321t-177 263t-262 177t-320 64q-170 0 -319 -64t-262 -177.5t-177.5 -263t-65.5 -320.5q-1 -169 63 -318.5t177.5 -262.5t263 -177.5t320.5 -64.5z" />
    <glyph glyph-name="uni00AA" unicode="&#xaa;" horiz-adv-x="1264" 
d="M800 1184v468q0 87 -39.5 131.5t-120.5 44.5q-90 0 -141 -35t-51 -101l-236 20q0 138 116.5 229t311.5 91q180 0 290 -95.5t110 -284.5v-432q0 -66 7.5 -127t28.5 -121h-244q-15 48 -23.5 103t-8.5 109zM860 1584v-160h-200q-120 0 -174 -46t-54 -106q0 -57 38 -88.5
t122 -31.5q56 0 113.5 25t96 61t38.5 70l24 -160q-30 -66 -110.5 -131t-221.5 -65q-165 0 -254.5 85.5t-89.5 226.5q0 153 117.5 236.5t354.5 83.5h200z" />
    <glyph glyph-name="uni00AB" unicode="&#xab;" horiz-adv-x="1520" 
d="M800 220h-208l-404 600v20h228zM800 1448l-384 -620h-228v20l404 600h208zM1312 220h-208l-404 600v20h228zM1312 1448l-384 -620h-228v20l404 600h208z" />
    <glyph glyph-name="uni00AC" unicode="&#xac;" horiz-adv-x="1520" 
d="M1336 1108v-236h-1148v236h1148zM1336 1000v-484h-276v484h276z" />
    <glyph glyph-name="uni00AD" unicode="&#xad;" horiz-adv-x="1296" 
d="M1096 988v-220h-896v220h896z" />
    <glyph glyph-name="uni00AE" unicode="&#xae;" horiz-adv-x="1888" 
d="M664 916v738h374q45 0 98 -25.5t90.5 -78t37.5 -132.5q0 -81 -39 -137.5t-94.5 -85.5t-104.5 -29h-270v120h220q33 0 71.5 33t38.5 99q0 68 -38.5 92t-67.5 24h-154v-618h-162zM1110 1264l184 -348h-178l-180 348h174zM944 476q-166 0 -311 62t-255 172t-172 255t-62 311
t62 311t172 255t255 172t311 62t311 -62t255 -172t172 -255t62 -311t-62 -311t-172 -255t-255 -172t-311 -62zM944 668q168 0 306 82t220 220t82 306t-82 306t-220 220t-306 82t-306 -82t-220 -220t-82 -306t82 -306t220 -220t306 -82z" />
    <glyph glyph-name="uni00AF" unicode="&#xaf;" horiz-adv-x="1264" 
d="M1100 2048v-200h-936v200h936z" />
    <glyph glyph-name="uni00B0" unicode="&#xb0;" horiz-adv-x="1280" 
d="M640 1144q-127 0 -231.5 62t-166.5 166.5t-62 231.5t62 231.5t166.5 166.5t231.5 62t231.5 -62t166.5 -166.5t62 -231.5t-62 -231.5t-166.5 -166.5t-231.5 -62zM640 1344q72 0 131 35t94 94t35 131t-35 131t-94 94t-131 35t-131 -35t-94 -94t-35 -131t35 -131t94 -94
t131 -35z" />
    <glyph glyph-name="uni00B1" unicode="&#xb1;" horiz-adv-x="1856" 
d="M284 96v224h1288v-224h-1288zM284 904v224h1288v-224h-1288zM816 496v1040h224v-1040h-224z" />
    <glyph glyph-name="uni00B2" unicode="&#xb2;" horiz-adv-x="1184" 
d="M140 1024v156l468 416q70 62 117 111t71 95t24 98q0 90 -69 143t-171 53q-108 0 -174 -57.5t-66 -150.5h-208q0 171 127 275.5t325 104.5q132 0 232 -47.5t156 -130t56 -186.5q0 -82 -33 -152t-103 -145t-180 -171l-260 -228v-8h612v-176h-924z" />
    <glyph glyph-name="uni00B3" unicode="&#xb3;" horiz-adv-x="1212" 
d="M604 1008q-138 0 -246.5 46t-172 127t-65.5 187h220q3 -81 78 -130.5t186 -49.5q117 0 192.5 54t75.5 138t-80.5 138t-215.5 54h-100v160h100q111 0 185.5 50t74.5 134q0 78 -63 129t-165 51t-175.5 -50t-76.5 -134h-208q2 106 63.5 186t165 125t231.5 45q130 0 229 -44
t155 -121t56 -175q0 -108 -74 -177t-182 -87v-8q147 -21 225.5 -101t78.5 -191q0 -102 -63 -182.5t-174 -127t-255 -46.5z" />
    <glyph glyph-name="uni00B4" unicode="&#xb4;" horiz-adv-x="1400" 
d="M560 1744l244 464h276l-312 -464h-208z" />
    <glyph glyph-name="uni00B5" unicode="&#xb5;" horiz-adv-x="1752" 
d="M216 -576v2112h236v-908q0 -125 52.5 -219.5t148 -147.5t223.5 -53t223.5 53.5t148 148t52.5 218.5v908h236v-1536h-236v228h-12q-62 -121 -173 -184.5t-239 -63.5t-238.5 63.5t-173.5 184.5h-12v-804h-236z" />
    <glyph glyph-name="uni00B6" unicode="&#xb6;" horiz-adv-x="1688" 
d="M1440 1828h-496v-1068h-116q-218 0 -369 83.5t-229 229t-78 331.5q0 184 78 329.5t229 230t369 84.5h612v-220zM1192 0v2048h248v-2048h-248z" />
    <glyph glyph-name="uni00B7" unicode="&#xb7;" horiz-adv-x="776" 
d="M388 716q-74 0 -127 53t-53 127t53 127t127 53t127 -53t53 -127q0 -49 -24.5 -90t-65 -65.5t-90.5 -24.5z" />
    <glyph glyph-name="uni00B8" unicode="&#xb8;" horiz-adv-x="752" 
d="M280 8h196l-16 -80q78 -12 143 -65.5t65 -170.5q0 -129 -106.5 -210.5t-313.5 -81.5l-8 156q93 0 154.5 29.5t61.5 98.5t-51 94t-165 34z" />
    <glyph glyph-name="uni00B9" unicode="&#xb9;" horiz-adv-x="882" 
d="M438 1024v1010h-10l-316 -210v212l326 216h208v-1228h-208z" />
    <glyph glyph-name="uni00BA" unicode="&#xba;" horiz-adv-x="1264" 
d="M156 1436v108q0 142 58 252t165 173t253 63q222 0 349 -137.5t127 -350.5v-108q0 -142 -57 -251t-163 -171t-252 -62q-222 0 -351 135.5t-129 348.5zM396 1544v-108q0 -123 60 -203.5t180 -80.5q117 0 174.5 80.5t57.5 203.5v108q0 120 -58 202t-178 82
q-117 0 -176.5 -82t-59.5 -202z" />
    <glyph glyph-name="uni00BB" unicode="&#xbb;" horiz-adv-x="1520" 
d="M188 220l384 620h228v-20l-404 -600h-208zM188 1448h208l404 -600v-20h-228zM700 220l384 620h228v-20l-404 -600h-208zM700 1448h208l404 -600v-20h-228z" />
    <glyph glyph-name="uni00BC" unicode="&#xbc;" horiz-adv-x="2488" 
d="M384 0l1408 2048h228l-1408 -2048h-228zM374 960v870h-10l-268 -178v212l278 184h208v-1088h-208zM1468 196v164l524 728h144v-228h-88l-364 -492v-4h720v-168h-936zM2052 0v248l4 72v768h196v-1088h-200z" />
    <glyph glyph-name="uni00BD" unicode="&#xbd;" horiz-adv-x="2608" 
d="M384 0l1408 2048h228l-1408 -2048h-228zM374 960v870h-10l-268 -178v212l278 184h208v-1088h-208zM1652 0v152l428 360q96 81 140 137t44 119q0 78 -61 125t-151 47t-151 -49.5t-61 -130.5h-200q0 153 115 248.5t301 95.5t297 -95.5t111 -236.5q0 -72 -28.5 -134
t-92 -129t-167.5 -153l-220 -180v-8h548v-168h-852z" />
    <glyph glyph-name="uni00BE" unicode="&#xbe;" horiz-adv-x="2672" 
d="M568 0l1408 2048h228l-1408 -2048h-228zM1652 196v164l524 728h144v-228h-88l-364 -492v-4h720v-168h-936zM2236 0v248l4 72v768h196v-1088h-200zM548 944q-128 0 -228.5 43t-158 118t-57.5 171h212q0 -69 66.5 -114.5t165.5 -45.5t163.5 47.5t64.5 116.5q0 72 -71 116
t-185 44h-88v148h88q99 0 165.5 43.5t66.5 112.5q0 66 -57 111t-147 45t-153 -45.5t-63 -114.5h-204q2 94 57 167t149 115t214 42t212 -39.5t144 -108t52 -156.5q0 -93 -66 -155t-174 -77v-8q135 -18 207.5 -87.5t72.5 -168.5q0 -92 -57 -164.5t-158 -114t-233 -41.5z" />
    <glyph glyph-name="uni00BF" unicode="&#xbf;" horiz-adv-x="1428" 
d="M904 956v-12q-1 -190 -39.5 -303.5t-108.5 -183t-168 -129.5q-58 -35 -105.5 -85t-75 -114.5t-27.5 -144.5q0 -98 46 -170t123 -111t171 -39q82 0 158 34t127.5 107t58.5 191h252q-7 -170 -88 -291t-213.5 -185t-294.5 -64q-176 0 -306.5 70t-202 192t-71.5 278
q0 111 33.5 200t96 159t150.5 123q88 55 141 115.5t77 143.5t26 207v12h240zM776 1548q74 0 127 -53t53 -127t-53 -127t-127 -53t-127 53t-53 127q0 50 24.5 90.5t65.5 65t90 24.5z" />
    <glyph glyph-name="uni00C0" unicode="&#xc0;" horiz-adv-x="1904" 
d="M332 0h-260l752 2048h256l752 -2048h-260l-612 1724h-16zM428 800h1048v-220h-1048v220zM852 2256l-312 464h276l244 -464h-208z" />
    <glyph glyph-name="uni00C1" unicode="&#xc1;" horiz-adv-x="1904" 
d="M332 0h-260l752 2048h256l752 -2048h-260l-612 1724h-16zM428 800h1048v-220h-1048v220zM844 2256l244 464h276l-312 -464h-208z" />
    <glyph glyph-name="uni00C2" unicode="&#xc2;" horiz-adv-x="1904" 
d="M332 0h-260l752 2048h256l752 -2048h-260l-612 1724h-16zM428 800h1048v-220h-1048v220zM1160 2232l-208 280l-208 -280h-224v16l324 416h216l324 -416v-16h-224z" />
    <glyph glyph-name="uni00C3" unicode="&#xc3;" horiz-adv-x="1904" 
d="M332 0h-260l752 2048h256l752 -2048h-260l-612 1724h-16zM428 800h1048v-220h-1048v220zM644 2252l-184 8q0 153 87.5 250.5t216.5 97.5q57 0 101 -19.5t84 -44.5t82.5 -44.5t96.5 -19.5q57 0 96.5 44.5t39.5 107.5l180 -16q0 -156 -87.5 -248t-216.5 -92
q-69 0 -114 19.5t-80 44.5t-74 44.5t-96 19.5t-94.5 -44.5t-37.5 -107.5z" />
    <glyph glyph-name="uni00C4" unicode="&#xc4;" horiz-adv-x="1904" 
d="M332 0h-260l752 2048h256l752 -2048h-260l-612 1724h-16zM428 800h1048v-220h-1048v220zM664 2304q-63 0 -111.5 48.5t-48.5 111.5q0 69 48.5 114.5t111.5 45.5q69 0 114.5 -45.5t45.5 -114.5q0 -63 -45.5 -111.5t-114.5 -48.5zM1240 2304q-63 0 -111.5 48.5t-48.5 111.5
q0 69 48.5 114.5t111.5 45.5q69 0 114.5 -45.5t45.5 -114.5q0 -63 -45.5 -111.5t-114.5 -48.5z" />
    <glyph glyph-name="uni00C5" unicode="&#xc5;" horiz-adv-x="1904" 
d="M332 0h-260l752 2048h256l752 -2048h-260l-612 1724h-16zM428 800h1048v-220h-1048v220zM952 2188q-120 0 -205 85t-85 205q0 80 39 146t105 105t146 39t146 -39t105 -105t39 -146t-39 -146t-105 -105t-146 -39zM952 2332q62 0 103 42.5t41 103.5t-41 103.5t-103 42.5
t-103 -42.5t-41 -103.5t41 -103.5t103 -42.5z" />
    <glyph glyph-name="uni00C6" unicode="&#xc6;" horiz-adv-x="2788" 
d="M72 0l992 2048h1524v-220h-988v-692h924v-220h-924v-696h1004v-220h-1252v1828h-148l-860 -1828h-272zM508 580v220h968v-220h-968z" />
    <glyph glyph-name="uni00C7" unicode="&#xc7;" horiz-adv-x="2048" 
d="M1896 1408h-248q-22 107 -76.5 188t-132 136.5t-171.5 83.5t-196 28q-186 0 -336.5 -94t-239 -277t-88.5 -449t88.5 -449t239 -277t336.5 -94q102 0 196 28t171.5 83.5t132 137t76.5 187.5h248q-28 -157 -102 -281t-184 -210.5t-246.5 -131.5t-291.5 -45q-262 0 -466 128
t-321 364t-117 560t117 560t321 364t466 128q155 0 291.5 -45t246.5 -131.5t184 -210t102 -281.5zM968 -8h196l-16 -80q78 -12 143 -65.5t65 -170.5q0 -129 -106.5 -210.5t-313.5 -81.5l-8 156q93 0 154.5 29.5t61.5 98.5t-51 94t-165 34z" />
    <glyph glyph-name="uni00C8" unicode="&#xc8;" horiz-adv-x="1684" 
d="M248 0v2048h1236v-220h-988v-692h924v-220h-924v-696h1004v-220h-1252zM764 2256l-312 464h276l244 -464h-208z" />
    <glyph glyph-name="uni00C9" unicode="&#xc9;" horiz-adv-x="1684" 
d="M248 0v2048h1236v-220h-988v-692h924v-220h-924v-696h1004v-220h-1252zM756 2256l244 464h276l-312 -464h-208z" />
    <glyph glyph-name="uni00CA" unicode="&#xca;" horiz-adv-x="1684" 
d="M248 0v2048h1236v-220h-988v-692h924v-220h-924v-696h1004v-220h-1252zM1072 2232l-208 280l-208 -280h-224v16l324 416h216l324 -416v-16h-224z" />
    <glyph glyph-name="uni00CB" unicode="&#xcb;" horiz-adv-x="1684" 
d="M248 0v2048h1236v-220h-988v-692h924v-220h-924v-696h1004v-220h-1252zM576 2304q-63 0 -111.5 48.5t-48.5 111.5q0 69 48.5 114.5t111.5 45.5q69 0 114.5 -45.5t45.5 -114.5q0 -63 -45.5 -111.5t-114.5 -48.5zM1152 2304q-63 0 -111.5 48.5t-48.5 111.5q0 69 48.5 114.5
t111.5 45.5q69 0 114.5 -45.5t45.5 -114.5q0 -63 -45.5 -111.5t-114.5 -48.5z" />
    <glyph glyph-name="uni00CC" unicode="&#xcc;" horiz-adv-x="744" 
d="M496 2048v-2048h-248v2048h248zM272 2256l-312 464h276l244 -464h-208z" />
    <glyph glyph-name="uni00CD" unicode="&#xcd;" horiz-adv-x="744" 
d="M496 2048v-2048h-248v2048h248zM264 2256l244 464h276l-312 -464h-208z" />
    <glyph glyph-name="uni00CE" unicode="&#xce;" horiz-adv-x="744" 
d="M496 2048v-2048h-248v2048h248zM580 2232l-208 280l-208 -280h-224v16l324 416h216l324 -416v-16h-224z" />
    <glyph glyph-name="uni00CF" unicode="&#xcf;" horiz-adv-x="744" 
d="M496 2048v-2048h-248v2048h248zM84 2304q-63 0 -111.5 48.5t-48.5 111.5q0 69 48.5 114.5t111.5 45.5q69 0 114.5 -45.5t45.5 -114.5q0 -63 -45.5 -111.5t-114.5 -48.5zM660 2304q-63 0 -111.5 48.5t-48.5 111.5q0 69 48.5 114.5t111.5 45.5q69 0 114.5 -45.5
t45.5 -114.5q0 -63 -45.5 -111.5t-114.5 -48.5z" />
    <glyph glyph-name="uni00D0" unicode="&#xd0;" horiz-adv-x="2024" 
d="M880 0h-492v220h476q254 0 421 98t249 279t82 431q0 248 -81 427.5t-242 276t-401 96.5h-516v220h532q298 0 510 -122.5t325 -351t113 -546.5q0 -320 -114 -550.5t-332 -354t-530 -123.5zM496 2048v-2048h-248v2048h248zM-68 964v184h880v-184h-880z" />
    <glyph glyph-name="uni00D1" unicode="&#xd1;" horiz-adv-x="2120" 
d="M1872 2048v-2048h-240l-1116 1608h-20v-1608h-248v2048h240l1120 -1612h20v1612h244zM752 2232l-184 8q0 153 87.5 250.5t216.5 97.5q57 0 101 -19.5t84 -44.5t82.5 -44.5t96.5 -19.5q57 0 96.5 44.5t39.5 107.5l180 -16q0 -156 -87.5 -248t-216.5 -92q-69 0 -114 19.5
t-80 44.5t-74 44.5t-96 19.5t-94.5 -44.5t-37.5 -107.5z" />
    <glyph glyph-name="uni00D2" unicode="&#xd2;" horiz-adv-x="2144" 
d="M1976 1024q0 -324 -117 -560t-321 -364t-466 -128t-466 128t-321 364t-117 560t117 560t321 364t466 128t466 -128t321 -364t117 -560zM1736 1024q0 266 -88.5 449t-239 277t-336.5 94t-336.5 -94t-239 -277t-88.5 -449t88.5 -449t239 -277t336.5 -94t336.5 94t239 277
t88.5 449zM972 2256l-312 464h276l244 -464h-208z" />
    <glyph glyph-name="uni00D3" unicode="&#xd3;" horiz-adv-x="2144" 
d="M1976 1024q0 -324 -117 -560t-321 -364t-466 -128t-466 128t-321 364t-117 560t117 560t321 364t466 128t466 -128t321 -364t117 -560zM1736 1024q0 266 -88.5 449t-239 277t-336.5 94t-336.5 -94t-239 -277t-88.5 -449t88.5 -449t239 -277t336.5 -94t336.5 94t239 277
t88.5 449zM964 2256l244 464h276l-312 -464h-208z" />
    <glyph glyph-name="uni00D4" unicode="&#xd4;" horiz-adv-x="2144" 
d="M1976 1024q0 -324 -117 -560t-321 -364t-466 -128t-466 128t-321 364t-117 560t117 560t321 364t466 128t466 -128t321 -364t117 -560zM1736 1024q0 266 -88.5 449t-239 277t-336.5 94t-336.5 -94t-239 -277t-88.5 -449t88.5 -449t239 -277t336.5 -94t336.5 94t239 277
t88.5 449zM1280 2232l-208 280l-208 -280h-224v16l324 416h216l324 -416v-16h-224z" />
    <glyph glyph-name="uni00D5" unicode="&#xd5;" horiz-adv-x="2144" 
d="M1976 1024q0 -324 -117 -560t-321 -364t-466 -128t-466 128t-321 364t-117 560t117 560t321 364t466 128t466 -128t321 -364t117 -560zM1736 1024q0 266 -88.5 449t-239 277t-336.5 94t-336.5 -94t-239 -277t-88.5 -449t88.5 -449t239 -277t336.5 -94t336.5 94t239 277
t88.5 449zM764 2252l-184 8q0 153 87.5 250.5t216.5 97.5q57 0 101 -19.5t84 -44.5t82.5 -44.5t96.5 -19.5q57 0 96.5 44.5t39.5 107.5l180 -16q0 -156 -87.5 -248t-216.5 -92q-69 0 -114 19.5t-80 44.5t-74 44.5t-96 19.5t-94.5 -44.5t-37.5 -107.5z" />
    <glyph glyph-name="uni00D6" unicode="&#xd6;" horiz-adv-x="2144" 
d="M1976 1024q0 -324 -117 -560t-321 -364t-466 -128t-466 128t-321 364t-117 560t117 560t321 364t466 128t466 -128t321 -364t117 -560zM1736 1024q0 266 -88.5 449t-239 277t-336.5 94t-336.5 -94t-239 -277t-88.5 -449t88.5 -449t239 -277t336.5 -94t336.5 94t239 277
t88.5 449zM784 2304q-63 0 -111.5 48.5t-48.5 111.5q0 69 48.5 114.5t111.5 45.5q69 0 114.5 -45.5t45.5 -114.5q0 -63 -45.5 -111.5t-114.5 -48.5zM1360 2304q-63 0 -111.5 48.5t-48.5 111.5q0 69 48.5 114.5t111.5 45.5q69 0 114.5 -45.5t45.5 -114.5q0 -63 -45.5 -111.5
t-114.5 -48.5z" />
    <glyph glyph-name="uni00D7" unicode="&#xd7;" horiz-adv-x="1856" 
d="M1416 160l-1128 1128l152 152l1128 -1128zM440 160l-152 152l1128 1128l152 -152z" />
    <glyph glyph-name="uni00D8" unicode="&#xd8;" horiz-adv-x="2144" 
d="M432 -84l-152 104l1424 2108l152 -104zM1976 1024q0 -324 -117 -560t-321 -364t-466 -128t-466 128t-321 364t-117 560t117 560t321 364t466 128t466 -128t321 -364t117 -560zM1736 1024q0 266 -88.5 449t-239 277t-336.5 94t-336.5 -94t-239 -277t-88.5 -449t88.5 -449
t239 -277t336.5 -94t336.5 94t239 277t88.5 449z" />
    <glyph glyph-name="uni00D9" unicode="&#xd9;" horiz-adv-x="2088" 
d="M1592 2048h248v-1356q0 -210 -98.5 -374.5t-277.5 -259t-420 -94.5t-420 94.5t-277.5 259t-98.5 374.5v1356h248v-1336q0 -150 66 -266.5t188.5 -183t293.5 -66.5t294 66.5t188.5 183t65.5 266.5v1336zM944 2256l-312 464h276l244 -464h-208z" />
    <glyph glyph-name="uni00DA" unicode="&#xda;" horiz-adv-x="2088" 
d="M1592 2048h248v-1356q0 -210 -98.5 -374.5t-277.5 -259t-420 -94.5t-420 94.5t-277.5 259t-98.5 374.5v1356h248v-1336q0 -150 66 -266.5t188.5 -183t293.5 -66.5t294 66.5t188.5 183t65.5 266.5v1336zM936 2256l244 464h276l-312 -464h-208z" />
    <glyph glyph-name="uni00DB" unicode="&#xdb;" horiz-adv-x="2088" 
d="M1592 2048h248v-1356q0 -210 -98.5 -374.5t-277.5 -259t-420 -94.5t-420 94.5t-277.5 259t-98.5 374.5v1356h248v-1336q0 -150 66 -266.5t188.5 -183t293.5 -66.5t294 66.5t188.5 183t65.5 266.5v1336zM1252 2232l-208 280l-208 -280h-224v16l324 416h216l324 -416v-16
h-224z" />
    <glyph glyph-name="uni00DC" unicode="&#xdc;" horiz-adv-x="2088" 
d="M1592 2048h248v-1356q0 -210 -98.5 -374.5t-277.5 -259t-420 -94.5t-420 94.5t-277.5 259t-98.5 374.5v1356h248v-1336q0 -150 66 -266.5t188.5 -183t293.5 -66.5t294 66.5t188.5 183t65.5 266.5v1336zM756 2304q-63 0 -111.5 48.5t-48.5 111.5q0 69 48.5 114.5
t111.5 45.5q69 0 114.5 -45.5t45.5 -114.5q0 -63 -45.5 -111.5t-114.5 -48.5zM1332 2304q-63 0 -111.5 48.5t-48.5 111.5q0 69 48.5 114.5t111.5 45.5q69 0 114.5 -45.5t45.5 -114.5q0 -63 -45.5 -111.5t-114.5 -48.5z" />
    <glyph glyph-name="uni00DD" unicode="&#xdd;" horiz-adv-x="1872" 
d="M72 2048h284l568 -956h24l568 956h284l-740 -1204v-844h-248v844zM828 2256l244 464h276l-312 -464h-208z" />
    <glyph glyph-name="uni00DE" unicode="&#xde;" horiz-adv-x="1776" 
d="M232 2048h248v-2048h-248v2048zM348 1624h528q218 0 369 -79.5t229 -213t78 -295.5t-78 -295.5t-229 -213t-369 -79.5h-528v220h528q142 0 240 42.5t149 124t51 197.5t-51 199.5t-149 128t-240 44.5h-528v220z" />
    <glyph glyph-name="uni00DF" unicode="&#xdf;" horiz-adv-x="1716" 
d="M248 0v1524q0 171 75.5 295t209 190.5t307.5 66.5q170 0 305 -64t213 -182t78 -282q0 -175 -90 -294.5t-234 -169.5v-20q195 -19 319.5 -152.5t124.5 -347.5q0 -162 -74 -289.5t-208 -201t-314 -73.5h-224v220h228q109 0 188.5 44t123.5 122t44 178q0 158 -107 261
t-289 103h-180v224h128q101 0 174.5 51.5t113.5 134t40 174.5q0 144 -95.5 244t-260.5 100q-155 0 -257.5 -92.5t-102.5 -239.5v-1524h-236z" />
    <glyph glyph-name="uni00E0" unicode="&#xe0;" horiz-adv-x="1588" 
d="M668 -36q-146 0 -265 55.5t-189 161t-70 255.5q0 132 52 214.5t139 129.5t192.5 70.5t212.5 37.5q140 18 227.5 27.5t128 32.5t40.5 80v8q0 148 -80.5 230t-243.5 82q-169 0 -265 -74t-135 -158l-224 80q60 140 160.5 218.5t220 110t235.5 31.5q74 0 170.5 -17.5
t187 -71.5t150.5 -163t60 -292v-1012h-236v208h-12q-24 -50 -80 -107t-149 -97t-227 -40zM704 176q140 0 236.5 55t146 142t49.5 183v216q-15 -18 -65.5 -32.5t-116 -25t-127 -18t-99.5 -12.5q-92 -12 -171.5 -38.5t-128 -79t-48.5 -142.5q0 -123 91.5 -185.5t232.5 -62.5z
M720 1744l-312 464h276l244 -464h-208z" />
    <glyph glyph-name="uni00E1" unicode="&#xe1;" horiz-adv-x="1588" 
d="M668 -36q-146 0 -265 55.5t-189 161t-70 255.5q0 132 52 214.5t139 129.5t192.5 70.5t212.5 37.5q140 18 227.5 27.5t128 32.5t40.5 80v8q0 148 -80.5 230t-243.5 82q-169 0 -265 -74t-135 -158l-224 80q60 140 160.5 218.5t220 110t235.5 31.5q74 0 170.5 -17.5
t187 -71.5t150.5 -163t60 -292v-1012h-236v208h-12q-24 -50 -80 -107t-149 -97t-227 -40zM704 176q140 0 236.5 55t146 142t49.5 183v216q-15 -18 -65.5 -32.5t-116 -25t-127 -18t-99.5 -12.5q-92 -12 -171.5 -38.5t-128 -79t-48.5 -142.5q0 -123 91.5 -185.5t232.5 -62.5z
M712 1744l244 464h276l-312 -464h-208z" />
    <glyph glyph-name="uni00E2" unicode="&#xe2;" horiz-adv-x="1588" 
d="M668 -36q-146 0 -265 55.5t-189 161t-70 255.5q0 132 52 214.5t139 129.5t192.5 70.5t212.5 37.5q140 18 227.5 27.5t128 32.5t40.5 80v8q0 148 -80.5 230t-243.5 82q-169 0 -265 -74t-135 -158l-224 80q60 140 160.5 218.5t220 110t235.5 31.5q74 0 170.5 -17.5
t187 -71.5t150.5 -163t60 -292v-1012h-236v208h-12q-24 -50 -80 -107t-149 -97t-227 -40zM704 176q140 0 236.5 55t146 142t49.5 183v216q-15 -18 -65.5 -32.5t-116 -25t-127 -18t-99.5 -12.5q-92 -12 -171.5 -38.5t-128 -79t-48.5 -142.5q0 -123 91.5 -185.5t232.5 -62.5z
M1028 1720l-208 280l-208 -280h-224v16l324 416h216l324 -416v-16h-224z" />
    <glyph glyph-name="uni00E3" unicode="&#xe3;" horiz-adv-x="1588" 
d="M668 -36q-146 0 -265 55.5t-189 161t-70 255.5q0 132 52 214.5t139 129.5t192.5 70.5t212.5 37.5q140 18 227.5 27.5t128 32.5t40.5 80v8q0 148 -80.5 230t-243.5 82q-169 0 -265 -74t-135 -158l-224 80q60 140 160.5 218.5t220 110t235.5 31.5q74 0 170.5 -17.5
t187 -71.5t150.5 -163t60 -292v-1012h-236v208h-12q-24 -50 -80 -107t-149 -97t-227 -40zM704 176q140 0 236.5 55t146 142t49.5 183v216q-15 -18 -65.5 -32.5t-116 -25t-127 -18t-99.5 -12.5q-92 -12 -171.5 -38.5t-128 -79t-48.5 -142.5q0 -123 91.5 -185.5t232.5 -62.5z
M512 1720l-184 8q0 153 87.5 250.5t216.5 97.5q57 0 101 -19.5t84 -44.5t82.5 -44.5t96.5 -19.5q57 0 96.5 44.5t39.5 107.5l180 -16q0 -156 -87.5 -248t-216.5 -92q-69 0 -114 19.5t-80 44.5t-74 44.5t-96 19.5t-94.5 -44.5t-37.5 -107.5z" />
    <glyph glyph-name="uni00E4" unicode="&#xe4;" horiz-adv-x="1588" 
d="M668 -36q-146 0 -265 55.5t-189 161t-70 255.5q0 132 52 214.5t139 129.5t192.5 70.5t212.5 37.5q140 18 227.5 27.5t128 32.5t40.5 80v8q0 148 -80.5 230t-243.5 82q-169 0 -265 -74t-135 -158l-224 80q60 140 160.5 218.5t220 110t235.5 31.5q74 0 170.5 -17.5
t187 -71.5t150.5 -163t60 -292v-1012h-236v208h-12q-24 -50 -80 -107t-149 -97t-227 -40zM704 176q140 0 236.5 55t146 142t49.5 183v216q-15 -18 -65.5 -32.5t-116 -25t-127 -18t-99.5 -12.5q-92 -12 -171.5 -38.5t-128 -79t-48.5 -142.5q0 -123 91.5 -185.5t232.5 -62.5z
M532 1792q-63 0 -111.5 48.5t-48.5 111.5q0 69 48.5 114.5t111.5 45.5q69 0 114.5 -45.5t45.5 -114.5q0 -63 -45.5 -111.5t-114.5 -48.5zM1108 1792q-63 0 -111.5 48.5t-48.5 111.5q0 69 48.5 114.5t111.5 45.5q69 0 114.5 -45.5t45.5 -114.5q0 -63 -45.5 -111.5
t-114.5 -48.5z" />
    <glyph glyph-name="uni00E5" unicode="&#xe5;" horiz-adv-x="1588" 
d="M668 -36q-146 0 -265 55.5t-189 161t-70 255.5q0 132 52 214.5t139 129.5t192.5 70.5t212.5 37.5q140 18 227.5 27.5t128 32.5t40.5 80v8q0 148 -80.5 230t-243.5 82q-169 0 -265 -74t-135 -158l-224 80q60 140 160.5 218.5t220 110t235.5 31.5q74 0 170.5 -17.5
t187 -71.5t150.5 -163t60 -292v-1012h-236v208h-12q-24 -50 -80 -107t-149 -97t-227 -40zM704 176q140 0 236.5 55t146 142t49.5 183v216q-15 -18 -65.5 -32.5t-116 -25t-127 -18t-99.5 -12.5q-92 -12 -171.5 -38.5t-128 -79t-48.5 -142.5q0 -123 91.5 -185.5t232.5 -62.5z
M820 1708q-102 0 -184.5 45t-131 122t-48.5 173t48.5 176t131 128t184.5 48t183.5 -48t129 -128t47.5 -176t-47.5 -173t-129 -122t-183.5 -45zM820 1860q84 0 138 58t54 130q0 75 -54 135.5t-138 60.5t-138 -60.5t-54 -135.5q0 -72 54 -130t138 -58z" />
    <glyph glyph-name="uni00E6" unicode="&#xe6;" horiz-adv-x="2604" 
d="M1824 -32q-255 0 -424 125.5t-208 326.5l44 764q75 174 217.5 273t346.5 99q120 0 237 -40t213 -129.5t153 -236.5t57 -362v-100h-1184v204h944q0 130 -51.5 232t-146 161t-222.5 59q-141 0 -243.5 -69.5t-157.5 -181t-55 -237.5v-136q0 -174 61 -294.5t169 -183
t250 -62.5q93 0 168.5 26.5t130.5 80t85 133.5l228 -64q-36 -116 -121 -203.5t-210 -136t-281 -48.5zM704 176q140 0 236.5 55t146 142t49.5 183v216q-15 -18 -65.5 -32.5t-116 -25t-127 -18t-99.5 -12.5q-92 -12 -171.5 -38.5t-128 -79t-48.5 -142.5q0 -123 91.5 -185.5
t232.5 -62.5zM668 -36q-146 0 -265 55.5t-189 161t-70 255.5q0 132 52.5 214.5t139 130t192.5 71t212 36.5q140 18 227.5 28t128 33t40.5 79v8q0 147 -81 229.5t-243 82.5q-168 0 -264.5 -74t-135.5 -158l-224 80q60 140 160.5 218.5t220 110t235.5 31.5q62 0 140 -11.5
t157 -45.5t144 -101t99 -178l-92 -940h-20q-30 -86 -112.5 -158t-200 -115t-251.5 -43z" />
    <glyph glyph-name="uni00E7" unicode="&#xe7;" horiz-adv-x="1572" 
d="M840 -32q-216 0 -372 102t-240 281t-84 409q0 234 86.5 413.5t242 281t363.5 101.5q162 0 292 -60t213 -168t103 -252h-236q-27 105 -119.5 186.5t-248.5 81.5q-138 0 -241.5 -71.5t-161 -201t-57.5 -303.5q0 -178 56.5 -310t160 -205t243.5 -73q92 0 167 32t127 92
t74 144h236q-20 -136 -98.5 -244.5t-207 -172t-298.5 -63.5zM728 8h196l-16 -80q78 -12 143 -65.5t65 -170.5q0 -129 -106.5 -210.5t-313.5 -81.5l-8 156q93 0 154.5 29.5t61.5 98.5t-51 94t-165 34z" />
    <glyph glyph-name="uni00E8" unicode="&#xe8;" horiz-adv-x="1640" 
d="M860 -32q-222 0 -382.5 98.5t-247 276t-86.5 413.5t86.5 416.5t242 282t363.5 101.5q120 0 237 -40t213 -129.5t153 -236.5t57 -362v-100h-1184v204h944q0 130 -51.5 232t-146 161t-222.5 59q-141 0 -243.5 -69.5t-157.5 -180.5t-55 -238v-136q0 -174 60.5 -294.5
t168.5 -183t251 -62.5q93 0 168.5 26.5t130.5 80t85 133.5l228 -64q-36 -116 -121 -203.5t-210 -136t-281 -48.5zM724 1744l-312 464h276l244 -464h-208z" />
    <glyph glyph-name="uni00E9" unicode="&#xe9;" horiz-adv-x="1640" 
d="M860 -32q-222 0 -382.5 98.5t-247 276t-86.5 413.5t86.5 416.5t242 282t363.5 101.5q120 0 237 -40t213 -129.5t153 -236.5t57 -362v-100h-1184v204h944q0 130 -51.5 232t-146 161t-222.5 59q-141 0 -243.5 -69.5t-157.5 -180.5t-55 -238v-136q0 -174 60.5 -294.5
t168.5 -183t251 -62.5q93 0 168.5 26.5t130.5 80t85 133.5l228 -64q-36 -116 -121 -203.5t-210 -136t-281 -48.5zM716 1744l244 464h276l-312 -464h-208z" />
    <glyph glyph-name="uni00EA" unicode="&#xea;" horiz-adv-x="1640" 
d="M860 -32q-222 0 -382.5 98.5t-247 276t-86.5 413.5t86.5 416.5t242 282t363.5 101.5q120 0 237 -40t213 -129.5t153 -236.5t57 -362v-100h-1184v204h944q0 130 -51.5 232t-146 161t-222.5 59q-141 0 -243.5 -69.5t-157.5 -180.5t-55 -238v-136q0 -174 60.5 -294.5
t168.5 -183t251 -62.5q93 0 168.5 26.5t130.5 80t85 133.5l228 -64q-36 -116 -121 -203.5t-210 -136t-281 -48.5zM1032 1720l-208 280l-208 -280h-224v16l324 416h216l324 -416v-16h-224z" />
    <glyph glyph-name="uni00EB" unicode="&#xeb;" horiz-adv-x="1640" 
d="M860 -32q-222 0 -382.5 98.5t-247 276t-86.5 413.5t86.5 416.5t242 282t363.5 101.5q120 0 237 -40t213 -129.5t153 -236.5t57 -362v-100h-1184v204h944q0 130 -51.5 232t-146 161t-222.5 59q-141 0 -243.5 -69.5t-157.5 -180.5t-55 -238v-136q0 -174 60.5 -294.5
t168.5 -183t251 -62.5q93 0 168.5 26.5t130.5 80t85 133.5l228 -64q-36 -116 -121 -203.5t-210 -136t-281 -48.5zM536 1792q-63 0 -111.5 48.5t-48.5 111.5q0 69 48.5 114.5t111.5 45.5q69 0 114.5 -45.5t45.5 -114.5q0 -63 -45.5 -111.5t-114.5 -48.5zM1112 1792
q-63 0 -111.5 48.5t-48.5 111.5q0 69 48.5 114.5t111.5 45.5q69 0 114.5 -45.5t45.5 -114.5q0 -63 -45.5 -111.5t-114.5 -48.5z" />
    <glyph glyph-name="uni00EC" unicode="&#xec;" horiz-adv-x="668" 
d="M216 0v1536h236v-1536h-236zM236 1744l-312 464h276l244 -464h-208z" />
    <glyph glyph-name="uni00ED" unicode="&#xed;" horiz-adv-x="668" 
d="M216 0v1536h236v-1536h-236zM228 1744l244 464h276l-312 -464h-208z" />
    <glyph glyph-name="uni00EE" unicode="&#xee;" horiz-adv-x="668" 
d="M216 0v1536h236v-1536h-236zM544 1720l-208 280l-208 -280h-224v16l324 416h216l324 -416v-16h-224z" />
    <glyph glyph-name="uni00EF" unicode="&#xef;" horiz-adv-x="668" 
d="M216 0v1536h236v-1536h-236zM48 1792q-63 0 -111.5 48.5t-48.5 111.5q0 69 48.5 114.5t111.5 45.5q69 0 114.5 -45.5t45.5 -114.5q0 -63 -45.5 -111.5t-114.5 -48.5zM624 1792q-63 0 -111.5 48.5t-48.5 111.5q0 69 48.5 114.5t111.5 45.5q69 0 114.5 -45.5t45.5 -114.5
q0 -63 -45.5 -111.5t-114.5 -48.5z" />
    <glyph glyph-name="uni00F0" unicode="&#xf0;" horiz-adv-x="1632" 
d="M1328 1948l-820 -396l-68 148l820 396zM816 -32q-206 0 -357 95t-233 261t-82 380q0 218 82 384t221 259t309 93q116 0 203 -40t147 -100t94 -120h20q-44 124 -132 270t-241 291t-391 267l104 168q168 -87 332.5 -222t299.5 -314.5t215.5 -402t80.5 -485.5
q0 -248 -84 -423.5t-235 -268t-353 -92.5zM816 180q146 0 245 68t149 183t50 257q0 130 -45 258t-143 213t-256 85q-146 0 -243 -75t-145 -198t-48 -267q0 -136 45 -255.5t141 -194t250 -74.5z" />
    <glyph glyph-name="uni00F1" unicode="&#xf1;" horiz-adv-x="1648" 
d="M452 924v-924h-236v1536h228v-240h20q54 117 164 188.5t284 71.5q156 0 273 -63.5t182 -192t65 -324.5v-976h-236v960q0 181 -94 282.5t-258 101.5q-113 0 -201.5 -49t-139.5 -143t-51 -228zM516 1720l-184 8q0 153 87.5 250.5t216.5 97.5q57 0 101 -19.5t84 -44.5
t82.5 -44.5t96.5 -19.5q57 0 96.5 44.5t39.5 107.5l180 -16q0 -156 -87.5 -248t-216.5 -92q-69 0 -114 19.5t-80 44.5t-74 44.5t-96 19.5t-94.5 -44.5t-37.5 -107.5z" />
    <glyph glyph-name="uni00F2" unicode="&#xf2;" horiz-adv-x="1680" 
d="M840 -32q-208 0 -364.5 99t-244 277t-87.5 416q0 240 87.5 419t244 278t364.5 99t364.5 -99t244 -278t87.5 -419q0 -238 -87.5 -416t-244 -277t-364.5 -99zM840 180q158 0 260 81t151 213t49 286t-49 287t-151 215t-260 82t-260 -82t-151 -215t-49 -287t49 -286t151 -213
t260 -81zM740 1744l-312 464h276l244 -464h-208z" />
    <glyph glyph-name="uni00F3" unicode="&#xf3;" horiz-adv-x="1680" 
d="M840 -32q-208 0 -364.5 99t-244 277t-87.5 416q0 240 87.5 419t244 278t364.5 99t364.5 -99t244 -278t87.5 -419q0 -238 -87.5 -416t-244 -277t-364.5 -99zM840 180q158 0 260 81t151 213t49 286t-49 287t-151 215t-260 82t-260 -82t-151 -215t-49 -287t49 -286t151 -213
t260 -81zM732 1744l244 464h276l-312 -464h-208z" />
    <glyph glyph-name="uni00F4" unicode="&#xf4;" horiz-adv-x="1680" 
d="M840 -32q-208 0 -364.5 99t-244 277t-87.5 416q0 240 87.5 419t244 278t364.5 99t364.5 -99t244 -278t87.5 -419q0 -238 -87.5 -416t-244 -277t-364.5 -99zM840 180q158 0 260 81t151 213t49 286t-49 287t-151 215t-260 82t-260 -82t-151 -215t-49 -287t49 -286t151 -213
t260 -81zM1048 1720l-208 280l-208 -280h-224v16l324 416h216l324 -416v-16h-224z" />
    <glyph glyph-name="uni00F5" unicode="&#xf5;" horiz-adv-x="1680" 
d="M840 -32q-208 0 -364.5 99t-244 277t-87.5 416q0 240 87.5 419t244 278t364.5 99t364.5 -99t244 -278t87.5 -419q0 -238 -87.5 -416t-244 -277t-364.5 -99zM840 180q158 0 260 81t151 213t49 286t-49 287t-151 215t-260 82t-260 -82t-151 -215t-49 -287t49 -286t151 -213
t260 -81zM532 1720l-184 8q0 153 87.5 250.5t216.5 97.5q57 0 101 -19.5t84 -44.5t82.5 -44.5t96.5 -19.5q57 0 96.5 44.5t39.5 107.5l180 -16q0 -156 -87.5 -248t-216.5 -92q-69 0 -114 19.5t-80 44.5t-74 44.5t-96 19.5t-94.5 -44.5t-37.5 -107.5z" />
    <glyph glyph-name="uni00F6" unicode="&#xf6;" horiz-adv-x="1680" 
d="M840 -32q-208 0 -364.5 99t-244 277t-87.5 416q0 240 87.5 419t244 278t364.5 99t364.5 -99t244 -278t87.5 -419q0 -238 -87.5 -416t-244 -277t-364.5 -99zM840 180q158 0 260 81t151 213t49 286t-49 287t-151 215t-260 82t-260 -82t-151 -215t-49 -287t49 -286t151 -213
t260 -81zM552 1792q-63 0 -111.5 48.5t-48.5 111.5q0 69 48.5 114.5t111.5 45.5q69 0 114.5 -45.5t45.5 -114.5q0 -63 -45.5 -111.5t-114.5 -48.5zM1128 1792q-63 0 -111.5 48.5t-48.5 111.5q0 69 48.5 114.5t111.5 45.5q69 0 114.5 -45.5t45.5 -114.5q0 -63 -45.5 -111.5
t-114.5 -48.5z" />
    <glyph glyph-name="uni00F7" unicode="&#xf7;" horiz-adv-x="1856" 
d="M1568 912v-224h-1280v224h1280zM928 104q-75 0 -127.5 52.5t-52.5 127.5q0 72 52.5 124t127.5 52q72 0 124 -52t52 -124q0 -75 -52 -127.5t-124 -52.5zM928 1140q-50 0 -91 24t-65 65t-24 91q0 72 52.5 124t127.5 52q72 0 124 -52t52 -124q0 -75 -52 -127.5t-124 -52.5z
" />
    <glyph glyph-name="uni00F8" unicode="&#xf8;" horiz-adv-x="1680" 
d="M380 -84l-152 104l1072 1588l152 -104zM840 -32q-208 0 -364.5 99t-244 277t-87.5 416q0 240 87.5 419t244 278t364.5 99t364.5 -99t244 -278t87.5 -419q0 -238 -87.5 -416t-244 -277t-364.5 -99zM840 180q158 0 260 81t151 213t49 286t-49 287t-151 215t-260 82
t-260 -82t-151 -215t-49 -287t49 -286t151 -213t260 -81z" />
    <glyph glyph-name="uni00F9" unicode="&#xf9;" horiz-adv-x="1636" 
d="M1184 628v908h236v-1536h-236v260h-16q-54 -117 -168 -198.5t-288 -81.5q-144 0 -256 63.5t-176 192t-64 324.5v976h236v-960q0 -168 94.5 -268t241.5 -100q88 0 179.5 45t154 138t62.5 237zM720 1744l-312 464h276l244 -464h-208z" />
    <glyph glyph-name="uni00FA" unicode="&#xfa;" horiz-adv-x="1636" 
d="M1184 628v908h236v-1536h-236v260h-16q-54 -117 -168 -198.5t-288 -81.5q-144 0 -256 63.5t-176 192t-64 324.5v976h236v-960q0 -168 94.5 -268t241.5 -100q88 0 179.5 45t154 138t62.5 237zM712 1744l244 464h276l-312 -464h-208z" />
    <glyph glyph-name="uni00FB" unicode="&#xfb;" horiz-adv-x="1636" 
d="M1184 628v908h236v-1536h-236v260h-16q-54 -117 -168 -198.5t-288 -81.5q-144 0 -256 63.5t-176 192t-64 324.5v976h236v-960q0 -168 94.5 -268t241.5 -100q88 0 179.5 45t154 138t62.5 237zM1028 1720l-208 280l-208 -280h-224v16l324 416h216l324 -416v-16h-224z" />
    <glyph glyph-name="uni00FC" unicode="&#xfc;" horiz-adv-x="1636" 
d="M1184 628v908h236v-1536h-236v260h-16q-54 -117 -168 -198.5t-288 -81.5q-144 0 -256 63.5t-176 192t-64 324.5v976h236v-960q0 -168 94.5 -268t241.5 -100q88 0 179.5 45t154 138t62.5 237zM532 1792q-63 0 -111.5 48.5t-48.5 111.5q0 69 48.5 114.5t111.5 45.5
q69 0 114.5 -45.5t45.5 -114.5q0 -63 -45.5 -111.5t-114.5 -48.5zM1108 1792q-63 0 -111.5 48.5t-48.5 111.5q0 69 48.5 114.5t111.5 45.5q69 0 114.5 -45.5t45.5 -114.5q0 -63 -45.5 -111.5t-114.5 -48.5z" />
    <glyph glyph-name="uni00FD" unicode="&#xfd;" horiz-adv-x="1568" 
d="M368 -576q-60 0 -107 9.5t-65 18.5l60 208q86 -22 152 -16t117.5 58.5t94.5 169.5l44 120l-568 1544h256l424 -1224h16l424 1224h256l-652 -1760q-44 -119 -109 -197.5t-150.5 -116.5t-192.5 -38zM676 1744l244 464h276l-312 -464h-208z" />
    <glyph glyph-name="uni00FE" unicode="&#xfe;" horiz-adv-x="1716" 
d="M216 2048h236v-876l-60 -388l60 -496v-864h-236v2624zM356 1292h116q26 40 72.5 102.5t134 112t237.5 49.5q194 0 342 -97t231 -275t83 -420q0 -244 -83 -422.5t-230 -276t-339 -97.5q-148 0 -237 49.5t-137 113t-74 105.5h-116v1056zM1336 768q0 162 -49.5 292.5
t-149 207t-249.5 76.5q-144 0 -242 -72.5t-148 -202t-50 -301.5q0 -174 51 -306.5t149 -207t240 -74.5q148 0 247.5 78.5t150 212t50.5 297.5z" />
    <glyph glyph-name="uni00FF" unicode="&#xff;" horiz-adv-x="1568" 
d="M368 -576q-60 0 -107 9.5t-65 18.5l60 208q86 -22 152 -16t117.5 58.5t94.5 169.5l44 120l-568 1544h256l424 -1224h16l424 1224h256l-652 -1760q-44 -119 -109 -197.5t-150.5 -116.5t-192.5 -38zM496 1792q-63 0 -111.5 48.5t-48.5 111.5q0 69 48.5 114.5t111.5 45.5
q69 0 114.5 -45.5t45.5 -114.5q0 -63 -45.5 -111.5t-114.5 -48.5zM1072 1792q-63 0 -111.5 48.5t-48.5 111.5q0 69 48.5 114.5t111.5 45.5q69 0 114.5 -45.5t45.5 -114.5q0 -63 -45.5 -111.5t-114.5 -48.5z" />
    <glyph glyph-name="uni0100" unicode="&#x100;" horiz-adv-x="1904" 
d="M332 0h-260l752 2048h256l752 -2048h-260l-612 1724h-16zM428 800h1048v-220h-1048v220zM1420 2560v-200h-936v200h936z" />
    <glyph glyph-name="uni0101" unicode="&#x101;" horiz-adv-x="1588" 
d="M668 -36q-146 0 -265 55.5t-189 161t-70 255.5q0 132 52 214.5t139 129.5t192.5 70.5t212.5 37.5q140 18 227.5 27.5t128 32.5t40.5 80v8q0 148 -80.5 230t-243.5 82q-169 0 -265 -74t-135 -158l-224 80q60 140 160.5 218.5t220 110t235.5 31.5q74 0 170.5 -17.5
t187 -71.5t150.5 -163t60 -292v-1012h-236v208h-12q-24 -50 -80 -107t-149 -97t-227 -40zM704 176q140 0 236.5 55t146 142t49.5 183v216q-15 -18 -65.5 -32.5t-116 -25t-127 -18t-99.5 -12.5q-92 -12 -171.5 -38.5t-128 -79t-48.5 -142.5q0 -123 91.5 -185.5t232.5 -62.5z
M1288 2048v-200h-936v200h936z" />
    <glyph glyph-name="uni0102" unicode="&#x102;" horiz-adv-x="1904" 
d="M332 0h-260l752 2048h256l752 -2048h-260l-612 1724h-16zM428 800h1048v-220h-1048v220zM1148 2560h220q0 -162 -112 -265t-304 -103q-189 0 -300.5 103t-111.5 265h220q0 -78 43.5 -137t148.5 -59t150.5 59t45.5 137z" />
    <glyph glyph-name="uni0103" unicode="&#x103;" horiz-adv-x="1588" 
d="M668 -36q-146 0 -265 55.5t-189 161t-70 255.5q0 132 52 214.5t139 129.5t192.5 70.5t212.5 37.5q140 18 227.5 27.5t128 32.5t40.5 80v8q0 148 -80.5 230t-243.5 82q-169 0 -265 -74t-135 -158l-224 80q60 140 160.5 218.5t220 110t235.5 31.5q74 0 170.5 -17.5
t187 -71.5t150.5 -163t60 -292v-1012h-236v208h-12q-24 -50 -80 -107t-149 -97t-227 -40zM704 176q140 0 236.5 55t146 142t49.5 183v216q-15 -18 -65.5 -32.5t-116 -25t-127 -18t-99.5 -12.5q-92 -12 -171.5 -38.5t-128 -79t-48.5 -142.5q0 -123 91.5 -185.5t232.5 -62.5z
M1016 2048h220q0 -162 -112 -265t-304 -103q-189 0 -300.5 103t-111.5 265h220q0 -78 43.5 -137t148.5 -59t150.5 59t45.5 137z" />
    <glyph glyph-name="uni0104" unicode="&#x104;" horiz-adv-x="1904" 
d="M332 0h-260l752 2048h256l752 -2048h-260l-612 1724h-16zM428 800h1048v-220h-1048v220zM1644 -600q-123 0 -203.5 67.5t-80.5 196.5q0 74 36 148t116 143t212 129l108 -84q-90 -66 -161 -140t-71 -164q0 -45 22 -70.5t82 -25.5q45 0 80 12t56 24l16 -176
q-33 -21 -86.5 -40.5t-125.5 -19.5z" />
    <glyph glyph-name="uni0105" unicode="&#x105;" horiz-adv-x="1588" 
d="M668 -36q-146 0 -265 55.5t-189 161t-70 255.5q0 132 52 214.5t139 129.5t192.5 70.5t212.5 37.5q140 18 227.5 27.5t128 32.5t40.5 80v8q0 148 -80.5 230t-243.5 82q-169 0 -265 -74t-135 -158l-224 80q60 140 160.5 218.5t220 110t235.5 31.5q74 0 170.5 -17.5
t187 -71.5t150.5 -163t60 -292v-1012h-236v208h-12q-24 -50 -80 -107t-149 -97t-227 -40zM704 176q140 0 236.5 55t146 142t49.5 183v216q-15 -18 -65.5 -32.5t-116 -25t-127 -18t-99.5 -12.5q-92 -12 -171.5 -38.5t-128 -79t-48.5 -142.5q0 -123 91.5 -185.5t232.5 -62.5z
M1184 -600q-123 0 -203.5 67.5t-80.5 196.5q0 74 36 148t116 143t212 129l108 -84q-90 -66 -161 -140t-71 -164q0 -45 22 -70.5t82 -25.5q45 0 80 12t56 24l16 -176q-33 -21 -86.5 -40.5t-125.5 -19.5z" />
    <glyph glyph-name="uni0106" unicode="&#x106;" horiz-adv-x="2048" 
d="M1896 1408h-248q-22 107 -76.5 188t-132 136.5t-171.5 83.5t-196 28q-186 0 -336.5 -94t-239 -277t-88.5 -449t88.5 -449t239 -277t336.5 -94q102 0 196 28t171.5 83.5t132 137t76.5 187.5h248q-28 -157 -102 -281t-184 -210.5t-246.5 -131.5t-291.5 -45q-262 0 -466 128
t-321 364t-117 560t117 560t321 364t466 128q155 0 291.5 -45t246.5 -131.5t184 -210t102 -281.5zM964 2256l244 464h276l-312 -464h-208z" />
    <glyph glyph-name="uni0107" unicode="&#x107;" horiz-adv-x="1572" 
d="M840 -32q-216 0 -372 102t-240 281t-84 409q0 234 86.5 413.5t242 281t363.5 101.5q162 0 292 -60t213 -168t103 -252h-236q-27 105 -119.5 186.5t-248.5 81.5q-138 0 -241.5 -71.5t-161 -201t-57.5 -303.5q0 -178 56.5 -310t160 -205t243.5 -73q92 0 167 32t127 92
t74 144h236q-20 -136 -98.5 -244.5t-207 -172t-298.5 -63.5zM724 1744l244 464h276l-312 -464h-208z" />
    <glyph glyph-name="uni0108" unicode="&#x108;" horiz-adv-x="2048" 
d="M1896 1408h-248q-22 107 -76.5 188t-132 136.5t-171.5 83.5t-196 28q-186 0 -336.5 -94t-239 -277t-88.5 -449t88.5 -449t239 -277t336.5 -94q102 0 196 28t171.5 83.5t132 137t76.5 187.5h248q-28 -157 -102 -281t-184 -210.5t-246.5 -131.5t-291.5 -45q-262 0 -466 128
t-321 364t-117 560t117 560t321 364t466 128q155 0 291.5 -45t246.5 -131.5t184 -210t102 -281.5zM1280 2232l-208 280l-208 -280h-224v16l324 416h216l324 -416v-16h-224z" />
    <glyph glyph-name="uni0109" unicode="&#x109;" horiz-adv-x="1572" 
d="M840 -32q-216 0 -372 102t-240 281t-84 409q0 234 86.5 413.5t242 281t363.5 101.5q162 0 292 -60t213 -168t103 -252h-236q-27 105 -119.5 186.5t-248.5 81.5q-138 0 -241.5 -71.5t-161 -201t-57.5 -303.5q0 -178 56.5 -310t160 -205t243.5 -73q92 0 167 32t127 92
t74 144h236q-20 -136 -98.5 -244.5t-207 -172t-298.5 -63.5zM1040 1720l-208 280l-208 -280h-224v16l324 416h216l324 -416v-16h-224z" />
    <glyph glyph-name="uni010A" unicode="&#x10a;" horiz-adv-x="2048" 
d="M1896 1408h-248q-22 107 -76.5 188t-132 136.5t-171.5 83.5t-196 28q-186 0 -336.5 -94t-239 -277t-88.5 -449t88.5 -449t239 -277t336.5 -94q102 0 196 28t171.5 83.5t132 137t76.5 187.5h248q-28 -157 -102 -281t-184 -210.5t-246.5 -131.5t-291.5 -45q-262 0 -466 128
t-321 364t-117 560t117 560t321 364t466 128q155 0 291.5 -45t246.5 -131.5t184 -210t102 -281.5zM1072 2304q-69 0 -118.5 47t-49.5 113t49.5 113t118.5 47t118.5 -47t49.5 -113t-49.5 -113t-118.5 -47z" />
    <glyph glyph-name="uni010B" unicode="&#x10b;" horiz-adv-x="1572" 
d="M840 -32q-216 0 -372 102t-240 281t-84 409q0 234 86.5 413.5t242 281t363.5 101.5q162 0 292 -60t213 -168t103 -252h-236q-27 105 -119.5 186.5t-248.5 81.5q-138 0 -241.5 -71.5t-161 -201t-57.5 -303.5q0 -178 56.5 -310t160 -205t243.5 -73q92 0 167 32t127 92
t74 144h236q-20 -136 -98.5 -244.5t-207 -172t-298.5 -63.5zM832 1792q-69 0 -118.5 47t-49.5 113t49.5 113t118.5 47t118.5 -47t49.5 -113t-49.5 -113t-118.5 -47z" />
    <glyph glyph-name="uni010C" unicode="&#x10c;" horiz-adv-x="2048" 
d="M1896 1408h-248q-22 107 -76.5 188t-132 136.5t-171.5 83.5t-196 28q-186 0 -336.5 -94t-239 -277t-88.5 -449t88.5 -449t239 -277t336.5 -94q102 0 196 28t171.5 83.5t132 137t76.5 187.5h248q-28 -157 -102 -281t-184 -210.5t-246.5 -131.5t-291.5 -45q-262 0 -466 128
t-321 364t-117 560t117 560t321 364t466 128q155 0 291.5 -45t246.5 -131.5t184 -210t102 -281.5zM864 2664l208 -280l208 280h224v-16l-324 -416h-216l-324 416v16h224z" />
    <glyph glyph-name="uni010D" unicode="&#x10d;" horiz-adv-x="1572" 
d="M840 -32q-216 0 -372 102t-240 281t-84 409q0 234 86.5 413.5t242 281t363.5 101.5q162 0 292 -60t213 -168t103 -252h-236q-27 105 -119.5 186.5t-248.5 81.5q-138 0 -241.5 -71.5t-161 -201t-57.5 -303.5q0 -178 56.5 -310t160 -205t243.5 -73q92 0 167 32t127 92
t74 144h236q-20 -136 -98.5 -244.5t-207 -172t-298.5 -63.5zM624 2152l208 -280l208 280h224v-16l-324 -416h-216l-324 416v16h224z" />
    <glyph glyph-name="uni010E" unicode="&#x10e;" horiz-adv-x="2024" 
d="M880 0h-632v2048h660q298 0 510 -122.5t325 -351t113 -546.5q0 -320 -114 -550.5t-332 -354t-530 -123.5zM496 220h368q254 0 421 98t249 279t82 431q0 248 -81 427.5t-242 276t-401 96.5h-396v-1608zM640 2664l208 -280l208 280h224v-16l-324 -416h-216l-324 416v16h224
z" />
    <glyph glyph-name="uni010F" unicode="&#x10f;" horiz-adv-x="1906" 
d="M796 -32q-192 0 -339 97.5t-230 276t-83 422.5q0 242 83 420t231 275t342 97q150 0 237.5 -49.5t134 -112t72.5 -102.5h20v756h236v-2048h-228v236h-28q-26 -42 -74 -105.5t-137 -113t-237 -49.5zM828 180q142 0 240 74.5t149 207t51 306.5q0 172 -50 301.5t-148 202
t-242 72.5q-150 0 -249.5 -76.5t-149 -207t-49.5 -292.5q0 -164 50.5 -297.5t150 -212t247.5 -78.5zM1696 1626v518h242l-70 -518h-172z" />
    <glyph glyph-name="uni0110" unicode="&#x110;" horiz-adv-x="2024" 
d="M880 0h-492v220h476q254 0 421 98t249 279t82 431q0 248 -81 427.5t-242 276t-401 96.5h-516v220h532q298 0 510 -122.5t325 -351t113 -546.5q0 -320 -114 -550.5t-332 -354t-530 -123.5zM496 2048v-2048h-248v2048h248zM-68 964v184h880v-184h-880z" />
    <glyph glyph-name="uni0111" unicode="&#x111;" horiz-adv-x="1748" 
d="M796 -32q-192 0 -339 97.5t-230 276t-83 422.5q0 242 83 420t231 275t342 97q150 0 237.5 -49.5t134 -112t72.5 -102.5h20v756h236v-2048h-228v236h-28q-26 -42 -74 -105.5t-137 -113t-237 -49.5zM828 180q142 0 240 74.5t149 207t51 306.5q0 172 -50 301.5t-148 202
t-242 72.5q-150 0 -249.5 -76.5t-149 -207t-49.5 -292.5q0 -164 50.5 -297.5t150 -212t247.5 -78.5zM840 1668v184h880v-184h-880z" />
    <glyph glyph-name="uni0112" unicode="&#x112;" horiz-adv-x="1684" 
d="M248 0v2048h1236v-220h-988v-692h924v-220h-924v-696h1004v-220h-1252zM1332 2560v-200h-936v200h936z" />
    <glyph glyph-name="uni0113" unicode="&#x113;" horiz-adv-x="1640" 
d="M860 -32q-222 0 -382.5 98.5t-247 276t-86.5 413.5t86.5 416.5t242 282t363.5 101.5q120 0 237 -40t213 -129.5t153 -236.5t57 -362v-100h-1184v204h944q0 130 -51.5 232t-146 161t-222.5 59q-141 0 -243.5 -69.5t-157.5 -180.5t-55 -238v-136q0 -174 60.5 -294.5
t168.5 -183t251 -62.5q93 0 168.5 26.5t130.5 80t85 133.5l228 -64q-36 -116 -121 -203.5t-210 -136t-281 -48.5zM1292 2048v-200h-936v200h936z" />
    <glyph glyph-name="uni0114" unicode="&#x114;" horiz-adv-x="1684" 
d="M248 0v2048h1236v-220h-988v-692h924v-220h-924v-696h1004v-220h-1252zM1060 2560h220q0 -162 -112 -265t-304 -103q-189 0 -300.5 103t-111.5 265h220q0 -78 43.5 -137t148.5 -59t150.5 59t45.5 137z" />
    <glyph glyph-name="uni0115" unicode="&#x115;" horiz-adv-x="1640" 
d="M860 -32q-222 0 -382.5 98.5t-247 276t-86.5 413.5t86.5 416.5t242 282t363.5 101.5q120 0 237 -40t213 -129.5t153 -236.5t57 -362v-100h-1184v204h944q0 130 -51.5 232t-146 161t-222.5 59q-141 0 -243.5 -69.5t-157.5 -180.5t-55 -238v-136q0 -174 60.5 -294.5
t168.5 -183t251 -62.5q93 0 168.5 26.5t130.5 80t85 133.5l228 -64q-36 -116 -121 -203.5t-210 -136t-281 -48.5zM1020 2048h220q0 -162 -112 -265t-304 -103q-189 0 -300.5 103t-111.5 265h220q0 -78 43.5 -137t148.5 -59t150.5 59t45.5 137z" />
    <glyph glyph-name="uni0116" unicode="&#x116;" horiz-adv-x="1684" 
d="M248 0v2048h1236v-220h-988v-692h924v-220h-924v-696h1004v-220h-1252zM864 2304q-69 0 -118.5 47t-49.5 113t49.5 113t118.5 47t118.5 -47t49.5 -113t-49.5 -113t-118.5 -47z" />
    <glyph glyph-name="uni0117" unicode="&#x117;" horiz-adv-x="1640" 
d="M860 -32q-222 0 -382.5 98.5t-247 276t-86.5 413.5t86.5 416.5t242 282t363.5 101.5q120 0 237 -40t213 -129.5t153 -236.5t57 -362v-100h-1184v204h944q0 130 -51.5 232t-146 161t-222.5 59q-141 0 -243.5 -69.5t-157.5 -180.5t-55 -238v-136q0 -174 60.5 -294.5
t168.5 -183t251 -62.5q93 0 168.5 26.5t130.5 80t85 133.5l228 -64q-36 -116 -121 -203.5t-210 -136t-281 -48.5zM824 1792q-69 0 -118.5 47t-49.5 113t49.5 113t118.5 47t118.5 -47t49.5 -113t-49.5 -113t-118.5 -47z" />
    <glyph glyph-name="uni0118" unicode="&#x118;" horiz-adv-x="1684" 
d="M248 0v2048h1236v-220h-988v-692h924v-220h-924v-696h1004v-220h-1252zM1312 -600q-123 0 -203.5 67.5t-80.5 196.5q0 74 36 148t116 143t212 129l108 -84q-90 -66 -161 -140t-71 -164q0 -45 22 -70.5t82 -25.5q45 0 80 12t56 24l16 -176q-33 -21 -86.5 -40.5
t-125.5 -19.5z" />
    <glyph glyph-name="uni0119" unicode="&#x119;" horiz-adv-x="1640" 
d="M860 -32q-222 0 -382.5 98.5t-247 276t-86.5 413.5t86.5 416.5t242 282t363.5 101.5q120 0 237 -40t213 -129.5t153 -236.5t57 -362v-100h-1184v204h944q0 130 -51.5 232t-146 161t-222.5 59q-141 0 -243.5 -69.5t-157.5 -180.5t-55 -238v-136q0 -174 60.5 -294.5
t168.5 -183t251 -62.5q93 0 168.5 26.5t130.5 80t85 133.5l228 -64q-36 -116 -121 -203.5t-210 -136t-281 -48.5zM868 -600q-123 0 -203.5 67.5t-80.5 196.5q0 74 36 148t116 143t212 129l108 -84q-90 -66 -161 -140t-71 -164q0 -45 22 -70.5t82 -25.5q45 0 80 12t56 24
l16 -176q-33 -21 -86.5 -40.5t-125.5 -19.5z" />
    <glyph glyph-name="uni011A" unicode="&#x11a;" horiz-adv-x="1684" 
d="M248 0v2048h1236v-220h-988v-692h924v-220h-924v-696h1004v-220h-1252zM656 2664l208 -280l208 280h224v-16l-324 -416h-216l-324 416v16h224z" />
    <glyph glyph-name="uni011B" unicode="&#x11b;" horiz-adv-x="1640" 
d="M860 -32q-222 0 -382.5 98.5t-247 276t-86.5 413.5t86.5 416.5t242 282t363.5 101.5q120 0 237 -40t213 -129.5t153 -236.5t57 -362v-100h-1184v204h944q0 130 -51.5 232t-146 161t-222.5 59q-141 0 -243.5 -69.5t-157.5 -180.5t-55 -238v-136q0 -174 60.5 -294.5
t168.5 -183t251 -62.5q93 0 168.5 26.5t130.5 80t85 133.5l228 -64q-36 -116 -121 -203.5t-210 -136t-281 -48.5zM616 2152l208 -280l208 280h224v-16l-324 -416h-216l-324 416v16h224z" />
    <glyph glyph-name="uni011C" unicode="&#x11c;" horiz-adv-x="2092" 
d="M1648 1408q-33 101 -86.5 181.5t-127 137.5t-166.5 87t-204 30q-182 0 -331 -94t-237 -277t-88 -449t89 -449t241 -277t342 -94q176 0 310.5 75.5t210 214t75.5 326.5l76 -16h-616v220h780v-220q0 -253 -107.5 -440t-296 -289.5t-432.5 -102.5q-272 0 -477.5 128
t-320 364t-114.5 560q0 243 65.5 437.5t185.5 331.5t284 210t361 73q162 0 302.5 -48.5t251 -137t184.5 -211t102 -271.5h-256zM1272 2232l-208 280l-208 -280h-224v16l324 416h216l324 -416v-16h-224z" />
    <glyph glyph-name="uni011D" unicode="&#x11d;" horiz-adv-x="1716" 
d="M836 -608q-171 0 -294 43.5t-204.5 114t-129.5 150.5l188 132q32 -42 81 -96.5t134.5 -95t224.5 -40.5q186 0 307 90t121 282v312h-20q-26 -42 -73.5 -103.5t-136 -109t-238.5 -47.5q-186 0 -333.5 88t-233 256t-85.5 408q0 236 83 411.5t231 272t342 96.5
q150 0 238.5 -49.5t136 -112t73.5 -102.5h24v244h228v-1580q0 -198 -89.5 -322.5t-240 -183t-334.5 -58.5zM828 236q142 0 240 65t149 187t51 292q0 166 -50 293t-148 199t-242 72q-150 0 -249.5 -76t-149 -204t-49.5 -284q0 -160 50.5 -282.5t150 -192t247.5 -69.5z
M1068 1720l-208 280l-208 -280h-224v16l324 416h216l324 -416v-16h-224z" />
    <glyph glyph-name="uni011E" unicode="&#x11e;" horiz-adv-x="2092" 
d="M1648 1408q-33 101 -86.5 181.5t-127 137.5t-166.5 87t-204 30q-182 0 -331 -94t-237 -277t-88 -449t89 -449t241 -277t342 -94q176 0 310.5 75.5t210 214t75.5 326.5l76 -16h-616v220h780v-220q0 -253 -107.5 -440t-296 -289.5t-432.5 -102.5q-272 0 -477.5 128
t-320 364t-114.5 560q0 243 65.5 437.5t185.5 331.5t284 210t361 73q162 0 302.5 -48.5t251 -137t184.5 -211t102 -271.5h-256zM1260 2560h220q0 -162 -112 -265t-304 -103q-189 0 -300.5 103t-111.5 265h220q0 -78 43.5 -137t148.5 -59t150.5 59t45.5 137z" />
    <glyph glyph-name="uni011F" unicode="&#x11f;" horiz-adv-x="1716" 
d="M836 -608q-171 0 -294 43.5t-204.5 114t-129.5 150.5l188 132q32 -42 81 -96.5t134.5 -95t224.5 -40.5q186 0 307 90t121 282v312h-20q-26 -42 -73.5 -103.5t-136 -109t-238.5 -47.5q-186 0 -333.5 88t-233 256t-85.5 408q0 236 83 411.5t231 272t342 96.5
q150 0 238.5 -49.5t136 -112t73.5 -102.5h24v244h228v-1580q0 -198 -89.5 -322.5t-240 -183t-334.5 -58.5zM828 236q142 0 240 65t149 187t51 292q0 166 -50 293t-148 199t-242 72q-150 0 -249.5 -76t-149 -204t-49.5 -284q0 -160 50.5 -282.5t150 -192t247.5 -69.5z
M1056 2048h220q0 -162 -112 -265t-304 -103q-189 0 -300.5 103t-111.5 265h220q0 -78 43.5 -137t148.5 -59t150.5 59t45.5 137z" />
    <glyph glyph-name="uni0120" unicode="&#x120;" horiz-adv-x="2092" 
d="M1648 1408q-33 101 -86.5 181.5t-127 137.5t-166.5 87t-204 30q-182 0 -331 -94t-237 -277t-88 -449t89 -449t241 -277t342 -94q176 0 310.5 75.5t210 214t75.5 326.5l76 -16h-616v220h780v-220q0 -253 -107.5 -440t-296 -289.5t-432.5 -102.5q-272 0 -477.5 128
t-320 364t-114.5 560q0 243 65.5 437.5t185.5 331.5t284 210t361 73q162 0 302.5 -48.5t251 -137t184.5 -211t102 -271.5h-256zM1064 2304q-69 0 -118.5 47t-49.5 113t49.5 113t118.5 47t118.5 -47t49.5 -113t-49.5 -113t-118.5 -47z" />
    <glyph glyph-name="uni0121" unicode="&#x121;" horiz-adv-x="1716" 
d="M836 -608q-171 0 -294 43.5t-204.5 114t-129.5 150.5l188 132q32 -42 81 -96.5t134.5 -95t224.5 -40.5q186 0 307 90t121 282v312h-20q-26 -42 -73.5 -103.5t-136 -109t-238.5 -47.5q-186 0 -333.5 88t-233 256t-85.5 408q0 236 83 411.5t231 272t342 96.5
q150 0 238.5 -49.5t136 -112t73.5 -102.5h24v244h228v-1580q0 -198 -89.5 -322.5t-240 -183t-334.5 -58.5zM828 236q142 0 240 65t149 187t51 292q0 166 -50 293t-148 199t-242 72q-150 0 -249.5 -76t-149 -204t-49.5 -284q0 -160 50.5 -282.5t150 -192t247.5 -69.5z
M860 1792q-69 0 -118.5 47t-49.5 113t49.5 113t118.5 47t118.5 -47t49.5 -113t-49.5 -113t-118.5 -47z" />
    <glyph glyph-name="uni0122" unicode="&#x122;" horiz-adv-x="2092" 
d="M1648 1408q-33 101 -86.5 181.5t-127 137.5t-166.5 87t-204 30q-182 0 -331 -94t-237 -277t-88 -449t89 -449t241 -277t342 -94q176 0 310.5 75.5t210 214t75.5 326.5l76 -16h-616v220h780v-220q0 -253 -107.5 -440t-296 -289.5t-432.5 -102.5q-272 0 -477.5 128
t-320 364t-114.5 560q0 243 65.5 437.5t185.5 331.5t284 210t361 73q162 0 302.5 -48.5t251 -137t184.5 -211t102 -271.5h-256zM826 -680l112 518h242l-170 -518h-184z" />
    <glyph glyph-name="uni0123" unicode="&#x123;" horiz-adv-x="1716" 
d="M836 -608q-171 0 -294 43.5t-204.5 114t-129.5 150.5l188 132q32 -42 81 -96.5t134.5 -95t224.5 -40.5q186 0 307 90t121 282v312h-20q-26 -42 -73.5 -103.5t-136 -109t-238.5 -47.5q-186 0 -333.5 88t-233 256t-85.5 408q0 236 83 411.5t231 272t342 96.5
q150 0 238.5 -49.5t136 -112t73.5 -102.5h24v244h228v-1580q0 -198 -89.5 -322.5t-240 -183t-334.5 -58.5zM828 236q142 0 240 65t149 187t51 292q0 166 -50 293t-148 199t-242 72q-150 0 -249.5 -76t-149 -204t-49.5 -284q0 -160 50.5 -282.5t150 -192t247.5 -69.5z
M716 1740v176q0 84 32.5 168t80 153t91.5 107l156 -124q-48 -84 -66 -156.5t-18 -159.5v-164h-276z" />
    <glyph glyph-name="uni0124" unicode="&#x124;" horiz-adv-x="2084" 
d="M248 0v2048h248v-912h1092v912h248v-2048h-248v916h-1092v-916h-248zM1260 2236l-208 280l-208 -280h-224v16l324 416h216l324 -416v-16h-224z" />
    <glyph glyph-name="uni0125" unicode="&#x125;" horiz-adv-x="1664" 
d="M452 924v-924h-236v2048h236v-752h20q54 119 162.5 189.5t289.5 70.5q157 0 275 -62.5t183.5 -191t65.5 -326.5v-976h-236v960q0 183 -94.5 283.5t-261.5 100.5q-116 0 -207.5 -49t-144 -143t-52.5 -228zM544 2232l-208 280l-208 -280h-224v16l324 416h216l324 -416v-16
h-224z" />
    <glyph glyph-name="uni0126" unicode="&#x126;" horiz-adv-x="2188" 
d="M2052 1616v-208h-1916v208h1916zM300 0v2048h248v-912h1092v912h248v-2048h-248v916h-1092v-916h-248z" />
    <glyph glyph-name="uni0127" unicode="&#x127;" horiz-adv-x="1664" 
d="M452 924v-924h-236v2048h236v-752h20q54 119 162.5 189.5t289.5 70.5q157 0 275 -62.5t183.5 -191t65.5 -326.5v-976h-236v960q0 183 -94.5 283.5t-261.5 100.5q-116 0 -207.5 -49t-144 -143t-52.5 -228zM-104 1700v184h880v-184h-880z" />
    <glyph glyph-name="uni0128" unicode="&#x128;" horiz-adv-x="1248" 
d="M748 2048v-2048h-248v2048h248zM316 2232l-184 8q0 153 87.5 250.5t216.5 97.5q57 0 101 -19.5t84 -44.5t82.5 -44.5t96.5 -19.5q57 0 96.5 44.5t39.5 107.5l180 -16q0 -156 -87.5 -248t-216.5 -92q-69 0 -114 19.5t-80 44.5t-74 44.5t-96 19.5t-94.5 -44.5t-37.5 -107.5
z" />
    <glyph glyph-name="uni0129" unicode="&#x129;" horiz-adv-x="784" 
d="M276 0v1536h236v-1536h-236zM88 1720l-184 8q0 153 87.5 250.5t216.5 97.5q57 0 101 -19.5t84 -44.5t82.5 -44.5t96.5 -19.5q57 0 96.5 44.5t39.5 107.5l180 -16q0 -156 -87.5 -248t-216.5 -92q-69 0 -114 19.5t-80 44.5t-74 44.5t-96 19.5t-94.5 -44.5t-37.5 -107.5z
" />
    <glyph glyph-name="uni012A" unicode="&#x12a;" horiz-adv-x="744" 
d="M496 2048v-2048h-248v2048h248zM840 2560v-200h-936v200h936z" />
    <glyph glyph-name="uni012B" unicode="&#x12b;" horiz-adv-x="668" 
d="M216 0v1536h236v-1536h-236zM804 2048v-200h-936v200h936z" />
    <glyph glyph-name="uni012C" unicode="&#x12c;" horiz-adv-x="744" 
d="M496 2048v-2048h-248v2048h248zM568 2560h220q0 -162 -112 -265t-304 -103q-189 0 -300.5 103t-111.5 265h220q0 -78 43.5 -137t148.5 -59t150.5 59t45.5 137z" />
    <glyph glyph-name="uni012D" unicode="&#x12d;" horiz-adv-x="668" 
d="M216 0v1536h236v-1536h-236zM532 2048h220q0 -162 -112 -265t-304 -103q-189 0 -300.5 103t-111.5 265h220q0 -78 43.5 -137t148.5 -59t150.5 59t45.5 137z" />
    <glyph glyph-name="uni012E" unicode="&#x12e;" horiz-adv-x="744" 
d="M496 2048v-2048h-248v2048h248zM308 -600q-123 0 -203.5 67.5t-80.5 196.5q0 74 36 148t116 143t212 129l108 -84q-90 -66 -161 -140t-71 -164q0 -45 22 -70.5t82 -25.5q45 0 80 12t56 24l16 -176q-33 -21 -86.5 -40.5t-125.5 -19.5z" />
    <glyph glyph-name="uni012F" unicode="&#x12f;" horiz-adv-x="668" 
d="M216 0v1536h236v-1536h-236zM264 -600q-123 0 -203.5 67.5t-80.5 196.5q0 74 36 148t116 143t212 129l108 -84q-90 -66 -161 -140t-71 -164q0 -45 22 -70.5t82 -25.5q45 0 80 12t56 24l16 -176q-33 -21 -86.5 -40.5t-125.5 -19.5zM336 1792q-69 0 -118.5 47t-49.5 113
t49.5 113t118.5 47t118.5 -47t49.5 -113t-49.5 -113t-118.5 -47z" />
    <glyph glyph-name="uni0130" unicode="&#x130;" horiz-adv-x="744" 
d="M496 2048v-2048h-248v2048h248zM372 2304q-69 0 -118.5 47t-49.5 113t49.5 113t118.5 47t118.5 -47t49.5 -113t-49.5 -113t-118.5 -47z" />
    <glyph glyph-name="uni0131" unicode="&#x131;" horiz-adv-x="668" 
d="M216 0v1536h236v-1536h-236z" />
    <glyph glyph-name="uni0132" unicode="&#x132;" horiz-adv-x="2272" 
d="M496 2048v-2048h-248v2048h248zM1776 2048h248v-1464q0 -196 -72 -333t-203 -208t-309 -71q-168 0 -299 61.5t-206 175.5t-75 271h244q0 -87 43.5 -151.5t119.5 -100.5t173 -36q107 0 182 45t114.5 132.5t39.5 214.5v1464z" />
    <glyph glyph-name="uni0133" unicode="&#x133;" horiz-adv-x="1336" 
d="M216 0v1536h236v-1536h-236zM336 1792q-69 0 -118.5 47t-49.5 113t49.5 113t118.5 47t118.5 -47t49.5 -113t-49.5 -113t-118.5 -47zM884 1536h236v-1648q0 -142 -48.5 -246t-146 -161t-245.5 -57h-24h-24v220h22h22q108 0 158 63.5t50 180.5v1648zM1000 1792
q-69 0 -118.5 47t-49.5 113t49.5 113t118.5 47t118.5 -47t49.5 -113t-49.5 -113t-118.5 -47z" />
    <glyph glyph-name="uni0134" unicode="&#x134;" horiz-adv-x="1528" 
d="M1032 2048h248v-1464q0 -196 -72 -333t-203 -208t-309 -71q-168 0 -299 61.5t-206 175.5t-75 271h244q0 -87 43.5 -151.5t119.5 -100.5t173 -36q107 0 182 45t114.5 132.5t39.5 214.5v1464zM1364 2232l-208 280l-208 -280h-224v16l324 416h216l324 -416v-16h-224z" />
    <glyph glyph-name="uni0135" unicode="&#x135;" horiz-adv-x="668" 
d="M216 1536h236v-1648q0 -142 -48.5 -246t-146 -161t-245.5 -57h-24h-24v220h22h22q108 0 158 63.5t50 180.5v1648zM540 1720l-208 280l-208 -280h-224v16l324 416h216l324 -416v-16h-224z" />
    <glyph glyph-name="uni0136" unicode="&#x136;" horiz-adv-x="1836" 
d="M248 0v2048h248v-1016h24l920 1016h324l-860 -924l860 -1124h-300l-712 952l-256 -288v-664h-248zM686 -680l112 518h242l-170 -518h-184z" />
    <glyph glyph-name="uni0137" unicode="&#x137;" horiz-adv-x="1532" 
d="M436 560l-4 292h48l672 684h292l-716 -724h-20zM216 0v2048h236v-2048h-236zM1192 0l-600 760l168 164l732 -924h-300zM558 -680l112 518h242l-170 -518h-184z" />
    <glyph glyph-name="uni0138" unicode="&#x138;" horiz-adv-x="1776" 
d="M516 1536v-1536h-276v1536h276zM1534 1536l-756 -878h-354l-44 236h274l548 642h332zM1188 0l-572 668l176 196l744 -864h-348z" />
    <glyph glyph-name="uni0139" unicode="&#x139;" horiz-adv-x="1584" 
d="M248 0v2048h248v-1828h952v-220h-1200zM264 2256l244 464h276l-312 -464h-208z" />
    <glyph glyph-name="uni013A" unicode="&#x13a;" horiz-adv-x="668" 
d="M452 2048v-2048h-236v2048h236zM224 2256l244 464h276l-312 -464h-208z" />
    <glyph glyph-name="uni013B" unicode="&#x13b;" horiz-adv-x="1584" 
d="M248 0v2048h248v-1828h952v-220h-1200zM614 -680l112 518h242l-170 -518h-184z" />
    <glyph glyph-name="uni013C" unicode="&#x13c;" horiz-adv-x="668" 
d="M452 2048v-2048h-236v2048h236zM100 -680l112 518h242l-170 -518h-184z" />
    <glyph glyph-name="uni013D" unicode="&#x13d;" horiz-adv-x="1584" 
d="M248 0v2048h248v-1828h952v-220h-1200zM844 1626v518h242l-70 -518h-172z" />
    <glyph glyph-name="uni013E" unicode="&#x13e;" horiz-adv-x="858" 
d="M452 2048v-2048h-236v2048h236zM648 1626v518h242l-70 -518h-172z" />
    <glyph glyph-name="uni013F" unicode="&#x13f;" horiz-adv-x="1584" 
d="M248 0v2048h248v-1828h952v-220h-1200zM972 1012q-69 0 -118.5 47t-49.5 113t49.5 113t118.5 47t118.5 -47t49.5 -113t-49.5 -113t-118.5 -47z" />
    <glyph glyph-name="uni0140" unicode="&#x140;" horiz-adv-x="888" 
d="M452 2048v-2048h-236v2048h236zM748 984q-69 0 -118.5 47t-49.5 113t49.5 113t118.5 47t118.5 -47t49.5 -113t-49.5 -113t-118.5 -47z" />
    <glyph glyph-name="uni0141" unicode="&#x141;" horiz-adv-x="1584" 
d="M872 1280v-180l-812 -256v180zM248 0v2048h248v-1828h952v-220h-1200z" />
    <glyph glyph-name="uni0142" unicode="&#x142;" horiz-adv-x="668" 
d="M672 1280v-176l-676 -256v176zM452 2048v-2048h-236v2048h236z" />
    <glyph glyph-name="uni0143" unicode="&#x143;" horiz-adv-x="2120" 
d="M1872 2048v-2048h-240l-1116 1608h-20v-1608h-248v2048h240l1120 -1612h20v1612h244zM952 2256l244 464h276l-312 -464h-208z" />
    <glyph glyph-name="uni0144" unicode="&#x144;" horiz-adv-x="1648" 
d="M452 924v-924h-236v1536h228v-240h20q54 117 164 188.5t284 71.5q156 0 273 -63.5t182 -192t65 -324.5v-976h-236v960q0 181 -94 282.5t-258 101.5q-113 0 -201.5 -49t-139.5 -143t-51 -228zM716 1744l244 464h276l-312 -464h-208z" />
    <glyph glyph-name="uni0145" unicode="&#x145;" horiz-adv-x="2120" 
d="M1872 2048v-2048h-240l-1116 1608h-20v-1608h-248v2048h240l1120 -1612h20v1612h244zM826 -680l112 518h242l-170 -518h-184z" />
    <glyph glyph-name="uni0146" unicode="&#x146;" horiz-adv-x="1648" 
d="M452 924v-924h-236v1536h228v-240h20q54 117 164 188.5t284 71.5q156 0 273 -63.5t182 -192t65 -324.5v-976h-236v960q0 181 -94 282.5t-258 101.5q-113 0 -201.5 -49t-139.5 -143t-51 -228zM590 -680l112 518h242l-170 -518h-184z" />
    <glyph glyph-name="uni0147" unicode="&#x147;" horiz-adv-x="2120" 
d="M1872 2048v-2048h-240l-1116 1608h-20v-1608h-248v2048h240l1120 -1612h20v1612h244zM852 2664l208 -280l208 280h224v-16l-324 -416h-216l-324 416v16h224z" />
    <glyph glyph-name="uni0148" unicode="&#x148;" horiz-adv-x="1648" 
d="M452 924v-924h-236v1536h228v-240h20q54 117 164 188.5t284 71.5q156 0 273 -63.5t182 -192t65 -324.5v-976h-236v960q0 181 -94 282.5t-258 101.5q-113 0 -201.5 -49t-139.5 -143t-51 -228zM616 2152l208 -280l208 280h224v-16l-324 -416h-216l-324 416v16h224z" />
    <glyph glyph-name="uni014A" unicode="&#x14a;" horiz-adv-x="2120" 
d="M1632 0h240v-164q0 -132 -55.5 -224t-148 -140t-204.5 -48q-36 0 -72.5 1.5t-63.5 10.5v204q15 -3 35 -5.5t41 -2.5q96 0 162 44t66 164v160zM1872 2048v-2048h-240l-1116 1608h-20v-1608h-248v2048h240l1120 -1612h20v1612h244z" />
    <glyph glyph-name="uni014B" unicode="&#x14b;" horiz-adv-x="1648" 
d="M1196 0h236v-164q0 -132 -53.5 -224t-144 -140t-202.5 -48q-36 0 -72.5 1.5t-63.5 10.5v200q15 -3 35 -5.5t41 -2.5q96 0 160 44t64 164v164zM452 924v-924h-236v1536h228v-240h20q54 117 164 188.5t284 71.5q156 0 273 -63.5t182 -192t65 -324.5v-976h-236v960
q0 181 -94 282.5t-258 101.5q-113 0 -201.5 -49t-139.5 -143t-51 -228z" />
    <glyph glyph-name="uni014C" unicode="&#x14c;" horiz-adv-x="2144" 
d="M1976 1024q0 -324 -117 -560t-321 -364t-466 -128t-466 128t-321 364t-117 560t117 560t321 364t466 128t466 -128t321 -364t117 -560zM1736 1024q0 266 -88.5 449t-239 277t-336.5 94t-336.5 -94t-239 -277t-88.5 -449t88.5 -449t239 -277t336.5 -94t336.5 94t239 277
t88.5 449zM1540 2560v-200h-936v200h936z" />
    <glyph glyph-name="uni014D" unicode="&#x14d;" horiz-adv-x="1680" 
d="M840 -32q-208 0 -364.5 99t-244 277t-87.5 416q0 240 87.5 419t244 278t364.5 99t364.5 -99t244 -278t87.5 -419q0 -238 -87.5 -416t-244 -277t-364.5 -99zM840 180q158 0 260 81t151 213t49 286t-49 287t-151 215t-260 82t-260 -82t-151 -215t-49 -287t49 -286t151 -213
t260 -81zM1308 2048v-200h-936v200h936z" />
    <glyph glyph-name="uni014E" unicode="&#x14e;" horiz-adv-x="2144" 
d="M1976 1024q0 -324 -117 -560t-321 -364t-466 -128t-466 128t-321 364t-117 560t117 560t321 364t466 128t466 -128t321 -364t117 -560zM1736 1024q0 266 -88.5 449t-239 277t-336.5 94t-336.5 -94t-239 -277t-88.5 -449t88.5 -449t239 -277t336.5 -94t336.5 94t239 277
t88.5 449zM1268 2560h220q0 -162 -112 -265t-304 -103q-189 0 -300.5 103t-111.5 265h220q0 -78 43.5 -137t148.5 -59t150.5 59t45.5 137z" />
    <glyph glyph-name="uni014F" unicode="&#x14f;" horiz-adv-x="1680" 
d="M840 -32q-208 0 -364.5 99t-244 277t-87.5 416q0 240 87.5 419t244 278t364.5 99t364.5 -99t244 -278t87.5 -419q0 -238 -87.5 -416t-244 -277t-364.5 -99zM840 180q158 0 260 81t151 213t49 286t-49 287t-151 215t-260 82t-260 -82t-151 -215t-49 -287t49 -286t151 -213
t260 -81zM1036 2048h220q0 -162 -112 -265t-304 -103q-189 0 -300.5 103t-111.5 265h220q0 -78 43.5 -137t148.5 -59t150.5 59t45.5 137z" />
    <glyph glyph-name="uni0150" unicode="&#x150;" horiz-adv-x="2144" 
d="M1976 1024q0 -324 -117 -560t-321 -364t-466 -128t-466 128t-321 364t-117 560t117 560t321 364t466 128t466 -128t321 -364t117 -560zM1736 1024q0 266 -88.5 449t-239 277t-336.5 94t-336.5 -94t-239 -277t-88.5 -449t88.5 -449t239 -277t336.5 -94t336.5 94t239 277
t88.5 449zM1132 2216l308 424h264l-364 -424h-208zM720 2216l224 424h260l-296 -424h-188z" />
    <glyph glyph-name="uni0151" unicode="&#x151;" horiz-adv-x="1680" 
d="M840 -32q-208 0 -364.5 99t-244 277t-87.5 416q0 240 87.5 419t244 278t364.5 99t364.5 -99t244 -278t87.5 -419q0 -238 -87.5 -416t-244 -277t-364.5 -99zM840 180q158 0 260 81t151 213t49 286t-49 287t-151 215t-260 82t-260 -82t-151 -215t-49 -287t49 -286t151 -213
t260 -81zM900 1704l308 424h264l-364 -424h-208zM488 1704l224 424h260l-296 -424h-188z" />
    <glyph glyph-name="uni0152" unicode="&#x152;" horiz-adv-x="2684" 
d="M1072 0q-270 0 -473.5 128.5t-317 359t-113.5 536.5q0 308 113.5 538.5t317 358t473.5 127.5h1412v-220h-988v-692h924v-220h-924v-696h1004v-220h-1428zM1248 220v1608h-176q-198 0 -347.5 -100t-233 -281t-83.5 -423q0 -240 83.5 -421t233 -282t347.5 -101h176z" />
    <glyph glyph-name="uni0153" unicode="&#x153;" horiz-adv-x="2788" 
d="M840 -32q-208 0 -364.5 99t-244 277t-87.5 416q0 240 87.5 419t244 278t364.5 99t364.5 -99t244 -278t87.5 -419q0 -238 -87.5 -416t-244 -277t-364.5 -99zM840 180q158 0 260 81t151 213t49 286t-49 287t-151 215t-260 82t-260 -82t-151 -215t-49 -287t49 -286t151 -213
t260 -81zM2016 -32q-222 0 -382.5 98.5t-247 276t-86.5 413.5t86.5 416.5t242 282t363.5 101.5q120 0 237 -40t213 -129.5t153 -236.5t57 -362v-100h-1184v204h944q0 130 -51.5 232t-146 161t-222.5 59q-141 0 -243.5 -69.5t-157.5 -180.5t-55 -238v-136q0 -174 60.5 -294.5
t168.5 -183t251 -62.5q93 0 168.5 26.5t130.5 80t85 133.5l228 -64q-36 -116 -121 -203.5t-210 -136t-281 -48.5z" />
    <glyph glyph-name="uni0154" unicode="&#x154;" horiz-adv-x="1800" 
d="M248 0v2048h692q240 0 394 -81.5t228 -223.5t74 -323t-74 -321t-227 -219.5t-391 -79.5h-560v224h552q164 0 264.5 48t146 136.5t45.5 211.5t-46 215t-147 142.5t-267 50.5h-436v-1828h-248zM1212 920l504 -920h-288l-496 920h280zM780 2256l244 464h276l-312 -464h-208z
" />
    <glyph glyph-name="uni0155" unicode="&#x155;" horiz-adv-x="1048" 
d="M216 0v1536h228v-232h16q42 114 152 185t248 71q26 0 65 -1t59 -3v-240q-12 3 -54.5 9.5t-89.5 6.5q-112 0 -199.5 -46.5t-138 -128t-50.5 -185.5v-972h-236zM472 1744l244 464h276l-312 -464h-208z" />
    <glyph glyph-name="uni0156" unicode="&#x156;" horiz-adv-x="1800" 
d="M248 0v2048h692q240 0 394 -81.5t228 -223.5t74 -323t-74 -321t-227 -219.5t-391 -79.5h-560v224h552q164 0 264.5 48t146 136.5t45.5 211.5t-46 215t-147 142.5t-267 50.5h-436v-1828h-248zM1212 920l504 -920h-288l-496 920h280zM690 -680l112 518h242l-170 -518h-184z
" />
    <glyph glyph-name="uni0157" unicode="&#x157;" horiz-adv-x="1048" 
d="M216 0v1536h228v-232h16q42 114 152 185t248 71q26 0 65 -1t59 -3v-240q-12 3 -54.5 9.5t-89.5 6.5q-112 0 -199.5 -46.5t-138 -128t-50.5 -185.5v-972h-236zM98 -680l112 518h242l-170 -518h-184z" />
    <glyph glyph-name="uni0158" unicode="&#x158;" horiz-adv-x="1800" 
d="M248 0v2048h692q240 0 394 -81.5t228 -223.5t74 -323t-74 -321t-227 -219.5t-391 -79.5h-560v224h552q164 0 264.5 48t146 136.5t45.5 211.5t-46 215t-147 142.5t-267 50.5h-436v-1828h-248zM1212 920l504 -920h-288l-496 920h280zM680 2664l208 -280l208 280h224v-16
l-324 -416h-216l-324 416v16h224z" />
    <glyph glyph-name="uni0159" unicode="&#x159;" horiz-adv-x="1048" 
d="M216 0v1536h228v-232h16q42 114 152 185t248 71q26 0 65 -1t59 -3v-240q-12 3 -54.5 9.5t-89.5 6.5q-112 0 -199.5 -46.5t-138 -128t-50.5 -185.5v-972h-236zM372 2152l208 -280l208 280h224v-16l-324 -416h-216l-324 416v16h224z" />
    <glyph glyph-name="uni015A" unicode="&#x15a;" horiz-adv-x="1796" 
d="M1368 1536q-18 152 -146 236t-314 84q-136 0 -237.5 -44t-158 -121t-56.5 -175q0 -82 39.5 -140.5t101.5 -97t130 -63t125 -39.5l208 -56q80 -21 178.5 -58t189 -100.5t149.5 -162.5t59 -243q0 -166 -86.5 -300t-252 -213t-401.5 -79q-220 0 -380.5 71t-252 198
t-103.5 295h256q10 -116 78.5 -191.5t174 -112t227.5 -36.5q142 0 255 46.5t179 130t66 195.5q0 102 -57 166t-150 104t-201 70l-252 72q-240 69 -380 197t-140 335q0 172 93.5 300.5t252 200t354.5 71.5q198 0 352 -70.5t244.5 -192.5t95.5 -277h-240zM788 2256l244 464
h276l-312 -464h-208z" />
    <glyph glyph-name="uni015B" unicode="&#x15b;" horiz-adv-x="1472" 
d="M1304 1192l-212 -60q-20 53 -58.5 103.5t-104.5 83.5t-169 33q-141 0 -234.5 -64.5t-93.5 -163.5q0 -88 64 -139t200 -85l228 -56q206 -50 307 -152.5t101 -263.5q0 -132 -75.5 -236t-210.5 -164t-314 -60q-235 0 -389 102t-195 298l224 56q32 -124 121.5 -186t234.5 -62
q165 0 262.5 70.5t97.5 169.5q0 80 -56 134.5t-172 81.5l-256 60q-211 50 -309.5 155.5t-98.5 264.5q0 130 73.5 230t201 157t289.5 57q228 0 358.5 -100t185.5 -264zM652 1744l244 464h276l-312 -464h-208z" />
    <glyph glyph-name="uni015C" unicode="&#x15c;" horiz-adv-x="1796" 
d="M1368 1536q-18 152 -146 236t-314 84q-136 0 -237.5 -44t-158 -121t-56.5 -175q0 -82 39.5 -140.5t101.5 -97t130 -63t125 -39.5l208 -56q80 -21 178.5 -58t189 -100.5t149.5 -162.5t59 -243q0 -166 -86.5 -300t-252 -213t-401.5 -79q-220 0 -380.5 71t-252 198
t-103.5 295h256q10 -116 78.5 -191.5t174 -112t227.5 -36.5q142 0 255 46.5t179 130t66 195.5q0 102 -57 166t-150 104t-201 70l-252 72q-240 69 -380 197t-140 335q0 172 93.5 300.5t252 200t354.5 71.5q198 0 352 -70.5t244.5 -192.5t95.5 -277h-240zM1104 2232l-208 280
l-208 -280h-224v16l324 416h216l324 -416v-16h-224z" />
    <glyph glyph-name="uni015D" unicode="&#x15d;" horiz-adv-x="1472" 
d="M1304 1192l-212 -60q-20 53 -58.5 103.5t-104.5 83.5t-169 33q-141 0 -234.5 -64.5t-93.5 -163.5q0 -88 64 -139t200 -85l228 -56q206 -50 307 -152.5t101 -263.5q0 -132 -75.5 -236t-210.5 -164t-314 -60q-235 0 -389 102t-195 298l224 56q32 -124 121.5 -186t234.5 -62
q165 0 262.5 70.5t97.5 169.5q0 80 -56 134.5t-172 81.5l-256 60q-211 50 -309.5 155.5t-98.5 264.5q0 130 73.5 230t201 157t289.5 57q228 0 358.5 -100t185.5 -264zM968 1720l-208 280l-208 -280h-224v16l324 416h216l324 -416v-16h-224z" />
    <glyph glyph-name="uni015E" unicode="&#x15e;" horiz-adv-x="1796" 
d="M1368 1536q-18 152 -146 236t-314 84q-136 0 -237.5 -44t-158 -121t-56.5 -175q0 -82 39.5 -140.5t101.5 -97t130 -63t125 -39.5l208 -56q80 -21 178.5 -58t189 -100.5t149.5 -162.5t59 -243q0 -166 -86.5 -300t-252 -213t-401.5 -79q-220 0 -380.5 71t-252 198
t-103.5 295h256q10 -116 78.5 -191.5t174 -112t227.5 -36.5q142 0 255 46.5t179 130t66 195.5q0 102 -57 166t-150 104t-201 70l-252 72q-240 69 -380 197t-140 335q0 172 93.5 300.5t252 200t354.5 71.5q198 0 352 -70.5t244.5 -192.5t95.5 -277h-240zM796 8h196l-16 -80
q78 -12 143 -65.5t65 -170.5q0 -129 -106.5 -210.5t-313.5 -81.5l-8 156q93 0 154.5 29.5t61.5 98.5t-51 94t-165 34z" />
    <glyph glyph-name="uni015F" unicode="&#x15f;" horiz-adv-x="1472" 
d="M1304 1192l-212 -60q-20 53 -58.5 103.5t-104.5 83.5t-169 33q-141 0 -234.5 -64.5t-93.5 -163.5q0 -88 64 -139t200 -85l228 -56q206 -50 307 -152.5t101 -263.5q0 -132 -75.5 -236t-210.5 -164t-314 -60q-235 0 -389 102t-195 298l224 56q32 -124 121.5 -186t234.5 -62
q165 0 262.5 70.5t97.5 169.5q0 80 -56 134.5t-172 81.5l-256 60q-211 50 -309.5 155.5t-98.5 264.5q0 130 73.5 230t201 157t289.5 57q228 0 358.5 -100t185.5 -264zM644 8h196l-16 -80q78 -12 143 -65.5t65 -170.5q0 -129 -106.5 -210.5t-313.5 -81.5l-8 156
q93 0 154.5 29.5t61.5 98.5t-51 94t-165 34z" />
    <glyph glyph-name="uni0160" unicode="&#x160;" horiz-adv-x="1796" 
d="M1368 1536q-18 152 -146 236t-314 84q-136 0 -237.5 -44t-158 -121t-56.5 -175q0 -82 39.5 -140.5t101.5 -97t130 -63t125 -39.5l208 -56q80 -21 178.5 -58t189 -100.5t149.5 -162.5t59 -243q0 -166 -86.5 -300t-252 -213t-401.5 -79q-220 0 -380.5 71t-252 198
t-103.5 295h256q10 -116 78.5 -191.5t174 -112t227.5 -36.5q142 0 255 46.5t179 130t66 195.5q0 102 -57 166t-150 104t-201 70l-252 72q-240 69 -380 197t-140 335q0 172 93.5 300.5t252 200t354.5 71.5q198 0 352 -70.5t244.5 -192.5t95.5 -277h-240zM688 2664l208 -280
l208 280h224v-16l-324 -416h-216l-324 416v16h224z" />
    <glyph glyph-name="uni0161" unicode="&#x161;" horiz-adv-x="1472" 
d="M1304 1192l-212 -60q-20 53 -58.5 103.5t-104.5 83.5t-169 33q-141 0 -234.5 -64.5t-93.5 -163.5q0 -88 64 -139t200 -85l228 -56q206 -50 307 -152.5t101 -263.5q0 -132 -75.5 -236t-210.5 -164t-314 -60q-235 0 -389 102t-195 298l224 56q32 -124 121.5 -186t234.5 -62
q165 0 262.5 70.5t97.5 169.5q0 80 -56 134.5t-172 81.5l-256 60q-211 50 -309.5 155.5t-98.5 264.5q0 130 73.5 230t201 157t289.5 57q228 0 358.5 -100t185.5 -264zM552 2152l208 -280l208 280h224v-16l-324 -416h-216l-324 416v16h224z" />
    <glyph glyph-name="uni0162" unicode="&#x162;" horiz-adv-x="1808" 
d="M136 1828v220h1536v-220h-644v-1828h-248v1828h-644zM832 8h196l-16 -80q78 -12 143 -65.5t65 -170.5q0 -129 -106.5 -210.5t-313.5 -81.5l-8 156q93 0 154.5 29.5t61.5 98.5t-51 94t-165 34z" />
    <glyph glyph-name="uni0163" unicode="&#x163;" horiz-adv-x="1024" 
d="M884 1536v-200h-796v200h796zM320 1904h236v-1464q0 -100 29.5 -149.5t76 -66t98.5 -16.5q39 0 64 4.5t40 7.5l48 -212q-24 -9 -67 -18.5t-109 -9.5q-100 0 -195.5 43t-158 131t-62.5 222v1528zM584 8h196l-16 -80q78 -12 143 -65.5t65 -170.5q0 -129 -106.5 -210.5
t-313.5 -81.5l-8 156q93 0 154.5 29.5t61.5 98.5t-51 94t-165 34z" />
    <glyph glyph-name="uni0164" unicode="&#x164;" horiz-adv-x="1808" 
d="M136 1828v220h1536v-220h-644v-1828h-248v1828h-644zM696 2664l208 -280l208 280h224v-16l-324 -416h-216l-324 416v16h224z" />
    <glyph glyph-name="uni0165" unicode="&#x165;" horiz-adv-x="1024" 
d="M884 1536v-200h-796v200h796zM320 1904h236v-1464q0 -100 29.5 -149.5t76 -66t98.5 -16.5q39 0 64 4.5t40 7.5l48 -212q-24 -9 -67 -18.5t-109 -9.5q-100 0 -195.5 43t-158 131t-62.5 222v1528zM726 1726v518h242l-70 -518h-172z" />
    <glyph glyph-name="uni0166" unicode="&#x166;" horiz-adv-x="1808" 
d="M136 1828v220h1536v-220h-644v-1828h-248v1828h-644zM464 964v184h880v-184h-880z" />
    <glyph glyph-name="uni0167" unicode="&#x167;" horiz-adv-x="1024" 
d="M88 840v184h796v-184h-796zM884 1536v-200h-796v200h796zM320 1904h236v-1464q0 -100 29.5 -149.5t76 -66t98.5 -16.5q39 0 64 4.5t40 7.5l48 -212q-24 -9 -67 -18.5t-109 -9.5q-100 0 -195.5 43t-158 131t-62.5 222v1528z" />
    <glyph glyph-name="uni0168" unicode="&#x168;" horiz-adv-x="2088" 
d="M1592 2048h248v-1356q0 -210 -98.5 -374.5t-277.5 -259t-420 -94.5t-420 94.5t-277.5 259t-98.5 374.5v1356h248v-1336q0 -150 66 -266.5t188.5 -183t293.5 -66.5t294 66.5t188.5 183t65.5 266.5v1336zM736 2232l-184 8q0 153 87.5 250.5t216.5 97.5q57 0 101 -19.5
t84 -44.5t82.5 -44.5t96.5 -19.5q57 0 96.5 44.5t39.5 107.5l180 -16q0 -156 -87.5 -248t-216.5 -92q-69 0 -114 19.5t-80 44.5t-74 44.5t-96 19.5t-94.5 -44.5t-37.5 -107.5z" />
    <glyph glyph-name="uni0169" unicode="&#x169;" horiz-adv-x="1636" 
d="M1184 628v908h236v-1536h-236v260h-16q-54 -117 -168 -198.5t-288 -81.5q-144 0 -256 63.5t-176 192t-64 324.5v976h236v-960q0 -168 94.5 -268t241.5 -100q88 0 179.5 45t154 138t62.5 237zM512 1720l-184 8q0 153 87.5 250.5t216.5 97.5q57 0 101 -19.5t84 -44.5
t82.5 -44.5t96.5 -19.5q57 0 96.5 44.5t39.5 107.5l180 -16q0 -156 -87.5 -248t-216.5 -92q-69 0 -114 19.5t-80 44.5t-74 44.5t-96 19.5t-94.5 -44.5t-37.5 -107.5z" />
    <glyph glyph-name="uni016A" unicode="&#x16a;" horiz-adv-x="2088" 
d="M1592 2048h248v-1356q0 -210 -98.5 -374.5t-277.5 -259t-420 -94.5t-420 94.5t-277.5 259t-98.5 374.5v1356h248v-1336q0 -150 66 -266.5t188.5 -183t293.5 -66.5t294 66.5t188.5 183t65.5 266.5v1336zM1512 2560v-200h-936v200h936z" />
    <glyph glyph-name="uni016B" unicode="&#x16b;" horiz-adv-x="1636" 
d="M1184 628v908h236v-1536h-236v260h-16q-54 -117 -168 -198.5t-288 -81.5q-144 0 -256 63.5t-176 192t-64 324.5v976h236v-960q0 -168 94.5 -268t241.5 -100q88 0 179.5 45t154 138t62.5 237zM1288 2048v-200h-936v200h936z" />
    <glyph glyph-name="uni016C" unicode="&#x16c;" horiz-adv-x="2088" 
d="M1592 2048h248v-1356q0 -210 -98.5 -374.5t-277.5 -259t-420 -94.5t-420 94.5t-277.5 259t-98.5 374.5v1356h248v-1336q0 -150 66 -266.5t188.5 -183t293.5 -66.5t294 66.5t188.5 183t65.5 266.5v1336zM1240 2560h220q0 -162 -112 -265t-304 -103q-189 0 -300.5 103
t-111.5 265h220q0 -78 43.5 -137t148.5 -59t150.5 59t45.5 137z" />
    <glyph glyph-name="uni016D" unicode="&#x16d;" horiz-adv-x="1636" 
d="M1184 628v908h236v-1536h-236v260h-16q-54 -117 -168 -198.5t-288 -81.5q-144 0 -256 63.5t-176 192t-64 324.5v976h236v-960q0 -168 94.5 -268t241.5 -100q88 0 179.5 45t154 138t62.5 237zM1016 2048h220q0 -162 -112 -265t-304 -103q-189 0 -300.5 103t-111.5 265h220
q0 -78 43.5 -137t148.5 -59t150.5 59t45.5 137z" />
    <glyph glyph-name="uni016E" unicode="&#x16e;" horiz-adv-x="2088" 
d="M1592 2048h248v-1356q0 -210 -98.5 -374.5t-277.5 -259t-420 -94.5t-420 94.5t-277.5 259t-98.5 374.5v1356h248v-1336q0 -150 66 -266.5t188.5 -183t293.5 -66.5t294 66.5t188.5 183t65.5 266.5v1336zM1044 2188q-120 0 -205 85t-85 205q0 80 39 146t105 105t146 39
t146 -39t105 -105t39 -146t-39 -146t-105 -105t-146 -39zM1044 2332q62 0 103 42.5t41 103.5t-41 103.5t-103 42.5t-103 -42.5t-41 -103.5t41 -103.5t103 -42.5z" />
    <glyph glyph-name="uni016F" unicode="&#x16f;" horiz-adv-x="1636" 
d="M1184 628v908h236v-1536h-236v260h-16q-54 -117 -168 -198.5t-288 -81.5q-144 0 -256 63.5t-176 192t-64 324.5v976h236v-960q0 -168 94.5 -268t241.5 -100q88 0 179.5 45t154 138t62.5 237zM820 1708q-102 0 -184.5 45t-131 122t-48.5 173t48.5 176t131 128t184.5 48
t183.5 -48t129 -128t47.5 -176t-47.5 -173t-129 -122t-183.5 -45zM820 1860q84 0 138 58t54 130q0 75 -54 135.5t-138 60.5t-138 -60.5t-54 -135.5q0 -72 54 -130t138 -58z" />
    <glyph glyph-name="uni0170" unicode="&#x170;" horiz-adv-x="2088" 
d="M1592 2048h248v-1356q0 -210 -98.5 -374.5t-277.5 -259t-420 -94.5t-420 94.5t-277.5 259t-98.5 374.5v1356h248v-1336q0 -150 66 -266.5t188.5 -183t293.5 -66.5t294 66.5t188.5 183t65.5 266.5v1336zM1104 2216l308 424h264l-364 -424h-208zM692 2216l224 424h260
l-296 -424h-188z" />
    <glyph glyph-name="uni0171" unicode="&#x171;" horiz-adv-x="1636" 
d="M1184 628v908h236v-1536h-236v260h-16q-54 -117 -168 -198.5t-288 -81.5q-144 0 -256 63.5t-176 192t-64 324.5v976h236v-960q0 -168 94.5 -268t241.5 -100q88 0 179.5 45t154 138t62.5 237zM880 1704l308 424h264l-364 -424h-208zM468 1704l224 424h260l-296 -424h-188z
" />
    <glyph glyph-name="uni0172" unicode="&#x172;" horiz-adv-x="2088" 
d="M1592 2048h248v-1356q0 -210 -98.5 -374.5t-277.5 -259t-420 -94.5t-420 94.5t-277.5 259t-98.5 374.5v1356h248v-1336q0 -150 66 -266.5t188.5 -183t293.5 -66.5t294 66.5t188.5 183t65.5 266.5v1336zM1052 -596q-123 0 -203.5 67.5t-80.5 196.5q0 74 36 148t116 143
t212 129l108 -84q-90 -66 -161 -140t-71 -164q0 -45 22 -70.5t82 -25.5q45 0 80 12t56 24l16 -176q-33 -21 -86.5 -40.5t-125.5 -19.5z" />
    <glyph glyph-name="uni0173" unicode="&#x173;" horiz-adv-x="1636" 
d="M1184 628v908h236v-1536h-236v260h-16q-54 -117 -168 -198.5t-288 -81.5q-144 0 -256 63.5t-176 192t-64 324.5v976h236v-960q0 -168 94.5 -268t241.5 -100q88 0 179.5 45t154 138t62.5 237zM1232 -600q-123 0 -203.5 67.5t-80.5 196.5q0 74 36 148t116 143t212 129
l108 -84q-90 -66 -161 -140t-71 -164q0 -45 22 -70.5t82 -25.5q45 0 80 12t56 24l16 -176q-33 -21 -86.5 -40.5t-125.5 -19.5z" />
    <glyph glyph-name="uni0174" unicode="&#x174;" horiz-adv-x="2672" 
d="M620 0l-560 2048h252l428 -1668h20l436 1668h280l436 -1668h20l428 1668h252l-560 -2048h-256l-452 1632h-16l-452 -1632h-256zM1544 2232l-208 280l-208 -280h-224v16l324 416h216l324 -416v-16h-224z" />
    <glyph glyph-name="uni0175" unicode="&#x175;" horiz-adv-x="2288" 
d="M564 0l-468 1536h248l332 -1176h16l328 1176h252l324 -1172h16l332 1172h248l-468 -1536h-232l-336 1180h-24l-336 -1180h-232zM1352 1720l-208 280l-208 -280h-224v16l324 416h216l324 -416v-16h-224z" />
    <glyph glyph-name="uni0176" unicode="&#x176;" horiz-adv-x="1872" 
d="M72 2048h284l568 -956h24l568 956h284l-740 -1204v-844h-248v844zM1144 2232l-208 280l-208 -280h-224v16l324 416h216l324 -416v-16h-224z" />
    <glyph glyph-name="uni0177" unicode="&#x177;" horiz-adv-x="1568" 
d="M368 -576q-60 0 -107 9.5t-65 18.5l60 208q86 -22 152 -16t117.5 58.5t94.5 169.5l44 120l-568 1544h256l424 -1224h16l424 1224h256l-652 -1760q-44 -119 -109 -197.5t-150.5 -116.5t-192.5 -38zM992 1720l-208 280l-208 -280h-224v16l324 416h216l324 -416v-16h-224z
" />
    <glyph glyph-name="uni0178" unicode="&#x178;" horiz-adv-x="1872" 
d="M72 2048h284l568 -956h24l568 956h284l-740 -1204v-844h-248v844zM648 2304q-63 0 -111.5 48.5t-48.5 111.5q0 69 48.5 114.5t111.5 45.5q69 0 114.5 -45.5t45.5 -114.5q0 -63 -45.5 -111.5t-114.5 -48.5zM1224 2304q-63 0 -111.5 48.5t-48.5 111.5q0 69 48.5 114.5
t111.5 45.5q69 0 114.5 -45.5t45.5 -114.5q0 -63 -45.5 -111.5t-114.5 -48.5z" />
    <glyph glyph-name="uni0179" unicode="&#x179;" horiz-adv-x="1760" 
d="M180 0v180l1104 1648h-1116v220h1412v-180l-1104 -1648h1116v-220h-1412zM772 2256l244 464h276l-312 -464h-208z" />
    <glyph glyph-name="uni017A" unicode="&#x17a;" horiz-adv-x="1524" 
d="M172 0v180l872 1120v16h-844v220h1148v-188l-848 -1112v-16h876v-220h-1204zM652 1744l244 464h276l-312 -464h-208z" />
    <glyph glyph-name="uni017B" unicode="&#x17b;" horiz-adv-x="1760" 
d="M180 0v180l1104 1648h-1116v220h1412v-180l-1104 -1648h1116v-220h-1412zM880 2304q-69 0 -118.5 47t-49.5 113t49.5 113t118.5 47t118.5 -47t49.5 -113t-49.5 -113t-118.5 -47z" />
    <glyph glyph-name="uni017C" unicode="&#x17c;" horiz-adv-x="1524" 
d="M172 0v180l872 1120v16h-844v220h1148v-188l-848 -1112v-16h876v-220h-1204zM760 1792q-69 0 -118.5 47t-49.5 113t49.5 113t118.5 47t118.5 -47t49.5 -113t-49.5 -113t-118.5 -47z" />
    <glyph glyph-name="uni017D" unicode="&#x17d;" horiz-adv-x="1760" 
d="M180 0v180l1104 1648h-1116v220h1412v-180l-1104 -1648h1116v-220h-1412zM672 2664l208 -280l208 280h224v-16l-324 -416h-216l-324 416v16h224z" />
    <glyph glyph-name="uni017E" unicode="&#x17e;" horiz-adv-x="1524" 
d="M172 0v180l872 1120v16h-844v220h1148v-188l-848 -1112v-16h876v-220h-1204zM552 2152l208 -280l208 280h224v-16l-324 -416h-216l-324 416v16h224z" />
    <glyph glyph-name="uni017F" unicode="&#x17f;" horiz-adv-x="752" 
d="M316 0h-276v1642q0 162 57.5 273.5t164 169t254.5 57.5q48 0 98 -8t98 -20l-32 -204q-24 6 -54 9t-66 3q-120 0 -182 -74t-62 -206v-1642z" />
    <glyph glyph-name="uni0180" unicode="&#x180;" horiz-adv-x="1748" 
d="M248 0v2048h236v-756h20q26 40 72.5 102.5t134 112t237.5 49.5q194 0 342 -97t231 -275t83 -420q0 -244 -83 -422.5t-230 -276t-339 -97.5q-148 0 -237 49.5t-137 113t-74 105.5h-28v-236h-228zM480 768q0 -174 51 -306.5t149 -207t240 -74.5q148 0 247.5 78.5t150 212
t50.5 297.5q0 162 -49.5 292.5t-149 207t-249.5 76.5q-144 0 -242 -72.5t-148 -202t-50 -301.5zM-72 1668v184h880v-184h-880z" />
    <glyph glyph-name="uni0181" unicode="&#x181;" horiz-adv-x="2260" 
d="M744 1828h-196q-80 0 -118.5 -35.5t-50 -92t-11.5 -120.5v-76h-232v136q0 112 47 204.5t138 148t223 55.5h200v-220zM676 0v2048h716q214 0 353 -73.5t207 -197t68 -273.5q0 -132 -46.5 -218t-122 -136t-163.5 -74v-20q94 -6 189 -66t159 -172t64 -274q0 -154 -70 -277
t-221 -195t-393 -72h-740zM924 220h492q243 0 345.5 94.5t102.5 229.5q0 104 -53 192.5t-151 142t-232 53.5h-504v-712zM924 1148h460q112 0 202.5 44t144 124t53.5 188q0 135 -94 229.5t-298 94.5h-468v-680z" />
    <glyph glyph-name="uni0182" unicode="&#x182;" horiz-adv-x="1840" 
d="M248 0v2048h1236v-220h-988v-640h520q220 0 371.5 -72t230 -203t78.5 -309t-78.5 -314t-230 -213t-371.5 -77h-768zM496 216h520q140 0 237.5 56.5t148 146t50.5 189.5q0 147 -113 253.5t-323 106.5h-520v-752z" />
    <glyph glyph-name="uni0183" unicode="&#x183;" horiz-adv-x="1748" 
d="M1400 2048v-220h-916v-536h20q26 40 72.5 102.5t134 112t237.5 49.5q194 0 342 -97t231 -275t83 -420q0 -244 -83 -422.5t-230 -276t-339 -97.5q-148 0 -237 49.5t-137 113t-74 105.5h-28v-236h-228v2048h1152zM480 768q0 -174 51 -306.5t149 -207t240 -74.5
q148 0 247.5 78.5t150 212t50.5 297.5q0 162 -49.5 292.5t-149 207t-249.5 76.5q-144 0 -242 -72.5t-148 -202t-50 -301.5z" />
    <glyph glyph-name="uni0184" unicode="&#x184;" horiz-adv-x="2012" 
d="M756 2048v-220h-728v220h728zM692 1188h584q220 0 371.5 -72t230 -203t78.5 -309t-78.5 -314t-230 -213t-371.5 -77h-768v2048h248v-1832h520q140 0 237.5 56.5t148 146t50.5 189.5q0 147 -113 253.5t-323 106.5h-584v220z" />
    <glyph glyph-name="uni0185" unicode="&#x185;" horiz-adv-x="1776" 
d="M328 2112h64v-672h-64l-224 280v112zM488 1292h116q26 40 72.5 102.5t134 112t237.5 49.5q194 0 342 -97t231 -275t83 -420q0 -244 -83 -422.5t-230 -276t-339 -97.5q-148 0 -237 49.5t-137 113t-74 105.5h-116v1056zM1468 768q0 162 -49.5 292.5t-149 207t-249.5 76.5
q-144 0 -242 -72.5t-148 -202t-50 -301.5q0 -174 51 -306.5t149 -207t240 -74.5q148 0 247.5 78.5t150 212t50.5 297.5zM348 2048h236v-876l-80 -388l72 -496v-288h-228v2048z" />
    <glyph glyph-name="uni0186" unicode="&#x186;" horiz-adv-x="2048" 
d="M152 640h248q23 -106 77 -187.5t131.5 -137t171.5 -83.5t196 -28q186 0 336.5 94t239 277t88.5 449t-88.5 449t-239 277t-336.5 94q-102 0 -196 -28t-171.5 -83.5t-131.5 -136.5t-77 -188h-248q29 158 102.5 281.5t183.5 210t247 131.5t291 45q262 0 466 -128t321 -364
t117 -560t-117 -560t-321 -364t-466 -128q-154 0 -291 45t-247 131.5t-183.5 210.5t-102.5 281z" />
    <glyph glyph-name="uni0187" unicode="&#x187;" horiz-adv-x="2172" 
d="M1896 1408h-236v256q0 132 53.5 224t144 140t202.5 48q36 0 72.5 -1.5t63.5 -10.5v-200q-15 3 -35 5.5t-41 2.5q-64 0 -114.5 -18.5t-80 -64t-29.5 -125.5v-256zM1896 1408h-248q-22 107 -76.5 188t-132 136.5t-171.5 83.5t-196 28q-186 0 -336.5 -94t-239 -277
t-88.5 -449t88.5 -449t239 -277t336.5 -94q102 0 196 28t171.5 83.5t132 137t76.5 187.5h248q-28 -157 -102 -281t-184 -210.5t-246.5 -131.5t-291.5 -45q-262 0 -466 128t-321 364t-117 560t117 560t321 364t466 128q155 0 291.5 -45t246.5 -131.5t184 -210t102 -281.5z
" />
    <glyph glyph-name="uni0188" unicode="&#x188;" horiz-adv-x="1720" 
d="M1444 1076h-236v200q0 132 53.5 224t144 140t202.5 48q36 0 72.5 -1.5t63.5 -10.5v-200q-15 3 -35 5.5t-41 2.5q-96 0 -160 -44t-64 -164v-200zM840 -32q-216 0 -372 102t-240 281t-84 409q0 234 86.5 413.5t242 281t363.5 101.5q162 0 292 -60t213 -168t103 -252h-236
q-27 105 -119.5 186.5t-248.5 81.5q-138 0 -241.5 -71.5t-161 -201t-57.5 -303.5q0 -178 56.5 -310t160 -205t243.5 -73q92 0 167 32t127 92t74 144h236q-20 -136 -98.5 -244.5t-207 -172t-298.5 -63.5z" />
    <glyph glyph-name="uni0189" unicode="&#x189;" horiz-adv-x="2024" 
d="M880 0h-492v220h476q254 0 421 98t249 279t82 431q0 248 -81 427.5t-242 276t-401 96.5h-516v220h532q298 0 510 -122.5t325 -351t113 -546.5q0 -320 -114 -550.5t-332 -354t-530 -123.5zM496 2048v-2048h-248v2048h248zM-68 964v184h880v-184h-880z" />
    <glyph glyph-name="uni018A" unicode="&#x18a;" horiz-adv-x="2468" 
d="M136 1504v136q0 112 47 204.5t138 148t223 55.5h200v-220h-196q-80 0 -118.5 -35.5t-50 -92t-11.5 -120.5v-76h-232zM1324 0h-632v2048h660q298 0 510 -122.5t325 -351t113 -546.5q0 -320 -114 -550.5t-332 -354t-530 -123.5zM940 220h368q254 0 421 98t249 279t82 431
q0 248 -81 427.5t-242 276t-401 96.5h-396v-1608z" />
    <glyph glyph-name="uni018B" unicode="&#x18b;" horiz-adv-x="1776" 
d="M1612 0h-764q-220 0 -372.5 77t-232 213t-79.5 314t79.5 311t232 207t372.5 74h480v576h-948v232h1232v-2004zM1328 228v736h-480q-213 0 -304.5 -104.5t-91.5 -251.5q0 -100 40 -186.5t127 -140t229 -53.5h480z" />
    <glyph glyph-name="uni018C" unicode="&#x18c;" horiz-adv-x="1748" 
d="M348 2048h948v-220h-948v220zM1500 0h-228v236h-28q-26 -42 -74 -105.5t-137 -113t-237 -49.5q-192 0 -339 97.5t-230 276t-83 422.5q0 242 83 420t231 275t342 97q150 0 237.5 -49.5t134 -112t72.5 -102.5h20v756h236v-2048zM1268 768q0 172 -50 301.5t-148 202
t-242 72.5q-150 0 -249.5 -76.5t-149 -207t-49.5 -292.5q0 -164 50.5 -297.5t150 -212t247.5 -78.5q142 0 240 74.5t149 207t51 306.5z" />
    <glyph glyph-name="uni018D" unicode="&#x18d;" horiz-adv-x="1520" 
d="M1236 -516h-976v212h608q-16 22 -63.5 69t-104 99t-100.5 88q-148 128 -261.5 253.5t-178 260t-64.5 290.5v28q0 228 78.5 402t227 272t358.5 98t359.5 -98t229 -272t79.5 -402v-28q0 -164 -73.5 -303.5t-212 -232t-334.5 -116.5q-21 -3 -27 -3.5t-21 -0.5
q60 -55 123 -111.5t125.5 -113t120.5 -113.5t107 -114v-164zM1152 756v28q0 158 -40.5 283t-127 197t-224.5 72q-136 0 -222.5 -72t-128 -197t-41.5 -283v-28q0 -162 76 -283.5t172 -184.5q27 -9 55.5 -12.5t64.5 -3.5q144 0 236 67.5t136 178t44 238.5z" />
    <glyph glyph-name="uni018E" unicode="&#x18e;" horiz-adv-x="1684" 
d="M1436 2048v-2048h-1236v220h988v692h-924v220h924v696h-1004v220h1252z" />
    <glyph glyph-name="uni018F" unicode="&#x18f;" horiz-adv-x="2032" 
d="M986 -28q-238 0 -417.5 108t-280 313.5t-100.5 498.5v172h1484v-216h-1200v-44q0 -196 63 -330t177.5 -202t269.5 -68q186 0 315 92.5t196 258.5t67 385v160q0 176 -41 313.5t-121.5 232.5t-200 144.5t-277.5 49.5q-73 0 -151.5 -11t-159 -34t-161.5 -59l-68 208
q45 29 108 53t136.5 42t153 27.5t158.5 9.5q279 0 483.5 -119t316.5 -337.5t112 -519.5v-160q0 -277 -105.5 -496t-299 -345.5t-457.5 -126.5z" />
    <glyph glyph-name="uni0190" unicode="&#x190;" horiz-adv-x="1776" 
d="M1112 980h-232q-200 0 -354.5 63.5t-242 183t-87.5 287.5q0 176 93 302t251 193t354 67q202 0 357.5 -67t244 -191t88.5 -294h-284q0 141 -107 230.5t-299 89.5q-136 0 -228 -43t-139 -119.5t-47 -177.5q0 -89 40.5 -168.5t130 -129.5t237.5 -50h224v-176zM880 1100h232
v-172h-224q-144 0 -241 -40t-146 -121t-49 -203q0 -130 57.5 -210t155 -117t217.5 -37q225 0 335.5 104.5t110.5 251.5h284q0 -204 -102 -333t-268 -190t-358 -61q-190 0 -354 59t-265 185t-101 328q0 279 190 417.5t526 138.5z" />
    <glyph glyph-name="uni0191" unicode="&#x191;" horiz-adv-x="1652" 
d="M248 0h248v-164q0 -99 -30 -175.5t-88.5 -129.5t-146 -80t-203.5 -27q-12 0 -21.5 1.5t-54.5 10.5v204q15 -3 35 -5.5t41 -2.5q96 0 158 44t62 164v160zM248 0v2048h1228v-220h-980v-692h888v-220h-888v-916h-248z" />
    <glyph glyph-name="uni0192" unicode="&#x192;" horiz-adv-x="1088" 
d="M912 1488v-204h-280v-1384q0 -231 -113 -353.5t-323 -122.5q-42 0 -79.5 4t-76.5 16l20 216q21 -9 69.5 -12.5t66.5 -3.5q81 0 134.5 68t53.5 188v1384h-248v204h248v152q0 243 121 371.5t307 128.5q57 0 127 -10.5t109 -25.5l-60 -216q-21 6 -48.5 11t-63.5 5
q-120 0 -182 -66t-62 -198v-152h280z" />
    <glyph glyph-name="uni0193" unicode="&#x193;" horiz-adv-x="2176" 
d="M1900 1408h-252l12 216q6 99 34 175.5t78 129.5t123 80t169 27q36 0 72.5 -1.5t63.5 -10.5v-200q-15 3 -35 5.5t-41 2.5q-64 0 -114.5 -18.5t-80 -64t-29.5 -125.5v-216zM1648 1408q-33 101 -86.5 181.5t-127 137.5t-166.5 87t-204 30q-182 0 -331 -94t-237 -277
t-88 -449t89 -449t241 -277t342 -94q176 0 310.5 75.5t210 214t75.5 326.5l76 -16h-616v220h780v-220q0 -253 -107.5 -440t-296 -289.5t-432.5 -102.5q-272 0 -477.5 128t-320 364t-114.5 560q0 243 65.5 437.5t185.5 331.5t284 210t361 73q162 0 302.5 -48.5t251 -137
t184.5 -211t102 -271.5h-256z" />
    <glyph glyph-name="uni0194" unicode="&#x194;" horiz-adv-x="1776" 
d="M28 2048h268l700 -1660q78 -184 137.5 -307t93 -206t33.5 -147q0 -108 -44.5 -183t-128 -114t-199.5 -39q-174 0 -273 87t-99 249q0 41 11.5 86t33.5 99.5t53.5 122.5t71 155t86.5 197l708 1660h268l-816 -1892q-50 -116 -87 -196.5t-57 -136t-20 -95.5q0 -48 33 -80
t87 -32t87 33.5t33 78.5q0 40 -18.5 93.5t-54 134t-87.5 200.5z" />
    <glyph glyph-name="uni0195" unicode="&#x195;" horiz-adv-x="2664" 
d="M216 0v2048h236v-752h20q54 119 162.5 189.5t289.5 70.5q157 0 275 -62.5t183.5 -191t65.5 -326.5v-208h-236v192q0 183 -94.5 283.5t-261.5 100.5q-116 0 -207.5 -49t-144 -143t-52.5 -228v-924h-236zM1724 -28q-142 0 -258.5 66.5t-185 207.5t-68.5 362v160h236v-160
q0 -180 48 -272t116.5 -124t127.5 -32q125 0 232.5 110t173.5 362t66 676v208h236v-208q0 -480 -96 -779t-260 -438t-368 -139z" />
    <glyph glyph-name="uni0196" unicode="&#x196;" horiz-adv-x="728" 
d="M216 2048h236v-1648q0 -112 25 -157t103 -43q42 2 62.5 6.5t37.5 9.5l48 -204q-31 -9 -78 -16.5t-98 -7.5q-168 0 -252 92t-84 256v1712z" />
    <glyph glyph-name="uni0197" unicode="&#x197;" horiz-adv-x="744" 
d="M496 2048v-2048h-248v2048h248zM-68 964v184h880v-184h-880z" />
    <glyph glyph-name="uni0198" unicode="&#x198;" horiz-adv-x="1892" 
d="M248 0v2048h248v-1016h24l812 896q80 88 173 122t187 19t176 -73l-100 -184q-66 42 -134.5 32.5t-145.5 -92.5l-584 -628l860 -1124h-300l-712 952l-256 -288v-664h-248z" />
    <glyph glyph-name="uni0199" unicode="&#x199;" horiz-adv-x="1500" 
d="M1176 0l-540 708l-184 -200v-508h-236v1600h236v-756h20l624 692h300l-604 -656l668 -880h-284zM452 1464h-236v200q0 99 30.5 175.5t85.5 129.5t127.5 80t156.5 27q36 0 72.5 -1.5t63.5 -10.5v-200q-15 3 -35 5.5t-41 2.5q-96 0 -160 -44t-64 -164v-200z" />
    <glyph glyph-name="uni019A" unicode="&#x19a;" horiz-adv-x="668" 
d="M452 2048v-2048h-236v2048h236zM-106 964v184h880v-184h-880z" />
    <glyph glyph-name="uni019B" unicode="&#x19b;" horiz-adv-x="1776" 
d="M944 1952v-236l-676 -256v232zM848 1088l-392 -1088h-304l576 1516l192 -12zM474 2076q152 0 227 -60t117 -168l590 -1524q17 -44 35 -68.5t40.5 -34t52.5 -9.5h25.5h22.5l8 -220q-15 -6 -45 -11t-63 -5q-82 0 -142 17.5t-109 76t-97 182.5l-424 1092l-154 384
q-30 75 -68 101.5t-88 26.5q-13 0 -33 -0.5t-31 -3.5v208q17 6 61 11t75 5z" />
    <glyph glyph-name="uni019C" unicode="&#x19c;" horiz-adv-x="2544" 
d="M2044 292v1756h272v-2048h-260zM2064 692l128 4q0 -208 -57 -371.5t-182 -258t-329 -94.5q-146 0 -256 59t-171 198t-61 379v1440h272v-1440q0 -164 38.5 -252.5t98 -122t123.5 -33.5q148 0 234.5 65.5t124 177t37.5 249.5zM1160 692l128 4q0 -208 -58 -371.5t-184 -258
t-330 -94.5q-148 0 -257.5 60t-170 199t-60.5 377v1440h276v-1440q0 -164 37.5 -252.5t96 -122t122.5 -33.5q148 0 235.5 65.5t126 177t38.5 249.5z" />
    <glyph glyph-name="uni019D" unicode="&#x19d;" horiz-adv-x="2132" 
d="M260 0h248v-164q0 -99 -32 -175.5t-88 -129.5t-130 -80t-158 -27q-36 0 -72.5 1.5t-63.5 10.5v204q15 -3 35 -5.5t41 -2.5q96 0 158 44t62 164v160zM1884 2048v-2048h-240l-1116 1608h-20v-1608h-248v2048h240l1120 -1612h20v1612h244z" />
    <glyph glyph-name="uni019E" unicode="&#x19e;" horiz-adv-x="1648" 
d="M452 924v-924h-236v1536h228v-240h20q54 117 164 188.5t284 71.5q156 0 273 -63.5t182 -192t65 -324.5v-1552h-236v1536q0 180 -93.5 282t-258.5 102q-112 0 -200.5 -49t-140 -143t-51.5 -228z" />
    <glyph glyph-name="uni019F" unicode="&#x19f;" horiz-adv-x="2144" 
d="M1976 1024q0 -324 -117 -560t-321 -364t-466 -128t-466 128t-321 364t-117 560t117 560t321 364t466 128t466 -128t321 -364t117 -560zM1736 1024q0 266 -88.5 449t-239 277t-336.5 94t-336.5 -94t-239 -277t-88.5 -449t88.5 -449t239 -277t336.5 -94t336.5 94t239 277
t88.5 449zM1776 1134v-220h-1408v220h1408z" />
    <glyph glyph-name="uni01A0" unicode="&#x1a0;" horiz-adv-x="2180" 
d="M1904 2196h236q0 -270 -134.5 -417t-401.5 -147v196q156 0 228 97t72 271zM1976 1024q0 -324 -117 -560t-321 -364t-466 -128t-466 128t-321 364t-117 560t117 560t321 364t466 128t466 -128t321 -364t117 -560zM1736 1024q0 266 -88.5 449t-239 277t-336.5 94
t-336.5 -94t-239 -277t-88.5 -449t88.5 -449t239 -277t336.5 -94t336.5 94t239 277t88.5 449z" />
    <glyph glyph-name="uni01A1" unicode="&#x1a1;" horiz-adv-x="1684" 
d="M1464 1652h220q0 -228 -99.5 -362t-348.5 -134v168q100 0 148.5 41t64 115t15.5 172zM840 -32q-208 0 -364.5 99t-244 277t-87.5 416q0 240 87.5 419t244 278t364.5 99t364.5 -99t244 -278t87.5 -419q0 -238 -87.5 -416t-244 -277t-364.5 -99zM840 180q158 0 260 81
t151 213t49 286t-49 287t-151 215t-260 82t-260 -82t-151 -215t-49 -287t49 -286t151 -213t260 -81z" />
    <glyph glyph-name="uni01A2" unicode="&#x1a2;" horiz-adv-x="2432" 
d="M1712 1044v-772q-61 -95 -165.5 -162t-238.5 -102.5t-284 -35.5q-202 0 -361 67t-269.5 192.5t-168 302.5t-57.5 398v172l284 4v-176q0 -231 65.5 -394.5t196.5 -250.5t326 -87q122 0 227.5 35.5t172.5 108.5v700h272zM1712 1776v-756h-272v680q-58 67 -163.5 105.5
t-232.5 38.5q-146 0 -256.5 -46.5t-185 -138.5t-112.5 -228t-38 -315v-160h-284v160q0 225 59.5 403t173.5 302.5t277 189.5t370 65q143 0 272.5 -37t231.5 -104.5t160 -158.5zM2184 2048v-2624h-276v2352l-320 -116v232l384 156h212z" />
    <glyph glyph-name="uni01A3" unicode="&#x1a3;" horiz-adv-x="1776" 
d="M764 192q63 0 110.5 16.5t89.5 43.5v496h276v-560q-54 -64 -126.5 -112.5t-163 -76t-198.5 -27.5q-216 0 -362 103.5t-220 273t-74 367.5v56q0 218 73 396t221 283t374 105q104 0 192.5 -25.5t160 -73t123.5 -113.5v-644h-276v572q-39 30 -90.5 47t-117.5 17
q-150 0 -233.5 -80t-117 -209t-33.5 -275v-56q0 -166 48 -283t136 -179t208 -62zM1680 1536v-2112h-272v1756l-300 -176v348l356 184h216z" />
    <glyph glyph-name="uni01A4" unicode="&#x1a4;" horiz-adv-x="2216" 
d="M368 1504h-232v136q0 112 47 204.5t138 148t223 55.5h824q241 0 394.5 -86.5t227.5 -233.5t74 -328t-73.5 -329t-226.5 -235.5t-392 -87.5h-448v-748h-248v1828h-128q-80 0 -118.5 -35.5t-50 -92t-11.5 -120.5v-76zM924 968h440q165 0 265 57t145.5 154.5t45.5 220.5
t-45.5 220t-146.5 152.5t-268 55.5h-436v-860z" />
    <glyph glyph-name="uni01A5" unicode="&#x1a5;" horiz-adv-x="1716" 
d="M444 1536h-228q0 175 104.5 269.5t287.5 94.5q47 0 83.5 -3.5t52.5 -8.5v-200q-19 4 -39 6t-37 2q-106 0 -165 -41t-59 -119zM216 -576v2112h228v-244h28q26 40 72.5 102.5t134 112t237.5 49.5q194 0 342 -97t231 -275t83 -420q0 -244 -83 -422.5t-230 -276t-339 -97.5
q-148 0 -237 49.5t-137 113t-74 105.5h-20v-812h-236zM448 768q0 -174 51 -306.5t149 -207t240 -74.5q148 0 247.5 78.5t150 212t50.5 297.5q0 162 -49.5 292.5t-149 207t-249.5 76.5q-144 0 -242 -72.5t-148 -202t-50 -301.5z" />
    <glyph glyph-name="uni01A6" unicode="&#x1a6;" horiz-adv-x="2032" 
d="M152 1910v280h288v-280h-288zM152 2050h668q228 0 385 -69.5t238 -204t81 -330.5q0 -138 -55 -251t-159 -193t-250 -120l-76 -28h-608v228h444q140 0 233.5 48.5t140 131t46.5 184.5q0 112 -42.5 195.5t-135 130t-242.5 46.5h-380v-1818h-288v2050zM1576 -496l-748 1408
h300l752 -1392v-16h-304z" />
    <glyph glyph-name="uni01A7" unicode="&#x1a7;" horiz-adv-x="1796" 
d="M428 1536h-240q6 155 96 277t244 192.5t352 70.5q196 0 354.5 -71.5t252 -200t93.5 -300.5q0 -207 -140 -335t-380 -197l-252 -72q-108 -30 -201 -70t-150 -104t-57 -166q0 -112 66 -195.5t179 -130t255 -46.5q122 0 227.5 36.5t174 112t78.5 191.5h256
q-12 -168 -103.5 -295t-252 -198t-380.5 -71q-236 0 -401.5 79t-252 213t-86.5 300q0 144 59 243t149.5 162.5t189.5 100.5t178 58l208 56q76 20 168.5 57.5t160 105t67.5 177.5q0 98 -56.5 175t-158 121t-237.5 44q-124 0 -223.5 -38t-162 -109.5t-74.5 -172.5z" />
    <glyph glyph-name="uni01A8" unicode="&#x1a8;" horiz-adv-x="1472" 
d="M168 1192q56 164 186 264t358 100q162 0 289.5 -57t201 -157t73.5 -230q0 -159 -98 -264.5t-310 -155.5l-256 -60q-228 -53 -228 -216q0 -99 97.5 -169.5t262.5 -70.5q145 0 235 62t121 186l224 -56q-41 -196 -194.5 -298t-389.5 -102q-178 0 -313.5 60t-211 164
t-75.5 236q0 161 101.5 263.5t306.5 152.5l228 56q137 34 200.5 85t63.5 139q0 99 -93.5 163.5t-234.5 64.5q-154 0 -227.5 -70t-104.5 -150z" />
    <glyph glyph-name="uni01A9" unicode="&#x1a9;" horiz-adv-x="1776" 
d="M1576 232v-232h-1296v232h1296zM1512 2004v-232h-1280v232h1280zM1124 1012v-28l-784 -984h-172v208l652 788l-652 796v212h172z" />
    <glyph glyph-name="uni01AA" unicode="&#x1aa;" horiz-adv-x="1520" 
d="M816 1560l276 116v-1772q0 -141 47 -196.5t137 -55.5q18 0 42.5 3t45.5 9v-216q-30 -12 -77 -18t-83 -6q-195 0 -291.5 123t-96.5 357v1656zM156 1676q0 130 63 235.5t169 168t236 62.5q128 0 234.5 -62.5t170 -168t63.5 -235.5q0 -128 -63.5 -234.5t-170 -170
t-234.5 -63.5q-130 0 -236 63.5t-169 170t-63 234.5zM624 1460q58 0 105 24t75 73t28 123q0 108 -60.5 164t-147.5 56q-60 0 -108 -25t-76 -74t-28 -121q0 -111 61 -165.5t151 -54.5z" />
    <glyph glyph-name="uni01AB" unicode="&#x1ab;" horiz-adv-x="1032" 
d="M684 184l236 48v-396q0 -198 -116 -305t-284 -107q-36 0 -72.5 1.5t-63.5 10.5v200q15 -3 35 -5.5t41 -2.5q64 0 114.5 18.5t80 64t29.5 125.5v348zM884 1536v-200h-796v200h796zM320 1904h236v-1464q0 -100 29.5 -149.5t76 -66t98.5 -16.5q39 0 64 4.5t40 7.5l48 -212
q-24 -9 -67 -18.5t-109 -9.5q-100 0 -195.5 43t-158 131t-62.5 222v1528z" />
    <glyph glyph-name="uni01AC" unicode="&#x1ac;" horiz-adv-x="1920" 
d="M1784 2048v-220h-644v-1828h-248v1828h-348q-70 0 -110 -33t-57 -85t-17 -110v-76h-224v120q0 180 109.5 292t298.5 112h1240z" />
    <glyph glyph-name="uni01AD" unicode="&#x1ad;" horiz-adv-x="1008" 
d="M636 1532h-276v202q0 99 34 175t92.5 128t135.5 78.5t162 26.5q30 0 68 -5.5t68 -14.5v-184q-18 6 -39.5 9t-36.5 3q-64 0 -110.5 -20.5t-72 -68t-25.5 -127.5v-202zM908 1488v-204h-816v204h816zM360 1572h276v-1160q0 -123 48 -165.5t108 -42.5q33 0 67.5 6.5t52.5 9.5
v-220q-30 -9 -81 -18.5t-123 -9.5q-94 0 -173 44t-127 141t-48 255v1160z" />
    <glyph glyph-name="uni01AE" unicode="&#x1ae;" horiz-adv-x="1808" 
d="M1028 0v-164q0 -120 72 -156t168 -36h76v-220h-136q-84 0 -161 26.5t-137 78.5t-95 128t-35 175v168h248zM136 1828v220h1536v-220h-644v-1828h-248v1828h-644z" />
    <glyph glyph-name="uni01AF" unicode="&#x1af;" horiz-adv-x="2436" 
d="M2068 2172h232q0 -196 -58.5 -329.5t-188 -202t-341.5 -68.5v196q140 0 217.5 46t108 136t30.5 222zM1592 2048h248v-1356q0 -210 -98.5 -374.5t-277.5 -259t-420 -94.5t-420 94.5t-277.5 259t-98.5 374.5v1356h248v-1336q0 -150 66 -266.5t188.5 -183t293.5 -66.5
t294 66.5t188.5 183t65.5 266.5v1336z" />
    <glyph glyph-name="uni01B0" unicode="&#x1b0;" horiz-adv-x="1752" 
d="M1600 1604h208q0 -152 -40 -254.5t-140 -154t-280 -51.5v164q124 0 176.5 30.5t64 96t11.5 169.5zM1184 628v908h236v-1536h-236v260h-16q-54 -117 -168 -198.5t-288 -81.5q-144 0 -256 63.5t-176 192t-64 324.5v976h236v-960q0 -168 94.5 -268t241.5 -100q88 0 179.5 45
t154 138t62.5 237z" />
    <glyph glyph-name="uni01B1" unicode="&#x1b1;" horiz-adv-x="2144" 
d="M168 968q0 291 115 503t313 341v16h-428v220h728v-280q-132 -56 -243 -171.5t-178 -276t-67 -352.5q0 -214 85 -387t235 -275t344 -102q146 0 267.5 58.5t210 163t137.5 243.5t49 299q0 192 -67 352.5t-178 276t-243 171.5v280h728v-220h-428v-16q198 -126 313 -339.5
t115 -504.5q0 -219 -66.5 -401.5t-187.5 -315.5t-286.5 -206t-363.5 -73t-363.5 73t-286.5 206t-187.5 315.5t-66.5 401.5z" />
    <glyph glyph-name="uni01B2" unicode="&#x1b2;" horiz-adv-x="1776" 
d="M888 -28q-206 0 -371 75t-261 225t-96 376v1400h284v-1400q0 -231 121.5 -339.5t322.5 -108.5t322.5 108.5t121.5 339.5v948q0 135 -58.5 189.5t-165.5 54.5q-18 0 -46 -1.5t-46 -6.5v220q30 9 76 16.5t94 7.5q183 0 308.5 -124.5t125.5 -355.5v-948q0 -226 -102 -376
t-269 -225t-361 -75z" />
    <glyph glyph-name="uni01B3" unicode="&#x1b3;" horiz-adv-x="1988" 
d="M76 2048h284l568 -956h24l448 752q66 111 152.5 168t184 61.5t195.5 -41.5l-64 -200q-72 30 -137 13.5t-119 -105.5l-548 -896v-844h-248v844z" />
    <glyph glyph-name="uni01B4" unicode="&#x1b4;" horiz-adv-x="1770" 
d="M368 -576q-60 0 -107 9.5t-65 18.5l60 208q86 -22 152 -16t117.5 58.5t94.5 169.5l44 120l-568 1544h256l424 -1224h16l392 1132q39 112 96 215.5t142.5 170t209.5 66.5q78 0 146.5 -27t119.5 -69l-64 -164q-39 21 -82.5 36.5t-85.5 15.5q-93 0 -147 -80t-113 -248
l-586 -1584q-66 -179 -179 -265.5t-273 -86.5z" />
    <glyph glyph-name="uni01B5" unicode="&#x1b5;" horiz-adv-x="1760" 
d="M180 0v180l1104 1648h-1116v220h1412v-180l-1104 -1648h1116v-220h-1412zM460 964v184h880v-184h-880z" />
    <glyph glyph-name="uni01B6" unicode="&#x1b6;" horiz-adv-x="1524" 
d="M172 0v180l872 1120v16h-844v220h1148v-188l-848 -1112v-16h876v-220h-1204zM320 676v184h880v-184h-880z" />
    <glyph glyph-name="uni01B7" unicode="&#x1b7;" horiz-adv-x="1920" 
d="M136 88h252q10 -139 87.5 -245t201.5 -165.5t271 -59.5q174 0 301.5 83t197 224.5t69.5 318.5q0 200 -87.5 346t-241.5 226t-355 80h-152v208l684 704v16h-1112v224h1456v-180l-724 -756v-20q228 -10 403 -119.5t274 -296.5t99 -428q0 -186 -58.5 -342t-166.5 -271
t-258 -178t-333 -63q-219 0 -398 88t-288.5 244.5t-121.5 361.5z" />
    <glyph glyph-name="uni01B8" unicode="&#x1b8;" horiz-adv-x="1920" 
d="M1784 88q-11 -205 -121 -361.5t-288.5 -244.5t-398.5 -88q-183 0 -333 63t-258 178t-166.5 271t-58.5 342q0 241 99 428t274.5 296.5t402.5 119.5v20l-724 756v180h1456v-224h-1112v-16l684 -704v-208h-152q-200 0 -354.5 -80t-242 -226t-87.5 -346q0 -177 69.5 -318.5
t197 -224.5t301.5 -83q147 0 271 59.5t202 165.5t87 245h252z" />
    <glyph glyph-name="uni01B9" unicode="&#x1b9;" horiz-adv-x="1768" 
d="M1588 0q-12 -170 -108 -291t-248.5 -185t-335.5 -64q-205 0 -363 78t-247.5 214.5t-89.5 311.5q0 171 83.5 306t226 216.5t318.5 89.5v16l-548 664v180h1212v-220h-872v-16l512 -616v-200h-164q-189 0 -304.5 -59t-167.5 -154.5t-52 -206.5q0 -127 60 -212.5
t162.5 -128.5t229.5 -43q119 0 215.5 36.5t157 108t71.5 175.5h252z" />
    <glyph glyph-name="uni01BA" unicode="&#x1ba;" horiz-adv-x="1520" 
d="M200 1536h1196v-168l-780 -688h-144v172l526 464h-798v220zM400 -182q0 -97 79 -152.5t215 -55.5q85 0 164 24.5t131.5 84t58.5 163.5h272q0 -124 -70.5 -236.5t-207 -184t-334.5 -71.5q-176 0 -306.5 56t-202 156t-71.5 232q0 120 63 207.5t187 148t306 98.5
q122 26 190 54t95 68t27 102q0 78 -65.5 123t-218.5 45h-104l16 220h88q170 0 296 -50t195 -139t69 -207q0 -132 -68 -216t-191 -136t-289 -88q-132 -28 -202 -66.5t-96 -84.5t-26 -95z" />
    <glyph glyph-name="uni01BB" unicode="&#x1bb;" horiz-adv-x="1704" 
d="M212 0v180l676 740q119 130 196 226.5t114.5 182t37.5 179.5q0 108 -51.5 187t-140.5 122t-200 43q-118 0 -205.5 -48.5t-135 -135.5t-47.5 -204h-236q0 180 83 316t226.5 212t322.5 76q180 0 319 -76t218 -205t79 -287q0 -113 -40.5 -220.5t-140 -239t-275.5 -320.5
l-460 -492v-16h952v-220h-1292zM714 964v184h880v-184h-880z" />
    <glyph glyph-name="uni01BC" unicode="&#x1bc;" horiz-adv-x="1680" 
d="M536 2048v-220h-444v220h444zM852 -28q-176 0 -317 70t-226 192t-93 278h240q14 -139 126.5 -229.5t269.5 -90.5q126 0 224.5 59t155 162.5t56.5 234.5q0 134 -58.5 239.5t-160.5 166.5t-233 62q-94 1 -193 -28.5t-163 -75.5l-232 28l124 1008h1064v-220h-856l-72 -604
h12q63 50 158 83t198 33q188 0 335.5 -89.5t232 -244.5t84.5 -354q0 -196 -87.5 -349.5t-240.5 -242t-348 -88.5z" />
    <glyph glyph-name="uni01BD" unicode="&#x1bd;" horiz-adv-x="1520" 
d="M524 648l-236 20l96 820h932v-236h-700l-40 -324q45 30 127.5 55.5t160.5 28.5q166 4 284 -56t181 -177t63 -283q0 -146 -59.5 -264t-189 -187t-339.5 -69q-96 0 -196.5 27t-185.5 82.5t-137.5 139t-52.5 195.5l264 24q0 -111 86.5 -177.5t221.5 -66.5q165 0 240.5 83.5
t75.5 212.5q0 132 -77.5 214t-230.5 82q-117 0 -183 -43.5t-105 -100.5zM544 1488v-236h-416v236h416z" />
    <glyph glyph-name="uni01BE" unicode="&#x1be;" horiz-adv-x="1520" 
d="M1084 396q0 68 -36 114t-93 83t-121 75.5t-121 90.5t-93 128t-36 189v768h276v-760q0 -85 36 -139.5t93 -92.5t121 -73t121 -79t93 -110.5t36 -169.5q0 -132 -72.5 -233t-203 -158t-304.5 -57q-200 0 -337.5 71.5t-208 185t-70.5 239.5h276q4 -104 56 -164.5t129 -86
t155 -25.5q98 0 166 27t103 73t35 104zM1132 1488v-204h-816v204h816z" />
    <glyph glyph-name="uni01BF" unicode="&#x1bf;" horiz-adv-x="1776" 
d="M528 1252v-1824h-276v2108h252zM456 940l-132 -112q17 170 61.5 304.5t120.5 229t184 144.5t250 50q190 0 320 -96t197 -267t67 -397v-68q0 -214 -75 -368t-216.5 -264t-341.5 -191.5t-451 -152.5v220q232 56 414.5 148t288 239t105.5 369v68q0 144 -41.5 265t-128 194
t-222.5 73q-120 0 -201 -54.5t-129 -143t-70 -190.5z" />
    <glyph glyph-name="uni01C0" unicode="&#x1c0;" horiz-adv-x="748" 
d="M484 2048v-2048h-220v2048h220z" />
    <glyph glyph-name="uni01C1" unicode="&#x1c1;" horiz-adv-x="1008" 
d="M408 2048v-2048h-220v2048h220zM780 2048v-2048h-220v2048h220z" />
    <glyph glyph-name="uni01C2" unicode="&#x1c2;" horiz-adv-x="748" 
d="M484 2048v-2048h-220v2048h220zM-70 1280v184h880v-184h-880zM-64 600v184h880v-184h-880z" />
    <glyph glyph-name="uni01C3" unicode="&#x1c3;" horiz-adv-x="784" 
d="M528 2048l-20 -1472h-232l-20 1472h272zM392 -16q-74 0 -127 53t-53 127t53 127t127 53t127 -53t53 -127q0 -49 -24.5 -90t-65 -65.5t-90.5 -24.5z" />
    <glyph glyph-name="uni01C5" unicode="&#x1c5;" horiz-adv-x="3548" 
d="M880 0h-632v2048h660q298 0 510 -122.5t325 -351t113 -546.5q0 -320 -114 -550.5t-332 -354t-530 -123.5zM496 220h368q254 0 421 98t249 279t82 431q0 248 -81 427.5t-242 276t-401 96.5h-396v-1608zM2196 0v180l872 1120v16h-844v220h1148v-188l-848 -1112v-16h876
v-220h-1204zM2576 2152l208 -280l208 280h224v-16l-324 -416h-216l-324 416v16h224z" />
    <glyph glyph-name="uni01C6" unicode="&#x1c6;" horiz-adv-x="2980" 
d="M796 -32q-192 0 -339 97.5t-230 276t-83 422.5q0 242 83 420t231 275t342 97q150 0 237.5 -49.5t134 -112t72.5 -102.5h20v756h236v-2048h-228v236h-28q-26 -42 -74 -105.5t-137 -113t-237 -49.5zM828 180q142 0 240 74.5t149 207t51 306.5q0 172 -50 301.5t-148 202
t-242 72.5q-150 0 -249.5 -76.5t-149 -207t-49.5 -292.5q0 -164 50.5 -297.5t150 -212t247.5 -78.5zM1628 0v180l872 1120v16h-844v220h1148v-188l-848 -1112v-16h876v-220h-1204zM2008 2152l208 -280l208 280h224v-16l-324 -416h-216l-324 416v16h224z" />
    <glyph glyph-name="uni01C7" unicode="&#x1c7;" horiz-adv-x="3112" 
d="M248 0v2048h248v-1828h952v-220h-1200zM2616 2048h248v-1464q0 -196 -72 -333t-203 -208t-309 -71q-168 0 -299 61.5t-206 175.5t-75 271h244q0 -87 43.5 -151.5t119.5 -100.5t173 -36q107 0 182 45t114.5 132.5t39.5 214.5v1464z" />
    <glyph glyph-name="uni01C8" unicode="&#x1c8;" horiz-adv-x="2252" 
d="M248 0v2048h248v-1828h952v-220h-1200zM1800 1536h236v-1648q0 -142 -48.5 -246t-146 -161t-245.5 -57h-24h-24v220h22h22q108 0 158 63.5t50 180.5v1648zM1916 1792q-69 0 -118.5 47t-49.5 113t49.5 113t118.5 47t118.5 -47t49.5 -113t-49.5 -113t-118.5 -47z" />
    <glyph glyph-name="uni01C9" unicode="&#x1c9;" horiz-adv-x="1336" 
d="M452 2048v-2048h-236v2048h236zM884 1536h236v-1648q0 -142 -48.5 -246t-146 -161t-245.5 -57h-24h-24v220h22h22q108 0 158 63.5t50 180.5v1648zM1000 1792q-69 0 -118.5 47t-49.5 113t49.5 113t118.5 47t118.5 -47t49.5 -113t-49.5 -113t-118.5 -47z" />
    <glyph glyph-name="uni01CA" unicode="&#x1ca;" horiz-adv-x="3648" 
d="M1872 2048v-2048h-240l-1116 1608h-20v-1608h-248v2048h240l1120 -1612h20v1612h244zM3152 2048h248v-1464q0 -196 -72 -333t-203 -208t-309 -71q-168 0 -299 61.5t-206 175.5t-75 271h244q0 -87 43.5 -151.5t119.5 -100.5t173 -36q107 0 182 45t114.5 132.5t39.5 214.5
v1464z" />
    <glyph glyph-name="uni01CB" unicode="&#x1cb;" horiz-adv-x="2748" 
d="M1872 2048v-2048h-240l-1116 1608h-20v-1608h-248v2048h240l1120 -1612h20v1612h244zM2296 1536h236v-1648q0 -142 -48.5 -246t-146 -161t-245.5 -57h-24h-24v220h22h22q108 0 158 63.5t50 180.5v1648zM2412 1792q-69 0 -118.5 47t-49.5 113t49.5 113t118.5 47t118.5 -47
t49.5 -113t-49.5 -113t-118.5 -47z" />
    <glyph glyph-name="uni01CC" unicode="&#x1cc;" horiz-adv-x="2316" 
d="M452 924v-924h-236v1536h228v-240h20q54 117 164 188.5t284 71.5q156 0 273 -63.5t182 -192t65 -324.5v-976h-236v960q0 181 -94 282.5t-258 101.5q-113 0 -201.5 -49t-139.5 -143t-51 -228zM1864 1536h236v-1648q0 -142 -48.5 -246t-146 -161t-245.5 -57h-24h-24v220h22
h22q108 0 158 63.5t50 180.5v1648zM1980 1792q-69 0 -118.5 47t-49.5 113t49.5 113t118.5 47t118.5 -47t49.5 -113t-49.5 -113t-118.5 -47z" />
    <glyph glyph-name="uni01CD" unicode="&#x1cd;" horiz-adv-x="1904" 
d="M332 0h-260l752 2048h256l752 -2048h-260l-612 1724h-16zM428 800h1048v-220h-1048v220zM744 2664l208 -280l208 280h224v-16l-324 -416h-216l-324 416v16h224z" />
    <glyph glyph-name="uni01CE" unicode="&#x1ce;" horiz-adv-x="1588" 
d="M668 -36q-146 0 -265 55.5t-189 161t-70 255.5q0 132 52 214.5t139 129.5t192.5 70.5t212.5 37.5q140 18 227.5 27.5t128 32.5t40.5 80v8q0 148 -80.5 230t-243.5 82q-169 0 -265 -74t-135 -158l-224 80q60 140 160.5 218.5t220 110t235.5 31.5q74 0 170.5 -17.5
t187 -71.5t150.5 -163t60 -292v-1012h-236v208h-12q-24 -50 -80 -107t-149 -97t-227 -40zM704 176q140 0 236.5 55t146 142t49.5 183v216q-15 -18 -65.5 -32.5t-116 -25t-127 -18t-99.5 -12.5q-92 -12 -171.5 -38.5t-128 -79t-48.5 -142.5q0 -123 91.5 -185.5t232.5 -62.5z
M612 2152l208 -280l208 280h224v-16l-324 -416h-216l-324 416v16h224z" />
    <glyph glyph-name="uni01CF" unicode="&#x1cf;" horiz-adv-x="744" 
d="M496 2048v-2048h-248v2048h248zM164 2664l208 -280l208 280h224v-16l-324 -416h-216l-324 416v16h224z" />
    <glyph glyph-name="uni01D0" unicode="&#x1d0;" horiz-adv-x="668" 
d="M216 0v1536h236v-1536h-236zM128 2152l208 -280l208 280h224v-16l-324 -416h-216l-324 416v16h224z" />
    <glyph glyph-name="uni01D1" unicode="&#x1d1;" horiz-adv-x="2144" 
d="M1976 1024q0 -324 -117 -560t-321 -364t-466 -128t-466 128t-321 364t-117 560t117 560t321 364t466 128t466 -128t321 -364t117 -560zM1736 1024q0 266 -88.5 449t-239 277t-336.5 94t-336.5 -94t-239 -277t-88.5 -449t88.5 -449t239 -277t336.5 -94t336.5 94t239 277
t88.5 449zM864 2664l208 -280l208 280h224v-16l-324 -416h-216l-324 416v16h224z" />
    <glyph glyph-name="uni01D2" unicode="&#x1d2;" horiz-adv-x="1680" 
d="M840 -32q-208 0 -364.5 99t-244 277t-87.5 416q0 240 87.5 419t244 278t364.5 99t364.5 -99t244 -278t87.5 -419q0 -238 -87.5 -416t-244 -277t-364.5 -99zM840 180q158 0 260 81t151 213t49 286t-49 287t-151 215t-260 82t-260 -82t-151 -215t-49 -287t49 -286t151 -213
t260 -81zM632 2152l208 -280l208 280h224v-16l-324 -416h-216l-324 416v16h224z" />
    <glyph glyph-name="uni01D3" unicode="&#x1d3;" horiz-adv-x="2088" 
d="M1592 2048h248v-1356q0 -210 -98.5 -374.5t-277.5 -259t-420 -94.5t-420 94.5t-277.5 259t-98.5 374.5v1356h248v-1336q0 -150 66 -266.5t188.5 -183t293.5 -66.5t294 66.5t188.5 183t65.5 266.5v1336zM836 2664l208 -280l208 280h224v-16l-324 -416h-216l-324 416v16
h224z" />
    <glyph glyph-name="uni01D4" unicode="&#x1d4;" horiz-adv-x="1636" 
d="M1184 628v908h236v-1536h-236v260h-16q-54 -117 -168 -198.5t-288 -81.5q-144 0 -256 63.5t-176 192t-64 324.5v976h236v-960q0 -168 94.5 -268t241.5 -100q88 0 179.5 45t154 138t62.5 237zM612 2152l208 -280l208 280h224v-16l-324 -416h-216l-324 416v16h224z" />
    <glyph glyph-name="uni01D5" unicode="&#x1d5;" horiz-adv-x="2088" 
d="M1592 2048h248v-1356q0 -210 -98.5 -374.5t-277.5 -259t-420 -94.5t-420 94.5t-277.5 259t-98.5 374.5v1356h248v-1336q0 -150 66 -266.5t188.5 -183t293.5 -66.5t294 66.5t188.5 183t65.5 266.5v1336zM756 2304q-63 0 -111.5 48.5t-48.5 111.5q0 69 48.5 114.5
t111.5 45.5q69 0 114.5 -45.5t45.5 -114.5q0 -63 -45.5 -111.5t-114.5 -48.5zM1332 2304q-63 0 -111.5 48.5t-48.5 111.5q0 69 48.5 114.5t111.5 45.5q69 0 114.5 -45.5t45.5 -114.5q0 -63 -45.5 -111.5t-114.5 -48.5zM1512 3072v-200h-936v200h936z" />
    <glyph glyph-name="uni01D6" unicode="&#x1d6;" horiz-adv-x="1636" 
d="M1184 628v908h236v-1536h-236v260h-16q-54 -117 -168 -198.5t-288 -81.5q-144 0 -256 63.5t-176 192t-64 324.5v976h236v-960q0 -168 94.5 -268t241.5 -100q88 0 179.5 45t154 138t62.5 237zM532 1792q-63 0 -111.5 48.5t-48.5 111.5q0 69 48.5 114.5t111.5 45.5
q69 0 114.5 -45.5t45.5 -114.5q0 -63 -45.5 -111.5t-114.5 -48.5zM1108 1792q-63 0 -111.5 48.5t-48.5 111.5q0 69 48.5 114.5t111.5 45.5q69 0 114.5 -45.5t45.5 -114.5q0 -63 -45.5 -111.5t-114.5 -48.5zM1288 2560v-200h-936v200h936z" />
    <glyph glyph-name="uni01D7" unicode="&#x1d7;" horiz-adv-x="2088" 
d="M1592 2048h248v-1356q0 -210 -98.5 -374.5t-277.5 -259t-420 -94.5t-420 94.5t-277.5 259t-98.5 374.5v1356h248v-1336q0 -150 66 -266.5t188.5 -183t293.5 -66.5t294 66.5t188.5 183t65.5 266.5v1336zM940 2672l292 304h276l-360 -304h-208zM756 2208q-63 0 -111.5 48.5
t-48.5 111.5q0 69 48.5 114.5t111.5 45.5q69 0 114.5 -45.5t45.5 -114.5q0 -63 -45.5 -111.5t-114.5 -48.5zM1332 2208q-63 0 -111.5 48.5t-48.5 111.5q0 69 48.5 114.5t111.5 45.5q69 0 114.5 -45.5t45.5 -114.5q0 -63 -45.5 -111.5t-114.5 -48.5z" />
    <glyph glyph-name="uni01D8" unicode="&#x1d8;" horiz-adv-x="1636" 
d="M1184 628v908h236v-1536h-236v260h-16q-54 -117 -168 -198.5t-288 -81.5q-144 0 -256 63.5t-176 192t-64 324.5v976h236v-960q0 -168 94.5 -268t241.5 -100q88 0 179.5 45t154 138t62.5 237zM532 1792q-63 0 -111.5 48.5t-48.5 111.5q0 69 48.5 114.5t111.5 45.5
q69 0 114.5 -45.5t45.5 -114.5q0 -63 -45.5 -111.5t-114.5 -48.5zM1108 1792q-63 0 -111.5 48.5t-48.5 111.5q0 69 48.5 114.5t111.5 45.5q69 0 114.5 -45.5t45.5 -114.5q0 -63 -45.5 -111.5t-114.5 -48.5zM712 2256l244 464h276l-312 -464h-208z" />
    <glyph glyph-name="uni01D9" unicode="&#x1d9;" horiz-adv-x="2088" 
d="M1592 2048h248v-1356q0 -210 -98.5 -374.5t-277.5 -259t-420 -94.5t-420 94.5t-277.5 259t-98.5 374.5v1356h248v-1336q0 -150 66 -266.5t188.5 -183t293.5 -66.5t294 66.5t188.5 183t65.5 266.5v1336zM564 2417q0 65 40.5 110t115.5 45q78 0 119 -45t41 -111
q0 -63 -40.5 -105.5t-117.5 -42.5q-79 0 -118.5 44t-39.5 105zM1208 2415q0 64 41 108.5t119 44.5q75 0 115.5 -44.5t40.5 -107.5q0 -60 -39 -106t-117 -46t-119 44.5t-41 106.5zM840 2876l200 -172l200 172h236v-24l-352 -300h-168l-348 296v28h232z" />
    <glyph glyph-name="uni01DA" unicode="&#x1da;" horiz-adv-x="1636" 
d="M1184 628v908h236v-1536h-236v260h-16q-54 -117 -168 -198.5t-288 -81.5q-144 0 -256 63.5t-176 192t-64 324.5v976h236v-960q0 -168 94.5 -268t241.5 -100q88 0 179.5 45t154 138t62.5 237zM372 1896q0 60 39 106t117 46t119 -44.5t41 -107.5t-41 -105.5t-119 -42.5
q-75 0 -115.5 42.5t-40.5 105.5zM960 1892q0 63 41 109.5t119 46.5t119 -46.5t41 -109.5q0 -60 -41 -104t-119 -44t-119 44t-41 104zM620 2532l200 -232l200 232h236v-16l-352 -380h-168l-348 380v16h232z" />
    <glyph glyph-name="uni01DB" unicode="&#x1db;" horiz-adv-x="2088" 
d="M1592 2048h248v-1356q0 -210 -98.5 -374.5t-277.5 -259t-420 -94.5t-420 94.5t-277.5 259t-98.5 374.5v1356h248v-1336q0 -150 66 -266.5t188.5 -183t293.5 -66.5t294 66.5t188.5 183t65.5 266.5v1336zM972 2808l176 -312h-176l-252 312h252zM564 2417q0 65 40.5 110
t115.5 45q78 0 119 -45t41 -111q0 -63 -40.5 -105.5t-117.5 -42.5q-79 0 -118.5 44t-39.5 105zM1208 2415q0 64 41 108.5t119 44.5q75 0 115.5 -44.5t40.5 -107.5q0 -60 -39 -106t-117 -46t-119 44.5t-41 106.5z" />
    <glyph glyph-name="uni01DC" unicode="&#x1dc;" horiz-adv-x="1636" 
d="M1184 628v908h236v-1536h-236v260h-16q-54 -117 -168 -198.5t-288 -81.5q-144 0 -256 63.5t-176 192t-64 324.5v976h236v-960q0 -168 94.5 -268t241.5 -100q88 0 179.5 45t154 138t62.5 237zM372 1896q0 60 39 106t117 46t119 -44.5t41 -107.5t-41 -105.5t-119 -42.5
q-75 0 -115.5 42.5t-40.5 105.5zM960 1892q0 63 41 109.5t119 46.5t119 -46.5t41 -109.5q0 -60 -41 -104t-119 -44t-119 44t-41 104zM708 2528l268 -408h-236l-364 408h332z" />
    <glyph glyph-name="uni01DD" unicode="&#x1dd;" horiz-adv-x="1640" 
d="M780 1568q222 0 382.5 -98.5t247 -276t86.5 -413.5t-86.5 -416.5t-242 -282t-363.5 -101.5q-120 0 -237 40t-213 129.5t-153 237t-57 361.5v100h1184v-204h-944q0 -130 51.5 -232t146 -161t222.5 -59q142 0 244 69.5t157 181t55 237.5v136q0 175 -60.5 295t-168.5 182.5
t-251 62.5q-92 0 -168 -26.5t-131 -80t-85 -133.5l-228 64q36 116 121 203.5t210 136t281 48.5z" />
    <glyph glyph-name="uni01DE" unicode="&#x1de;" horiz-adv-x="1904" 
d="M332 0h-260l752 2048h256l752 -2048h-260l-612 1724h-16zM428 800h1048v-220h-1048v220zM664 2304q-63 0 -111.5 48.5t-48.5 111.5q0 69 48.5 114.5t111.5 45.5q69 0 114.5 -45.5t45.5 -114.5q0 -63 -45.5 -111.5t-114.5 -48.5zM1240 2304q-63 0 -111.5 48.5t-48.5 111.5
q0 69 48.5 114.5t111.5 45.5q69 0 114.5 -45.5t45.5 -114.5q0 -63 -45.5 -111.5t-114.5 -48.5zM1420 3072v-200h-936v200h936z" />
    <glyph glyph-name="uni01DF" unicode="&#x1df;" horiz-adv-x="1588" 
d="M668 -36q-146 0 -265 55.5t-189 161t-70 255.5q0 132 52 214.5t139 129.5t192.5 70.5t212.5 37.5q140 18 227.5 27.5t128 32.5t40.5 80v8q0 148 -80.5 230t-243.5 82q-169 0 -265 -74t-135 -158l-224 80q60 140 160.5 218.5t220 110t235.5 31.5q74 0 170.5 -17.5
t187 -71.5t150.5 -163t60 -292v-1012h-236v208h-12q-24 -50 -80 -107t-149 -97t-227 -40zM704 176q140 0 236.5 55t146 142t49.5 183v216q-15 -18 -65.5 -32.5t-116 -25t-127 -18t-99.5 -12.5q-92 -12 -171.5 -38.5t-128 -79t-48.5 -142.5q0 -123 91.5 -185.5t232.5 -62.5z
M532 1792q-63 0 -111.5 48.5t-48.5 111.5q0 69 48.5 114.5t111.5 45.5q69 0 114.5 -45.5t45.5 -114.5q0 -63 -45.5 -111.5t-114.5 -48.5zM1108 1792q-63 0 -111.5 48.5t-48.5 111.5q0 69 48.5 114.5t111.5 45.5q69 0 114.5 -45.5t45.5 -114.5q0 -63 -45.5 -111.5
t-114.5 -48.5zM1288 2560v-200h-936v200h936z" />
    <glyph glyph-name="uni01E0" unicode="&#x1e0;" horiz-adv-x="1904" 
d="M332 0h-260l752 2048h256l752 -2048h-260l-612 1724h-16zM428 800h1048v-220h-1048v220zM952 2304q-69 0 -118.5 47t-49.5 113t49.5 113t118.5 47t118.5 -47t49.5 -113t-49.5 -113t-118.5 -47zM1420 3072v-200h-936v200h936z" />
    <glyph glyph-name="uni01E1" unicode="&#x1e1;" horiz-adv-x="1588" 
d="M668 -36q-146 0 -265 55.5t-189 161t-70 255.5q0 132 52 214.5t139 129.5t192.5 70.5t212.5 37.5q140 18 227.5 27.5t128 32.5t40.5 80v8q0 148 -80.5 230t-243.5 82q-169 0 -265 -74t-135 -158l-224 80q60 140 160.5 218.5t220 110t235.5 31.5q74 0 170.5 -17.5
t187 -71.5t150.5 -163t60 -292v-1012h-236v208h-12q-24 -50 -80 -107t-149 -97t-227 -40zM704 176q140 0 236.5 55t146 142t49.5 183v216q-15 -18 -65.5 -32.5t-116 -25t-127 -18t-99.5 -12.5q-92 -12 -171.5 -38.5t-128 -79t-48.5 -142.5q0 -123 91.5 -185.5t232.5 -62.5z
M1292 2556v-200h-936v200h936zM824 1788q-69 0 -118.5 47t-49.5 113t49.5 113t118.5 47t118.5 -47t49.5 -113t-49.5 -113t-118.5 -47z" />
    <glyph glyph-name="uni01E2" unicode="&#x1e2;" horiz-adv-x="2788" 
d="M72 0l992 2048h1524v-220h-988v-692h924v-220h-924v-696h1004v-220h-1252v1828h-148l-860 -1828h-272zM508 580v220h968v-220h-968zM2288 2560v-200h-936v200h936z" />
    <glyph glyph-name="uni01E3" unicode="&#x1e3;" horiz-adv-x="2604" 
d="M1824 -32q-255 0 -424 125.5t-208 326.5l44 764q75 174 217.5 273t346.5 99q120 0 237 -40t213 -129.5t153 -236.5t57 -362v-100h-1184v204h944q0 130 -51.5 232t-146 161t-222.5 59q-141 0 -243.5 -69.5t-157.5 -181t-55 -237.5v-136q0 -174 61 -294.5t169 -183
t250 -62.5q93 0 168.5 26.5t130.5 80t85 133.5l228 -64q-36 -116 -121 -203.5t-210 -136t-281 -48.5zM704 176q140 0 236.5 55t146 142t49.5 183v216q-15 -18 -65.5 -32.5t-116 -25t-127 -18t-99.5 -12.5q-92 -12 -171.5 -38.5t-128 -79t-48.5 -142.5q0 -123 91.5 -185.5
t232.5 -62.5zM668 -36q-146 0 -265 55.5t-189 161t-70 255.5q0 132 52.5 214.5t139 130t192.5 71t212 36.5q140 18 227.5 28t128 33t40.5 79v8q0 147 -81 229.5t-243 82.5q-168 0 -264.5 -74t-135.5 -158l-224 80q60 140 160.5 218.5t220 110t235.5 31.5q62 0 140 -11.5
t157 -45.5t144 -101t99 -178l-92 -940h-20q-30 -86 -112.5 -158t-200 -115t-251.5 -43zM1752 2048v-200h-936v200h936z" />
    <glyph glyph-name="uni01E4" unicode="&#x1e4;" horiz-adv-x="2092" 
d="M2056 624v-200h-920v200h920zM1648 1408q-33 101 -86.5 181.5t-127 137.5t-166.5 87t-204 30q-182 0 -331 -94t-237 -277t-88 -449t89 -449t241 -277t342 -94q176 0 310.5 75.5t210 214t75.5 326.5l76 -16h-616v220h780v-220q0 -253 -107.5 -440t-296 -289.5
t-432.5 -102.5q-272 0 -477.5 128t-320 364t-114.5 560q0 243 65.5 437.5t185.5 331.5t284 210t361 73q162 0 302.5 -48.5t251 -137t184.5 -211t102 -271.5h-256z" />
    <glyph glyph-name="uni01E5" unicode="&#x1e5;" horiz-adv-x="1716" 
d="M836 -608q-171 0 -294 43.5t-204.5 114t-129.5 150.5l188 132q32 -42 81 -96.5t134.5 -95t224.5 -40.5q186 0 307 90t121 282v312h-20q-26 -42 -73.5 -103.5t-136 -109t-238.5 -47.5q-186 0 -333.5 88t-233 256t-85.5 408q0 236 83 411.5t231 272t342 96.5
q150 0 238.5 -49.5t136 -112t73.5 -102.5h24v244h228v-1580q0 -198 -89.5 -322.5t-240 -183t-334.5 -58.5zM828 236q142 0 240 65t149 187t51 292q0 166 -50 293t-148 199t-242 72q-150 0 -249.5 -76t-149 -204t-49.5 -284q0 -160 50.5 -282.5t150 -192t247.5 -69.5z
M948 684v184h880v-184h-880z" />
    <glyph glyph-name="uni01E6" unicode="&#x1e6;" horiz-adv-x="2092" 
d="M1648 1408q-33 101 -86.5 181.5t-127 137.5t-166.5 87t-204 30q-182 0 -331 -94t-237 -277t-88 -449t89 -449t241 -277t342 -94q176 0 310.5 75.5t210 214t75.5 326.5l76 -16h-616v220h780v-220q0 -253 -107.5 -440t-296 -289.5t-432.5 -102.5q-272 0 -477.5 128
t-320 364t-114.5 560q0 243 65.5 437.5t185.5 331.5t284 210t361 73q162 0 302.5 -48.5t251 -137t184.5 -211t102 -271.5h-256zM856 2664l208 -280l208 280h224v-16l-324 -416h-216l-324 416v16h224z" />
    <glyph glyph-name="uni01E7" unicode="&#x1e7;" horiz-adv-x="1716" 
d="M836 -608q-171 0 -294 43.5t-204.5 114t-129.5 150.5l188 132q32 -42 81 -96.5t134.5 -95t224.5 -40.5q186 0 307 90t121 282v312h-20q-26 -42 -73.5 -103.5t-136 -109t-238.5 -47.5q-186 0 -333.5 88t-233 256t-85.5 408q0 236 83 411.5t231 272t342 96.5
q150 0 238.5 -49.5t136 -112t73.5 -102.5h24v244h228v-1580q0 -198 -89.5 -322.5t-240 -183t-334.5 -58.5zM828 236q142 0 240 65t149 187t51 292q0 166 -50 293t-148 199t-242 72q-150 0 -249.5 -76t-149 -204t-49.5 -284q0 -160 50.5 -282.5t150 -192t247.5 -69.5z
M652 2152l208 -280l208 280h224v-16l-324 -416h-216l-324 416v16h224z" />
    <glyph glyph-name="uni01E8" unicode="&#x1e8;" horiz-adv-x="1836" 
d="M248 0v2048h248v-1016h24l920 1016h324l-860 -924l860 -1124h-300l-712 952l-256 -288v-664h-248zM720 2664l208 -280l208 280h224v-16l-324 -416h-216l-324 416v16h224z" />
    <glyph glyph-name="uni01E9" unicode="&#x1e9;" horiz-adv-x="1532" 
d="M436 560l-4 292h48l672 684h292l-716 -724h-20zM216 0v2048h236v-2048h-236zM1192 0l-600 760l168 164l732 -924h-300zM128 2664l208 -280l208 280h224v-16l-324 -416h-216l-324 416v16h224z" />
    <glyph glyph-name="uni01EA" unicode="&#x1ea;" horiz-adv-x="2144" 
d="M1976 1024q0 -324 -117 -560t-321 -364t-466 -128t-466 128t-321 364t-117 560t117 560t321 364t466 128t466 -128t321 -364t117 -560zM1736 1024q0 266 -88.5 449t-239 277t-336.5 94t-336.5 -94t-239 -277t-88.5 -449t88.5 -449t239 -277t336.5 -94t336.5 94t239 277
t88.5 449zM1080 -608q-123 0 -203.5 67.5t-80.5 196.5q0 74 36 148t116 143t212 129l108 -84q-90 -66 -161 -140t-71 -164q0 -45 22 -70.5t82 -25.5q45 0 80 12t56 24l16 -176q-33 -21 -86.5 -40.5t-125.5 -19.5z" />
    <glyph glyph-name="uni01EB" unicode="&#x1eb;" horiz-adv-x="1680" 
d="M840 -32q-208 0 -364.5 99t-244 277t-87.5 416q0 240 87.5 419t244 278t364.5 99t364.5 -99t244 -278t87.5 -419q0 -238 -87.5 -416t-244 -277t-364.5 -99zM840 180q158 0 260 81t151 213t49 286t-49 287t-151 215t-260 82t-260 -82t-151 -215t-49 -287t49 -286t151 -213
t260 -81zM828 -600q-123 0 -203.5 67.5t-80.5 196.5q0 74 36 148t116 143t212 129l108 -84q-90 -66 -161 -140t-71 -164q0 -45 22 -70.5t82 -25.5q45 0 80 12t56 24l16 -176q-33 -21 -86.5 -40.5t-125.5 -19.5z" />
    <glyph glyph-name="uni01EC" unicode="&#x1ec;" horiz-adv-x="2144" 
d="M1976 1024q0 -324 -117 -560t-321 -364t-466 -128t-466 128t-321 364t-117 560t117 560t321 364t466 128t466 -128t321 -364t117 -560zM1736 1024q0 266 -88.5 449t-239 277t-336.5 94t-336.5 -94t-239 -277t-88.5 -449t88.5 -449t239 -277t336.5 -94t336.5 94t239 277
t88.5 449zM1080 -608q-123 0 -203.5 67.5t-80.5 196.5q0 74 36 148t116 143t212 129l108 -84q-90 -66 -161 -140t-71 -164q0 -45 22 -70.5t82 -25.5q45 0 80 12t56 24l16 -176q-33 -21 -86.5 -40.5t-125.5 -19.5zM1540 2560v-200h-936v200h936z" />
    <glyph glyph-name="uni01ED" unicode="&#x1ed;" horiz-adv-x="1680" 
d="M840 -32q-208 0 -364.5 99t-244 277t-87.5 416q0 240 87.5 419t244 278t364.5 99t364.5 -99t244 -278t87.5 -419q0 -238 -87.5 -416t-244 -277t-364.5 -99zM840 180q158 0 260 81t151 213t49 286t-49 287t-151 215t-260 82t-260 -82t-151 -215t-49 -287t49 -286t151 -213
t260 -81zM828 -600q-123 0 -203.5 67.5t-80.5 196.5q0 74 36 148t116 143t212 129l108 -84q-90 -66 -161 -140t-71 -164q0 -45 22 -70.5t82 -25.5q45 0 80 12t56 24l16 -176q-33 -21 -86.5 -40.5t-125.5 -19.5zM1308 2048v-200h-936v200h936z" />
    <glyph glyph-name="uni01EE" unicode="&#x1ee;" horiz-adv-x="1920" 
d="M136 88h252q10 -139 87.5 -245t201.5 -165.5t271 -59.5q174 0 301.5 83t197 224.5t69.5 318.5q0 200 -87.5 346t-241.5 226t-355 80h-152v208l684 704v16h-1112v224h1456v-180l-724 -756v-20q228 -10 403 -119.5t274 -296.5t99 -428q0 -186 -58.5 -342t-166.5 -271
t-258 -178t-333 -63q-219 0 -398 88t-288.5 244.5t-121.5 361.5zM752 2664l208 -280l208 280h224v-16l-324 -416h-216l-324 416v16h224z" />
    <glyph glyph-name="uni01EF" unicode="&#x1ef;" horiz-adv-x="1768" 
d="M180 0h252q11 -104 71.5 -175.5t157.5 -108t215 -36.5q128 0 230 43t162 128.5t60 212.5q0 111 -52 206.5t-167 154.5t-305 59h-164v200l512 616v16h-872v220h1212v-180l-548 -664v-16q132 -6 246.5 -54t200 -130t133.5 -191t48 -237q0 -175 -89.5 -311.5t-247 -214.5
t-363.5 -78q-182 0 -335 64t-249 185t-108 291zM676 2152l208 -280l208 280h224v-16l-324 -416h-216l-324 416v16h224z" />
    <glyph glyph-name="uni01F0" unicode="&#x1f0;" horiz-adv-x="668" 
d="M216 1536h236v-1648q0 -142 -48.5 -246t-146 -161t-245.5 -57h-24h-24v220h22h22q108 0 158 63.5t50 180.5v1648zM124 2152l208 -280l208 280h224v-16l-324 -416h-216l-324 416v16h224z" />
    <glyph glyph-name="uni01F1" unicode="&#x1f1;" horiz-adv-x="3784" 
d="M880 0h-632v2048h660q298 0 510 -122.5t325 -351t113 -546.5q0 -320 -114 -550.5t-332 -354t-530 -123.5zM496 220h368q254 0 421 98t249 279t82 431q0 248 -81 427.5t-242 276t-401 96.5h-396v-1608zM2204 0v180l1104 1648h-1116v220h1412v-180l-1104 -1648h1116v-220
h-1412z" />
    <glyph glyph-name="uni01F2" unicode="&#x1f2;" horiz-adv-x="3548" 
d="M880 0h-632v2048h660q298 0 510 -122.5t325 -351t113 -546.5q0 -320 -114 -550.5t-332 -354t-530 -123.5zM496 220h368q254 0 421 98t249 279t82 431q0 248 -81 427.5t-242 276t-401 96.5h-396v-1608zM2196 0v180l872 1120v16h-844v220h1148v-188l-848 -1112v-16h876
v-220h-1204z" />
    <glyph glyph-name="uni01F3" unicode="&#x1f3;" horiz-adv-x="2980" 
d="M796 -32q-192 0 -339 97.5t-230 276t-83 422.5q0 242 83 420t231 275t342 97q150 0 237.5 -49.5t134 -112t72.5 -102.5h20v756h236v-2048h-228v236h-28q-26 -42 -74 -105.5t-137 -113t-237 -49.5zM828 180q142 0 240 74.5t149 207t51 306.5q0 172 -50 301.5t-148 202
t-242 72.5q-150 0 -249.5 -76.5t-149 -207t-49.5 -292.5q0 -164 50.5 -297.5t150 -212t247.5 -78.5zM1628 0v180l872 1120v16h-844v220h1148v-188l-848 -1112v-16h876v-220h-1204z" />
    <glyph glyph-name="uni01F4" unicode="&#x1f4;" horiz-adv-x="2092" 
d="M1648 1408q-33 101 -86.5 181.5t-127 137.5t-166.5 87t-204 30q-182 0 -331 -94t-237 -277t-88 -449t89 -449t241 -277t342 -94q176 0 310.5 75.5t210 214t75.5 326.5l76 -16h-616v220h780v-220q0 -253 -107.5 -440t-296 -289.5t-432.5 -102.5q-272 0 -477.5 128
t-320 364t-114.5 560q0 243 65.5 437.5t185.5 331.5t284 210t361 73q162 0 302.5 -48.5t251 -137t184.5 -211t102 -271.5h-256zM956 2256l244 464h276l-312 -464h-208z" />
    <glyph glyph-name="uni01F5" unicode="&#x1f5;" horiz-adv-x="1716" 
d="M836 -608q-171 0 -294 43.5t-204.5 114t-129.5 150.5l188 132q32 -42 81 -96.5t134.5 -95t224.5 -40.5q186 0 307 90t121 282v312h-20q-26 -42 -73.5 -103.5t-136 -109t-238.5 -47.5q-186 0 -333.5 88t-233 256t-85.5 408q0 236 83 411.5t231 272t342 96.5
q150 0 238.5 -49.5t136 -112t73.5 -102.5h24v244h228v-1580q0 -198 -89.5 -322.5t-240 -183t-334.5 -58.5zM828 236q142 0 240 65t149 187t51 292q0 166 -50 293t-148 199t-242 72q-150 0 -249.5 -76t-149 -204t-49.5 -284q0 -160 50.5 -282.5t150 -192t247.5 -69.5z
M752 1744l244 464h276l-312 -464h-208z" />
    <glyph glyph-name="uni01F6" unicode="&#x1f6;" horiz-adv-x="3136" 
d="M2260 -28q-200 0 -351.5 76.5t-236 227t-84.5 372.5v268h-1092v-916h-248v2048h248v-912h1092v912h248v-1400q0 -231 111.5 -339.5t312.5 -108.5t306.5 108.5t105.5 339.5v888h248v-888q0 -226 -84 -376t-233 -225t-343 -75z" />
    <glyph glyph-name="uni01F7" unicode="&#x1f7;" horiz-adv-x="1776" 
d="M444 2048v-2624h-288v2624h288zM292 -248v228q270 42 467 159t325 282t190 352.5t62 370.5v76q0 165 -34 283.5t-100 193.5t-163 111t-223 36q-162 0 -256.5 -55.5t-142 -156t-69.5 -236.5v540q87 66 198.5 103t267.5 37q242 0 423.5 -93.5t282 -284t100.5 -482.5v-72
q0 -270 -101 -508t-282.5 -425t-422.5 -306.5t-522 -152.5z" />
    <glyph glyph-name="uni01F8" unicode="&#x1f8;" horiz-adv-x="2120" 
d="M1872 2048v-2048h-240l-1116 1608h-20v-1608h-248v2048h240l1120 -1612h20v1612h244zM960 2256l-312 464h276l244 -464h-208z" />
    <glyph glyph-name="uni01F9" unicode="&#x1f9;" horiz-adv-x="1648" 
d="M452 924v-924h-236v1536h228v-240h20q54 117 164 188.5t284 71.5q156 0 273 -63.5t182 -192t65 -324.5v-976h-236v960q0 181 -94 282.5t-258 101.5q-113 0 -201.5 -49t-139.5 -143t-51 -228zM724 1744l-312 464h276l244 -464h-208z" />
    <glyph glyph-name="uni01FA" unicode="&#x1fa;" horiz-adv-x="1904" 
d="M332 0h-260l752 2048h256l752 -2048h-260l-612 1724h-16zM428 800h1048v-220h-1048v220zM852 2820l200 248h252l-258 -248h-194zM952 2189q-120 0 -205 80.5t-85 194.5q0 76 39 138.5t105 100t146 37.5q120 0 205 -81t85 -195q0 -76 -39 -138.5t-105 -99.5t-146 -37z
M952 2325q62 0 103 40.5t41 98.5t-41 98.5t-103 40.5t-103 -40.5t-41 -98.5t41 -98.5t103 -40.5z" />
    <glyph glyph-name="uni01FB" unicode="&#x1fb;" horiz-adv-x="1588" 
d="M668 -36q-146 0 -265 55.5t-189 161t-70 255.5q0 132 52 214.5t139 129.5t192.5 70.5t212.5 37.5q140 18 227.5 27.5t128 32.5t40.5 80v8q0 148 -80.5 230t-243.5 82q-169 0 -265 -74t-135 -158l-224 80q60 140 160.5 218.5t220 110t235.5 31.5q74 0 170.5 -17.5
t187 -71.5t150.5 -163t60 -292v-1012h-236v208h-12q-24 -50 -80 -107t-149 -97t-227 -40zM704 176q140 0 236.5 55t146 142t49.5 183v216q-15 -18 -65.5 -32.5t-116 -25t-127 -18t-99.5 -12.5q-92 -12 -171.5 -38.5t-128 -79t-48.5 -142.5q0 -123 91.5 -185.5t232.5 -62.5z
M720 2308l200 248h252l-258 -248h-194zM820 1677q-120 0 -205 80.5t-85 194.5q0 76 39 138.5t105 100t146 37.5q120 0 205 -81t85 -195q0 -76 -39 -138.5t-105 -99.5t-146 -37zM820 1813q62 0 103 40.5t41 98.5t-41 98.5t-103 40.5t-103 -40.5t-41 -98.5t41 -98.5t103 -40.5
z" />
    <glyph glyph-name="uni01FC" unicode="&#x1fc;" horiz-adv-x="2788" 
d="M72 0l992 2048h1524v-220h-988v-692h924v-220h-924v-696h1004v-220h-1252v1828h-148l-860 -1828h-272zM508 580v220h968v-220h-968zM1712 2256l244 464h276l-312 -464h-208z" />
    <glyph glyph-name="uni01FD" unicode="&#x1fd;" horiz-adv-x="2604" 
d="M1824 -32q-255 0 -424 125.5t-208 326.5l44 764q75 174 217.5 273t346.5 99q120 0 237 -40t213 -129.5t153 -236.5t57 -362v-100h-1184v204h944q0 130 -51.5 232t-146 161t-222.5 59q-141 0 -243.5 -69.5t-157.5 -181t-55 -237.5v-136q0 -174 61 -294.5t169 -183
t250 -62.5q93 0 168.5 26.5t130.5 80t85 133.5l228 -64q-36 -116 -121 -203.5t-210 -136t-281 -48.5zM704 176q140 0 236.5 55t146 142t49.5 183v216q-15 -18 -65.5 -32.5t-116 -25t-127 -18t-99.5 -12.5q-92 -12 -171.5 -38.5t-128 -79t-48.5 -142.5q0 -123 91.5 -185.5
t232.5 -62.5zM668 -36q-146 0 -265 55.5t-189 161t-70 255.5q0 132 52.5 214.5t139 130t192.5 71t212 36.5q140 18 227.5 28t128 33t40.5 79v8q0 147 -81 229.5t-243 82.5q-168 0 -264.5 -74t-135.5 -158l-224 80q60 140 160.5 218.5t220 110t235.5 31.5q62 0 140 -11.5
t157 -45.5t144 -101t99 -178l-92 -940h-20q-30 -86 -112.5 -158t-200 -115t-251.5 -43zM1176 1744l244 464h276l-312 -464h-208z" />
    <glyph glyph-name="uni01FE" unicode="&#x1fe;" horiz-adv-x="2144" 
d="M432 -84l-152 104l1424 2108l152 -104zM1976 1024q0 -324 -117 -560t-321 -364t-466 -128t-466 128t-321 364t-117 560t117 560t321 364t466 128t466 -128t321 -364t117 -560zM1736 1024q0 266 -88.5 449t-239 277t-336.5 94t-336.5 -94t-239 -277t-88.5 -449t88.5 -449
t239 -277t336.5 -94t336.5 94t239 277t88.5 449zM964 2256l244 464h276l-312 -464h-208z" />
    <glyph glyph-name="uni01FF" unicode="&#x1ff;" horiz-adv-x="1680" 
d="M380 -84l-152 104l1072 1588l152 -104zM840 -32q-208 0 -364.5 99t-244 277t-87.5 416q0 240 87.5 419t244 278t364.5 99t364.5 -99t244 -278t87.5 -419q0 -238 -87.5 -416t-244 -277t-364.5 -99zM840 180q158 0 260 81t151 213t49 286t-49 287t-151 215t-260 82
t-260 -82t-151 -215t-49 -287t49 -286t151 -213t260 -81zM732 1744l244 464h276l-312 -464h-208z" />
    <glyph glyph-name="uni0200" unicode="&#x200;" horiz-adv-x="1904" 
d="M332 0h-260l752 2048h256l752 -2048h-260l-612 1724h-16zM428 800h1048v-220h-1048v220zM642 2256l-330 464h294l244 -464h-208zM1066 2256l-244 464h300l150 -464h-206z" />
    <glyph glyph-name="uni0201" unicode="&#x201;" horiz-adv-x="1588" 
d="M668 -36q-146 0 -265 55.5t-189 161t-70 255.5q0 132 52 214.5t139 129.5t192.5 70.5t212.5 37.5q140 18 227.5 27.5t128 32.5t40.5 80v8q0 148 -80.5 230t-243.5 82q-169 0 -265 -74t-135 -158l-224 80q60 140 160.5 218.5t220 110t235.5 31.5q74 0 170.5 -17.5
t187 -71.5t150.5 -163t60 -292v-1012h-236v208h-12q-24 -50 -80 -107t-149 -97t-227 -40zM704 176q140 0 236.5 55t146 142t49.5 183v216q-15 -18 -65.5 -32.5t-116 -25t-127 -18t-99.5 -12.5q-92 -12 -171.5 -38.5t-128 -79t-48.5 -142.5q0 -123 91.5 -185.5t232.5 -62.5z
M510 1744l-330 464h294l244 -464h-208zM934 1744l-244 464h300l150 -464h-206z" />
    <glyph glyph-name="uni0202" unicode="&#x202;" horiz-adv-x="1904" 
d="M332 0h-260l752 2048h256l752 -2048h-260l-612 1724h-16zM428 800h1048v-220h-1048v220zM536 2304q0 162 112 267t304 105t302 -105t110 -267h-220q0 81 -45 140.5t-147 59.5q-108 0 -152 -61t-44 -139h-220z" />
    <glyph glyph-name="uni0203" unicode="&#x203;" horiz-adv-x="1588" 
d="M668 -36q-146 0 -265 55.5t-189 161t-70 255.5q0 132 52 214.5t139 129.5t192.5 70.5t212.5 37.5q140 18 227.5 27.5t128 32.5t40.5 80v8q0 148 -80.5 230t-243.5 82q-169 0 -265 -74t-135 -158l-224 80q60 140 160.5 218.5t220 110t235.5 31.5q74 0 170.5 -17.5
t187 -71.5t150.5 -163t60 -292v-1012h-236v208h-12q-24 -50 -80 -107t-149 -97t-227 -40zM704 176q140 0 236.5 55t146 142t49.5 183v216q-15 -18 -65.5 -32.5t-116 -25t-127 -18t-99.5 -12.5q-92 -12 -171.5 -38.5t-128 -79t-48.5 -142.5q0 -123 91.5 -185.5t232.5 -62.5z
M404 1792q0 162 112 267t304 105t302 -105t110 -267h-220q0 81 -45 140.5t-147 59.5q-108 0 -152 -61t-44 -139h-220z" />
    <glyph glyph-name="uni0204" unicode="&#x204;" horiz-adv-x="1684" 
d="M248 0v2048h1236v-220h-988v-692h924v-220h-924v-696h1004v-220h-1252zM554 2256l-330 464h294l244 -464h-208zM978 2256l-244 464h300l150 -464h-206z" />
    <glyph glyph-name="uni0205" unicode="&#x205;" horiz-adv-x="1640" 
d="M860 -32q-222 0 -382.5 98.5t-247 276t-86.5 413.5t86.5 416.5t242 282t363.5 101.5q120 0 237 -40t213 -129.5t153 -236.5t57 -362v-100h-1184v204h944q0 130 -51.5 232t-146 161t-222.5 59q-141 0 -243.5 -69.5t-157.5 -180.5t-55 -238v-136q0 -174 60.5 -294.5
t168.5 -183t251 -62.5q93 0 168.5 26.5t130.5 80t85 133.5l228 -64q-36 -116 -121 -203.5t-210 -136t-281 -48.5zM514 1744l-330 464h294l244 -464h-208zM938 1744l-244 464h300l150 -464h-206z" />
    <glyph glyph-name="uni0206" unicode="&#x206;" horiz-adv-x="1684" 
d="M248 0v2048h1236v-220h-988v-692h924v-220h-924v-696h1004v-220h-1252zM448 2304q0 162 112 267t304 105t302 -105t110 -267h-220q0 81 -45 140.5t-147 59.5q-108 0 -152 -61t-44 -139h-220z" />
    <glyph glyph-name="uni0207" unicode="&#x207;" horiz-adv-x="1640" 
d="M860 -32q-222 0 -382.5 98.5t-247 276t-86.5 413.5t86.5 416.5t242 282t363.5 101.5q120 0 237 -40t213 -129.5t153 -236.5t57 -362v-100h-1184v204h944q0 130 -51.5 232t-146 161t-222.5 59q-141 0 -243.5 -69.5t-157.5 -180.5t-55 -238v-136q0 -174 60.5 -294.5
t168.5 -183t251 -62.5q93 0 168.5 26.5t130.5 80t85 133.5l228 -64q-36 -116 -121 -203.5t-210 -136t-281 -48.5zM408 1792q0 162 112 267t304 105t302 -105t110 -267h-220q0 81 -45 140.5t-147 59.5q-108 0 -152 -61t-44 -139h-220z" />
    <glyph glyph-name="uni0208" unicode="&#x208;" horiz-adv-x="744" 
d="M496 2048v-2048h-248v2048h248zM62 2256l-330 464h294l244 -464h-208zM486 2256l-244 464h300l150 -464h-206z" />
    <glyph glyph-name="uni0209" unicode="&#x209;" horiz-adv-x="668" 
d="M216 0v1536h236v-1536h-236zM26 1744l-330 464h294l244 -464h-208zM450 1744l-244 464h300l150 -464h-206z" />
    <glyph glyph-name="uni020A" unicode="&#x20a;" horiz-adv-x="744" 
d="M496 2048v-2048h-248v2048h248zM-44 2304q0 162 112 267t304 105t302 -105t110 -267h-220q0 81 -45 140.5t-147 59.5q-108 0 -152 -61t-44 -139h-220z" />
    <glyph glyph-name="uni020B" unicode="&#x20b;" horiz-adv-x="668" 
d="M216 0v1536h236v-1536h-236zM-80 1792q0 162 112 267t304 105t302 -105t110 -267h-220q0 81 -45 140.5t-147 59.5q-108 0 -152 -61t-44 -139h-220z" />
    <glyph glyph-name="uni020C" unicode="&#x20c;" horiz-adv-x="2144" 
d="M1976 1024q0 -324 -117 -560t-321 -364t-466 -128t-466 128t-321 364t-117 560t117 560t321 364t466 128t466 -128t321 -364t117 -560zM1736 1024q0 266 -88.5 449t-239 277t-336.5 94t-336.5 -94t-239 -277t-88.5 -449t88.5 -449t239 -277t336.5 -94t336.5 94t239 277
t88.5 449zM762 2256l-330 464h294l244 -464h-208zM1186 2256l-244 464h300l150 -464h-206z" />
    <glyph glyph-name="uni020D" unicode="&#x20d;" horiz-adv-x="1680" 
d="M840 -32q-208 0 -364.5 99t-244 277t-87.5 416q0 240 87.5 419t244 278t364.5 99t364.5 -99t244 -278t87.5 -419q0 -238 -87.5 -416t-244 -277t-364.5 -99zM840 180q158 0 260 81t151 213t49 286t-49 287t-151 215t-260 82t-260 -82t-151 -215t-49 -287t49 -286t151 -213
t260 -81zM530 1744l-330 464h294l244 -464h-208zM954 1744l-244 464h300l150 -464h-206z" />
    <glyph glyph-name="uni020E" unicode="&#x20e;" horiz-adv-x="2144" 
d="M1976 1024q0 -324 -117 -560t-321 -364t-466 -128t-466 128t-321 364t-117 560t117 560t321 364t466 128t466 -128t321 -364t117 -560zM1736 1024q0 266 -88.5 449t-239 277t-336.5 94t-336.5 -94t-239 -277t-88.5 -449t88.5 -449t239 -277t336.5 -94t336.5 94t239 277
t88.5 449zM656 2304q0 162 112 267t304 105t302 -105t110 -267h-220q0 81 -45 140.5t-147 59.5q-108 0 -152 -61t-44 -139h-220z" />
    <glyph glyph-name="uni020F" unicode="&#x20f;" horiz-adv-x="1680" 
d="M840 -32q-208 0 -364.5 99t-244 277t-87.5 416q0 240 87.5 419t244 278t364.5 99t364.5 -99t244 -278t87.5 -419q0 -238 -87.5 -416t-244 -277t-364.5 -99zM840 180q158 0 260 81t151 213t49 286t-49 287t-151 215t-260 82t-260 -82t-151 -215t-49 -287t49 -286t151 -213
t260 -81zM424 1792q0 162 112 267t304 105t302 -105t110 -267h-220q0 81 -45 140.5t-147 59.5q-108 0 -152 -61t-44 -139h-220z" />
    <glyph glyph-name="uni0210" unicode="&#x210;" horiz-adv-x="1800" 
d="M248 0v2048h692q240 0 394 -81.5t228 -223.5t74 -323t-74 -321t-227 -219.5t-391 -79.5h-560v224h552q164 0 264.5 48t146 136.5t45.5 211.5t-46 215t-147 142.5t-267 50.5h-436v-1828h-248zM1212 920l504 -920h-288l-496 920h280zM578 2256l-330 464h294l244 -464h-208z
M1002 2256l-244 464h300l150 -464h-206z" />
    <glyph glyph-name="uni0211" unicode="&#x211;" horiz-adv-x="1048" 
d="M216 0v1536h228v-232h16q42 114 152 185t248 71q26 0 65 -1t59 -3v-240q-12 3 -54.5 9.5t-89.5 6.5q-112 0 -199.5 -46.5t-138 -128t-50.5 -185.5v-972h-236zM270 1744l-330 464h294l244 -464h-208zM694 1744l-244 464h300l150 -464h-206z" />
    <glyph glyph-name="uni0212" unicode="&#x212;" horiz-adv-x="1800" 
d="M248 0v2048h692q240 0 394 -81.5t228 -223.5t74 -323t-74 -321t-227 -219.5t-391 -79.5h-560v224h552q164 0 264.5 48t146 136.5t45.5 211.5t-46 215t-147 142.5t-267 50.5h-436v-1828h-248zM1212 920l504 -920h-288l-496 920h280zM472 2304q0 162 112 267t304 105
t302 -105t110 -267h-220q0 81 -45 140.5t-147 59.5q-108 0 -152 -61t-44 -139h-220z" />
    <glyph glyph-name="uni0213" unicode="&#x213;" horiz-adv-x="1048" 
d="M216 0v1536h228v-232h16q42 114 152 185t248 71q26 0 65 -1t59 -3v-240q-12 3 -54.5 9.5t-89.5 6.5q-112 0 -199.5 -46.5t-138 -128t-50.5 -185.5v-972h-236zM164 1792q0 162 112 267t304 105t302 -105t110 -267h-220q0 81 -45 140.5t-147 59.5q-108 0 -152 -61t-44 -139
h-220z" />
    <glyph glyph-name="uni0214" unicode="&#x214;" horiz-adv-x="2088" 
d="M1592 2048h248v-1356q0 -210 -98.5 -374.5t-277.5 -259t-420 -94.5t-420 94.5t-277.5 259t-98.5 374.5v1356h248v-1336q0 -150 66 -266.5t188.5 -183t293.5 -66.5t294 66.5t188.5 183t65.5 266.5v1336zM734 2256l-330 464h294l244 -464h-208zM1158 2256l-244 464h300
l150 -464h-206z" />
    <glyph glyph-name="uni0215" unicode="&#x215;" horiz-adv-x="1636" 
d="M1184 628v908h236v-1536h-236v260h-16q-54 -117 -168 -198.5t-288 -81.5q-144 0 -256 63.5t-176 192t-64 324.5v976h236v-960q0 -168 94.5 -268t241.5 -100q88 0 179.5 45t154 138t62.5 237zM510 1744l-330 464h294l244 -464h-208zM934 1744l-244 464h300l150 -464h-206z
" />
    <glyph glyph-name="uni0216" unicode="&#x216;" horiz-adv-x="2088" 
d="M1592 2048h248v-1356q0 -210 -98.5 -374.5t-277.5 -259t-420 -94.5t-420 94.5t-277.5 259t-98.5 374.5v1356h248v-1336q0 -150 66 -266.5t188.5 -183t293.5 -66.5t294 66.5t188.5 183t65.5 266.5v1336zM628 2304q0 162 112 267t304 105t302 -105t110 -267h-220
q0 81 -45 140.5t-147 59.5q-108 0 -152 -61t-44 -139h-220z" />
    <glyph glyph-name="uni0217" unicode="&#x217;" horiz-adv-x="1636" 
d="M1184 628v908h236v-1536h-236v260h-16q-54 -117 -168 -198.5t-288 -81.5q-144 0 -256 63.5t-176 192t-64 324.5v976h236v-960q0 -168 94.5 -268t241.5 -100q88 0 179.5 45t154 138t62.5 237zM404 1792q0 162 112 267t304 105t302 -105t110 -267h-220q0 81 -45 140.5
t-147 59.5q-108 0 -152 -61t-44 -139h-220z" />
    <glyph glyph-name="uni0218" unicode="&#x218;" horiz-adv-x="1796" 
d="M1368 1536q-18 152 -146 236t-314 84q-136 0 -237.5 -44t-158 -121t-56.5 -175q0 -82 39.5 -140.5t101.5 -97t130 -63t125 -39.5l208 -56q80 -21 178.5 -58t189 -100.5t149.5 -162.5t59 -243q0 -166 -86.5 -300t-252 -213t-401.5 -79q-220 0 -380.5 71t-252 198
t-103.5 295h256q10 -116 78.5 -191.5t174 -112t227.5 -36.5q142 0 255 46.5t179 130t66 195.5q0 102 -57 166t-150 104t-201 70l-252 72q-240 69 -380 197t-140 335q0 172 93.5 300.5t252 200t354.5 71.5q198 0 352 -70.5t244.5 -192.5t95.5 -277h-240zM666 -716l112 518
h242l-170 -518h-184z" />
    <glyph glyph-name="uni0219" unicode="&#x219;" horiz-adv-x="1472" 
d="M1304 1192l-212 -60q-20 53 -58.5 103.5t-104.5 83.5t-169 33q-141 0 -234.5 -64.5t-93.5 -163.5q0 -88 64 -139t200 -85l228 -56q206 -50 307 -152.5t101 -263.5q0 -132 -75.5 -236t-210.5 -164t-314 -60q-235 0 -389 102t-195 298l224 56q32 -124 121.5 -186t234.5 -62
q165 0 262.5 70.5t97.5 169.5q0 80 -56 134.5t-172 81.5l-256 60q-211 50 -309.5 155.5t-98.5 264.5q0 130 73.5 230t201 157t289.5 57q228 0 358.5 -100t185.5 -264zM518 -680l112 518h242l-170 -518h-184z" />
    <glyph glyph-name="uni021A" unicode="&#x21a;" horiz-adv-x="1808" 
d="M136 1828v220h1536v-220h-644v-1828h-248v1828h-644zM670 -680l112 518h242l-170 -518h-184z" />
    <glyph glyph-name="uni021B" unicode="&#x21b;" horiz-adv-x="1024" 
d="M884 1536v-200h-796v200h796zM320 1904h236v-1464q0 -100 29.5 -149.5t76 -66t98.5 -16.5q39 0 64 4.5t40 7.5l48 -212q-24 -9 -67 -18.5t-109 -9.5q-100 0 -195.5 43t-158 131t-62.5 222v1528zM338 -680l112 518h242l-170 -518h-184z" />
    <glyph glyph-name="uni021C" unicode="&#x21c;" horiz-adv-x="1776" 
d="M304 464v208q236 71 418 149.5t307.5 172.5t190 209.5t64.5 260.5q0 182 -104 281t-298 99q-127 0 -221 -41t-145.5 -114t-51.5 -169h-284q0 170 90.5 295t249 193t362.5 68q198 0 353 -68t244 -199t89 -319q0 -187 -95.5 -349t-266.5 -293t-401.5 -228t-500.5 -156z
M1100 892l140 156q114 -42 194.5 -119.5t123 -196t42.5 -284.5q0 -244 -96.5 -418t-271 -293.5t-411 -199.5t-517.5 -137v228q239 48 426 113.5t316.5 161t197.5 234t68 331.5q0 174 -49 276.5t-163 147.5z" />
    <glyph glyph-name="uni021D" unicode="&#x21d;" horiz-adv-x="1520" 
d="M300 288v204q237 57 401 143.5t249.5 198.5t85.5 244q0 125 -70 191.5t-204 66.5q-93 0 -161.5 -32.5t-106.5 -91.5t-38 -140h-272q0 148 72 256.5t204.5 168t311.5 59.5q248 0 394 -125t146 -339q0 -186 -125 -348t-352 -280t-535 -176zM888 624l152 140
q149 -64 224.5 -195t75.5 -325q0 -355 -259.5 -565.5t-780.5 -278.5v216q273 60 441 145t245.5 207t77.5 292q0 135 -46.5 231t-129.5 133z" />
    <glyph glyph-name="uni021E" unicode="&#x21e;" horiz-adv-x="2084" 
d="M248 0v2048h248v-912h1092v912h248v-2048h-248v916h-1092v-916h-248zM844 2668l208 -280l208 280h224v-16l-324 -416h-216l-324 416v16h224z" />
    <glyph glyph-name="uni021F" unicode="&#x21f;" horiz-adv-x="1664" 
d="M452 924v-924h-236v2048h236v-752h20q54 119 162.5 189.5t289.5 70.5q157 0 275 -62.5t183.5 -191t65.5 -326.5v-976h-236v960q0 183 -94.5 283.5t-261.5 100.5q-116 0 -207.5 -49t-144 -143t-52.5 -228zM128 2664l208 -280l208 280h224v-16l-324 -416h-216l-324 416v16
h224z" />
    <glyph glyph-name="uni0220" unicode="&#x220;" horiz-adv-x="1776" 
d="M1616 -572h-276v1972q0 156 -55.5 255t-162 146t-258.5 47q-147 0 -273.5 -39t-222.5 -105v220q62 42 142.5 76.5t176 55t201.5 20.5q190 0 356 -75t269 -225t103 -376v-1972zM436 2048v-2048h-272v2048h272z" />
    <glyph glyph-name="uni0221" unicode="&#x221;" horiz-adv-x="2024" 
d="M1264 336h236v-500q0 -102 56.5 -155t131.5 -53q72 0 116 45.5t44 114.5q0 63 -36.5 105t-99.5 51q-72 12 -129.5 -15.5t-102.5 -72.5l-376 -380l-152 156l312 320q96 99 214.5 149.5t229.5 50.5q165 0 274.5 -99.5t109.5 -264.5q0 -108 -49.5 -190t-140 -128t-214.5 -46
q-154 0 -247 65.5t-135 165t-42 201.5v480zM796 -32q-192 0 -339 97.5t-230 276t-83 422.5q0 242 83 420t231 275t342 97q150 0 237.5 -49.5t134 -112t72.5 -102.5h20v756h236v-2048h-228v236h-28q-26 -42 -74 -105.5t-137 -113t-237 -49.5zM828 180q142 0 240 74.5t149 207
t51 306.5q0 172 -50 301.5t-148 202t-242 72.5q-150 0 -249.5 -76.5t-149 -207t-49.5 -292.5q0 -164 50.5 -297.5t150 -212t247.5 -78.5z" />
    <glyph glyph-name="uni0222" unicode="&#x222;" horiz-adv-x="1776" 
d="M872 1212h32q214 0 386 -69t273 -205t101 -338q0 -212 -101 -351.5t-273 -208t-386 -68.5h-32q-214 0 -386 68.5t-273 207t-101 348.5q0 204 101 341t273 206t386 69zM904 996h-32q-216 0 -346 -98t-130 -302t130 -296t346 -92h32q216 0 346 92.5t130 299.5
q0 201 -130 298.5t-346 97.5zM860 1232h56q126 0 231.5 21.5t169 90t63.5 208.5q0 132 -65.5 203.5t-194.5 104.5v216q152 -8 275.5 -66.5t196 -172t72.5 -285.5q0 -208 -104.5 -324.5t-275 -164t-368.5 -47.5h-56q-148 0 -283 25.5t-239.5 86.5t-165 164.5t-60.5 259.5
q0 172 73.5 285.5t197 172t273.5 66.5v-216q-129 -33 -194.5 -104.5t-65.5 -203.5q0 -140 64.5 -208.5t170 -90t229.5 -21.5z" />
    <glyph glyph-name="uni0223" unicode="&#x223;" horiz-adv-x="1776" 
d="M872 1208h32q214 0 385 -68t271 -203t100 -337q0 -212 -100 -351.5t-271 -208t-385 -68.5h-32q-214 0 -385 68.5t-271 207t-100 348.5q0 204 100 340t271 204t385 68zM904 1000h-32q-216 0 -348 -100t-132 -304t132 -304t348 -100h32q213 0 346.5 100.5t133.5 307.5
q0 201 -133.5 300.5t-346.5 99.5zM916 1220q126 0 232.5 29.5t171 106t64.5 216.5q0 150 -67.5 231.5t-196.5 132.5v204q150 -6 272.5 -73.5t195 -192t72.5 -302.5q0 -206 -103.5 -328t-273 -175t-367.5 -53h-56q-198 0 -367.5 53t-273 175t-103.5 328q0 178 72.5 302.5
t195 192t272.5 73.5v-204q-129 -51 -196.5 -132.5t-67.5 -231.5q0 -140 65.5 -216.5t172 -106t230.5 -29.5h56z" />
    <glyph glyph-name="uni0224" unicode="&#x224;" horiz-adv-x="1760" 
d="M168 1828v220h1412v-180l-1104 -1648h724q189 0 298.5 -112t109.5 -292v-120h-224v76q0 58 -17 110t-57 85t-110 33h-1020v180l1104 1648h-1116z" />
    <glyph glyph-name="uni0225" unicode="&#x225;" horiz-adv-x="1520" 
d="M1192 -320v76q0 64 -15.5 119.5t-58 90t-122.5 34.5h-820v200l864 1116h-880v220h1184v-188l-860 -1128h512q195 0 301.5 -116.5t106.5 -287.5v-136h-212z" />
    <glyph glyph-name="uni0226" unicode="&#x226;" horiz-adv-x="1904" 
d="M332 0h-260l752 2048h256l752 -2048h-260l-612 1724h-16zM428 800h1048v-220h-1048v220zM952 2304q-69 0 -118.5 47t-49.5 113t49.5 113t118.5 47t118.5 -47t49.5 -113t-49.5 -113t-118.5 -47z" />
    <glyph glyph-name="uni0227" unicode="&#x227;" horiz-adv-x="1588" 
d="M668 -36q-146 0 -265 55.5t-189 161t-70 255.5q0 132 52 214.5t139 129.5t192.5 70.5t212.5 37.5q140 18 227.5 27.5t128 32.5t40.5 80v8q0 148 -80.5 230t-243.5 82q-169 0 -265 -74t-135 -158l-224 80q60 140 160.5 218.5t220 110t235.5 31.5q74 0 170.5 -17.5
t187 -71.5t150.5 -163t60 -292v-1012h-236v208h-12q-24 -50 -80 -107t-149 -97t-227 -40zM704 176q140 0 236.5 55t146 142t49.5 183v216q-15 -18 -65.5 -32.5t-116 -25t-127 -18t-99.5 -12.5q-92 -12 -171.5 -38.5t-128 -79t-48.5 -142.5q0 -123 91.5 -185.5t232.5 -62.5z
M820 1792q-69 0 -118.5 47t-49.5 113t49.5 113t118.5 47t118.5 -47t49.5 -113t-49.5 -113t-118.5 -47z" />
    <glyph glyph-name="uni0228" unicode="&#x228;" horiz-adv-x="1684" 
d="M248 0v2048h1236v-220h-988v-692h924v-220h-924v-696h1004v-220h-1252zM744 8h196l-16 -80q78 -12 143 -65.5t65 -170.5q0 -129 -106.5 -210.5t-313.5 -81.5l-8 156q93 0 154.5 29.5t61.5 98.5t-51 94t-165 34z" />
    <glyph glyph-name="uni0229" unicode="&#x229;" horiz-adv-x="1640" 
d="M860 -32q-222 0 -382.5 98.5t-247 276t-86.5 413.5t86.5 416.5t242 282t363.5 101.5q120 0 237 -40t213 -129.5t153 -236.5t57 -362v-100h-1184v204h944q0 130 -51.5 232t-146 161t-222.5 59q-141 0 -243.5 -69.5t-157.5 -180.5t-55 -238v-136q0 -174 60.5 -294.5
t168.5 -183t251 -62.5q93 0 168.5 26.5t130.5 80t85 133.5l228 -64q-36 -116 -121 -203.5t-210 -136t-281 -48.5zM724 8h196l-16 -80q78 -12 143 -65.5t65 -170.5q0 -129 -106.5 -210.5t-313.5 -81.5l-8 156q93 0 154.5 29.5t61.5 98.5t-51 94t-165 34z" />
    <glyph glyph-name="uni022A" unicode="&#x22a;" horiz-adv-x="2144" 
d="M1976 1024q0 -324 -117 -560t-321 -364t-466 -128t-466 128t-321 364t-117 560t117 560t321 364t466 128t466 -128t321 -364t117 -560zM1736 1024q0 266 -88.5 449t-239 277t-336.5 94t-336.5 -94t-239 -277t-88.5 -449t88.5 -449t239 -277t336.5 -94t336.5 94t239 277
t88.5 449zM784 2304q-63 0 -111.5 48.5t-48.5 111.5q0 69 48.5 114.5t111.5 45.5q69 0 114.5 -45.5t45.5 -114.5q0 -63 -45.5 -111.5t-114.5 -48.5zM1360 2304q-63 0 -111.5 48.5t-48.5 111.5q0 69 48.5 114.5t111.5 45.5q69 0 114.5 -45.5t45.5 -114.5q0 -63 -45.5 -111.5
t-114.5 -48.5zM1540 3072v-200h-936v200h936z" />
    <glyph glyph-name="uni022B" unicode="&#x22b;" horiz-adv-x="1680" 
d="M840 -32q-208 0 -364.5 99t-244 277t-87.5 416q0 240 87.5 419t244 278t364.5 99t364.5 -99t244 -278t87.5 -419q0 -238 -87.5 -416t-244 -277t-364.5 -99zM840 180q158 0 260 81t151 213t49 286t-49 287t-151 215t-260 82t-260 -82t-151 -215t-49 -287t49 -286t151 -213
t260 -81zM552 1792q-63 0 -111.5 48.5t-48.5 111.5q0 69 48.5 114.5t111.5 45.5q69 0 114.5 -45.5t45.5 -114.5q0 -63 -45.5 -111.5t-114.5 -48.5zM1128 1792q-63 0 -111.5 48.5t-48.5 111.5q0 69 48.5 114.5t111.5 45.5q69 0 114.5 -45.5t45.5 -114.5q0 -63 -45.5 -111.5
t-114.5 -48.5zM1308 2560v-200h-936v200h936z" />
    <glyph glyph-name="uni022C" unicode="&#x22c;" horiz-adv-x="2144" 
d="M1976 1024q0 -324 -117 -560t-321 -364t-466 -128t-466 128t-321 364t-117 560t117 560t321 364t466 128t466 -128t321 -364t117 -560zM1736 1024q0 266 -88.5 449t-239 277t-336.5 94t-336.5 -94t-239 -277t-88.5 -449t88.5 -449t239 -277t336.5 -94t336.5 94t239 277
t88.5 449zM1336 2540l120 -32q0 -102 -65 -177t-167 -75q-74 0 -119 26t-85 52t-100 26q-45 0 -76.5 -38t-31.5 -86l-120 32q0 99 64.5 177.5t163.5 78.5q62 0 108.5 -25t92 -50t103.5 -25q45 0 78.5 32.5t33.5 83.5zM1544 2888v-208h-940v208h940z" />
    <glyph glyph-name="uni022D" unicode="&#x22d;" horiz-adv-x="1680" 
d="M840 -32q-208 0 -364.5 99t-244 277t-87.5 416q0 240 87.5 419t244 278t364.5 99t364.5 -99t244 -278t87.5 -419q0 -238 -87.5 -416t-244 -277t-364.5 -99zM840 180q158 0 260 81t151 213t49 286t-49 287t-151 215t-260 82t-260 -82t-151 -215t-49 -287t49 -286t151 -213
t260 -81zM1152 2104l184 -16q0 -104 -41 -180.5t-110 -118t-153 -41.5q-69 0 -114.5 19.5t-81.5 44.5t-75.5 44.5t-96.5 19.5q-54 0 -93 -46t-39 -106l-180 8q0 102 40 180.5t108 123t152 44.5q57 0 101 -19.5t84 -44.5t82.5 -44.5t96.5 -19.5q57 0 96.5 44.5t39.5 107.5z
M1320 2456v-208h-940v208h940z" />
    <glyph glyph-name="uni022E" unicode="&#x22e;" horiz-adv-x="2144" 
d="M1976 1024q0 -324 -117 -560t-321 -364t-466 -128t-466 128t-321 364t-117 560t117 560t321 364t466 128t466 -128t321 -364t117 -560zM1736 1024q0 266 -88.5 449t-239 277t-336.5 94t-336.5 -94t-239 -277t-88.5 -449t88.5 -449t239 -277t336.5 -94t336.5 94t239 277
t88.5 449zM1072 2304q-69 0 -118.5 47t-49.5 113t49.5 113t118.5 47t118.5 -47t49.5 -113t-49.5 -113t-118.5 -47z" />
    <glyph glyph-name="uni022F" unicode="&#x22f;" horiz-adv-x="1680" 
d="M840 -32q-208 0 -364.5 99t-244 277t-87.5 416q0 240 87.5 419t244 278t364.5 99t364.5 -99t244 -278t87.5 -419q0 -238 -87.5 -416t-244 -277t-364.5 -99zM840 180q158 0 260 81t151 213t49 286t-49 287t-151 215t-260 82t-260 -82t-151 -215t-49 -287t49 -286t151 -213
t260 -81zM840 1792q-69 0 -118.5 47t-49.5 113t49.5 113t118.5 47t118.5 -47t49.5 -113t-49.5 -113t-118.5 -47z" />
    <glyph glyph-name="uni0230" unicode="&#x230;" horiz-adv-x="2144" 
d="M1976 1024q0 -324 -117 -560t-321 -364t-466 -128t-466 128t-321 364t-117 560t117 560t321 364t466 128t466 -128t321 -364t117 -560zM1736 1024q0 266 -88.5 449t-239 277t-336.5 94t-336.5 -94t-239 -277t-88.5 -449t88.5 -449t239 -277t336.5 -94t336.5 94t239 277
t88.5 449zM1072 2304q-69 0 -118.5 47t-49.5 113t49.5 113t118.5 47t118.5 -47t49.5 -113t-49.5 -113t-118.5 -47zM1540 3072v-200h-936v200h936z" />
    <glyph glyph-name="uni0231" unicode="&#x231;" horiz-adv-x="1680" 
d="M840 -32q-208 0 -364.5 99t-244 277t-87.5 416q0 240 87.5 419t244 278t364.5 99t364.5 -99t244 -278t87.5 -419q0 -238 -87.5 -416t-244 -277t-364.5 -99zM840 180q158 0 260 81t151 213t49 286t-49 287t-151 215t-260 82t-260 -82t-151 -215t-49 -287t49 -286t151 -213
t260 -81zM1312 2556v-200h-936v200h936zM844 1788q-69 0 -118.5 47t-49.5 113t49.5 113t118.5 47t118.5 -47t49.5 -113t-49.5 -113t-118.5 -47z" />
    <glyph glyph-name="uni0232" unicode="&#x232;" horiz-adv-x="1872" 
d="M72 2048h284l568 -956h24l568 956h284l-740 -1204v-844h-248v844zM1404 2560v-200h-936v200h936z" />
    <glyph glyph-name="uni0233" unicode="&#x233;" horiz-adv-x="1568" 
d="M368 -576q-60 0 -107 9.5t-65 18.5l60 208q86 -22 152 -16t117.5 58.5t94.5 169.5l44 120l-568 1544h256l424 -1224h16l424 1224h256l-652 -1760q-44 -119 -109 -197.5t-150.5 -116.5t-192.5 -38zM1252 2048v-200h-936v200h936z" />
    <glyph glyph-name="uni0234" unicode="&#x234;" horiz-adv-x="964" 
d="M216 336h236v-540q0 -69 56.5 -118.5t131.5 -49.5q72 0 116 45.5t44 114.5q0 72 -47 112t-125 40q-96 0 -162.5 -53t-129.5 -119l-280 -292l-152 156l312 320q48 50 102.5 87t112 62.5t116 38t113.5 12.5q110 0 197 -45t137 -127t50 -192q0 -108 -49.5 -190t-140 -128
t-214.5 -46q-115 0 -196 38t-131.5 101.5t-73.5 140t-23 152.5v480zM452 2048v-2048h-236v2048h236z" />
    <glyph glyph-name="uni0235" unicode="&#x235;" horiz-adv-x="2152" 
d="M1196 148h236v-120q0 -69 56.5 -118.5t131.5 -49.5q72 0 116 45.5t44 114.5q0 72 -47 112t-125 40q-48 0 -88 -14.5t-74.5 -38.5t-66 -55t-63.5 -64l-280 -292l-152 156l312 320q48 50 102 87t111 62.5t115.5 38t115.5 12.5q110 0 197 -45t137 -127t50 -192
q0 -108 -49.5 -190t-140 -128t-214.5 -46q-115 0 -196 38t-131.5 101.5t-73.5 140t-23 152.5v60zM452 924v-924h-236v1536h228v-240h20q54 117 164 188.5t284 71.5q156 0 273 -63.5t182 -192t65 -324.5v-976h-236v960q0 181 -94 282.5t-258 101.5q-113 0 -201.5 -49
t-139.5 -143t-51 -228z" />
    <glyph glyph-name="uni0236" unicode="&#x236;" horiz-adv-x="1364" 
d="M400 1904h236v-1564q0 -69 54 -118.5t134 -49.5q67 0 117.5 40t50.5 120q0 61 -38 106.5t-142 45.5q-39 0 -88.5 -24.5t-115.5 -78.5t-156 -143t-212 -218l-152 156q172 184 293 298.5t228 168t235 53.5q194 0 293 -101t99 -251q0 -83 -28.5 -152t-82.5 -119t-130 -77.5
t-171 -27.5q-115 0 -196 38t-131.5 101.5t-73.5 140t-23 152.5v1504zM964 1536v-200h-796v200h796z" />
    <glyph glyph-name="uni0237" unicode="&#x237;" horiz-adv-x="668" 
d="M216 1536h236v-1648q0 -142 -48.5 -246t-146 -161t-245.5 -57h-24h-24v220h22h22q108 0 158 63.5t50 180.5v1648z" />
    <glyph glyph-name="uni0238" unicode="&#x238;" horiz-adv-x="2540" 
d="M2400 776v-28q0 -226 -73 -401t-209 -275t-324 -100q-132 0 -234.5 50.5t-175.5 146.5t-117 235t-59 316v88q20 236 92 403.5t196.5 256t303.5 88.5q187 0 321.5 -96.5t206.5 -272t72 -411.5zM2124 748v28q0 154 -38 279t-122.5 199t-223.5 74q-178 0 -274 -120
t-126 -288v-312q28 -114 77 -206.5t129 -147t200 -54.5q138 0 221 73t120 197t37 278zM1132 288v1760h276v-2048h-252zM140 748v28q0 236 72 411.5t206.5 272t321.5 96.5q179 0 304 -88.5t196.5 -256t91.5 -403.5v-88q-15 -177 -59 -316t-117 -235t-175.5 -146.5
t-234.5 -50.5q-188 0 -324 100t-209 275t-73 401zM416 776v-28q0 -154 37 -278t120 -197t221 -73q120 0 200 54.5t129 147t77 206.5v312q-20 112 -68.5 204.5t-130.5 148t-201 55.5q-139 0 -223.5 -74t-122.5 -199t-38 -279z" />
    <glyph glyph-name="uni0239" unicode="&#x239;" horiz-adv-x="2540" 
d="M1132 -572v1824l24 284h228l24 -284v-1824h-276zM140 748v28q0 236 72 411.5t206.5 272t321.5 96.5q179 0 304 -88.5t196.5 -256t91.5 -403.5v-88q-15 -177 -59 -316t-117 -235t-175.5 -146.5t-234.5 -50.5q-188 0 -324 100t-209 275t-73 401zM416 776v-28
q0 -154 37 -278t120 -197t221 -73q120 0 200 54.5t129 147t77 206.5v312q-20 112 -68.5 204.5t-130.5 148t-201 55.5q-139 0 -223.5 -74t-122.5 -199t-38 -279zM2400 776v-28q0 -226 -73 -401t-209 -275t-324 -100q-132 0 -234.5 50.5t-175.5 146.5t-117 235t-59 316v88
q20 236 92 403.5t196.5 256t303.5 88.5q187 0 321.5 -96.5t206.5 -272t72 -411.5zM2124 748v28q0 154 -38 279t-122.5 199t-223.5 74q-178 0 -274 -120t-126 -288v-312q28 -114 77 -206.5t129 -147t200 -54.5q138 0 221 73t120 197t37 278z" />
    <glyph glyph-name="uni023A" unicode="&#x23a;" horiz-adv-x="1904" 
d="M1572 2308l-912 -2568h-228l912 2568h228zM332 0h-260l752 2048h256l752 -2048h-260l-612 1724h-16zM428 800h1048v-220h-1048v220z" />
    <glyph glyph-name="uni023B" unicode="&#x23b;" horiz-adv-x="2048" 
d="M464 -260l912 2568h228l-912 -2568h-228zM1896 1408h-248q-22 107 -76.5 188t-132 136.5t-171.5 83.5t-196 28q-186 0 -336.5 -94t-239 -277t-88.5 -449t88.5 -449t239 -277t336.5 -94q102 0 196 28t171.5 83.5t132 137t76.5 187.5h248q-28 -157 -102 -281t-184 -210.5
t-246.5 -131.5t-291.5 -45q-262 0 -466 128t-321 364t-117 560t117 560t321 364t466 128q155 0 291.5 -45t246.5 -131.5t184 -210t102 -281.5z" />
    <glyph glyph-name="uni023C" unicode="&#x23c;" horiz-adv-x="1572" 
d="M1424 2048l-1048 -2624h-192l1052 2624h188zM840 -32q-216 0 -372 102t-240 281t-84 409q0 234 86.5 413.5t242 281t363.5 101.5q162 0 292 -60t213 -168t103 -252h-236q-27 105 -119.5 186.5t-248.5 81.5q-138 0 -241.5 -71.5t-161 -201t-57.5 -303.5q0 -178 56.5 -310
t160 -205t243.5 -73q92 0 167 32t127 92t74 144h236q-20 -136 -98.5 -244.5t-207 -172t-298.5 -63.5z" />
    <glyph glyph-name="uni023D" unicode="&#x23d;" horiz-adv-x="1584" 
d="M248 0v2048h248v-1828h952v-220h-1200zM-68 964v184h880v-184h-880z" />
    <glyph glyph-name="uni023E" unicode="&#x23e;" horiz-adv-x="1808" 
d="M360 -260l912 2568h228l-912 -2568h-228zM136 1828v220h1536v-220h-644v-1828h-248v1828h-644z" />
    <glyph glyph-name="uni023F" unicode="&#x23f;" horiz-adv-x="1472" 
d="M376 364q131 -232 212 -378t132 -224.5t87.5 -108t76.5 -29.5q54 0 104.5 33t83.5 63l92 -160q-45 -45 -122 -90.5t-158 -45.5q-88 0 -157.5 37.5t-128.5 109.5t-118 173l-292 508zM1304 1192l-212 -60q-20 53 -58.5 103.5t-104.5 83.5t-169 33q-141 0 -234.5 -64.5
t-93.5 -163.5q0 -88 64 -139t200 -85l228 -56q206 -50 307 -152.5t101 -263.5q0 -132 -75.5 -236t-210.5 -164t-314 -60q-235 0 -389 102t-195 298l224 56q32 -124 121.5 -186t234.5 -62q165 0 262.5 70.5t97.5 169.5q0 80 -56 134.5t-172 81.5l-256 60
q-211 50 -309.5 155.5t-98.5 264.5q0 130 73.5 230t201 157t289.5 57q228 0 358.5 -100t185.5 -264z" />
    <glyph glyph-name="uni0240" unicode="&#x240;" horiz-adv-x="1516" 
d="M464 220h80q126 0 219 -41.5t161.5 -107t121.5 -139.5t97.5 -139.5t89.5 -107t99 -41.5q38 0 71 10t61 27t52 39l92 -160q-45 -45 -119 -90.5t-173 -45.5q-90 0 -154.5 41.5t-115.5 107t-100 139.5t-106.5 139.5t-135.5 107t-188 41.5h-52v220zM484 220v-220h-308v200
l864 1116h-880v220h1184v-188z" />
    <glyph glyph-name="uni0241" unicode="&#x241;" horiz-adv-x="1520" 
d="M664 624h60q156 0 241 73.5t118 189t33 241.5v204q0 93 -18.5 182.5t-62 162.5t-119.5 116t-192 43q-150 0 -238.5 -88t-97.5 -232h-268q6 160 82.5 286.5t210 200t311.5 73.5q228 0 378 -103.5t224 -273t74 -367.5v-204q0 -198 -74 -367.5t-224 -273t-378 -103.5h-60
v240zM880 624v-624h-288v624h288z" />
    <glyph glyph-name="uni0242" unicode="&#x242;" horiz-adv-x="1520" 
d="M192 964q0 190 74 322t205.5 201t302.5 69t295.5 -66t191.5 -195t67 -319q0 -154 -54 -274t-176 -189t-326 -69h-64v172h60q159 0 223.5 96t64.5 250q0 161 -65.5 267.5t-220.5 106.5q-145 0 -223.5 -100.5t-78.5 -271.5h-276zM640 616h276v-616h-276v616z" />
    <glyph glyph-name="uni0243" unicode="&#x243;" horiz-adv-x="1988" 
d="M404 0v2048h716q214 0 353 -73.5t207 -197t68 -273.5q0 -132 -46.5 -218t-122 -136t-163.5 -74v-20q94 -6 189 -66t159 -172t64 -274q0 -154 -70 -277t-221 -195t-393 -72h-740zM652 220h492q243 0 345.5 94.5t102.5 229.5q0 104 -53 192.5t-151 142t-232 53.5h-504v-712
zM652 1148h460q112 0 202.5 44t144 124t53.5 188q0 135 -94 229.5t-298 94.5h-468v-680zM88 484v184h880v-184h-880z" />
    <glyph glyph-name="uni0244" unicode="&#x244;" horiz-adv-x="2088" 
d="M2096 1188v-164h-2104v164h2104zM1592 2048h248v-1356q0 -210 -98.5 -374.5t-277.5 -259t-420 -94.5t-420 94.5t-277.5 259t-98.5 374.5v1356h248v-1336q0 -150 66 -266.5t188.5 -183t293.5 -66.5t294 66.5t188.5 183t65.5 266.5v1336z" />
    <glyph glyph-name="uni0245" unicode="&#x245;" horiz-adv-x="2032" 
d="M1572 0l-580 1732l-72 316h220l744 -2048h-312zM1036 1732l-572 -1732h-312l740 2048h220z" />
    <glyph glyph-name="uni0246" unicode="&#x246;" horiz-adv-x="1684" 
d="M1412 2308l-740 -2568h-228l740 2568h228zM248 0v2048h1236v-220h-988v-692h924v-220h-924v-696h1004v-220h-1252z" />
    <glyph glyph-name="uni0247" unicode="&#x247;" horiz-adv-x="1640" 
d="M1424 2048l-1048 -2624h-192l1052 2624h188zM860 -32q-222 0 -382.5 98.5t-247 276t-86.5 413.5t86.5 416.5t242 282t363.5 101.5q120 0 237 -40t213 -129.5t153 -236.5t57 -362v-100h-1184v204h944q0 130 -51.5 232t-146 161t-222.5 59q-141 0 -243.5 -69.5
t-157.5 -180.5t-55 -238v-136q0 -174 60.5 -294.5t168.5 -183t251 -62.5q93 0 168.5 26.5t130.5 80t85 133.5l228 -64q-36 -116 -121 -203.5t-210 -136t-281 -48.5z" />
    <glyph glyph-name="uni0248" unicode="&#x248;" horiz-adv-x="1528" 
d="M1032 2048h248v-1464q0 -196 -72 -333t-203 -208t-309 -71q-168 0 -299 61.5t-206 175.5t-75 271h244q0 -87 43.5 -151.5t119.5 -100.5t173 -36q107 0 182 45t114.5 132.5t39.5 214.5v1464zM716 1124v184h880v-184h-880z" />
    <glyph glyph-name="uni0249" unicode="&#x249;" horiz-adv-x="668" 
d="M216 1536h236v-1648q0 -142 -48.5 -246t-146 -161t-245.5 -57h-24h-24v220h22h22q108 0 158 63.5t50 180.5v1648zM-108 800v184h880v-184h-880zM332 1792q-69 0 -118.5 47t-49.5 113t49.5 113t118.5 47t118.5 -47t49.5 -113t-49.5 -113t-118.5 -47z" />
    <glyph glyph-name="uni024A" unicode="&#x24a;" horiz-adv-x="2196" 
d="M1896 2048v-2212q0 -120 64 -164t160 -44q21 0 41 2.5t35 5.5v-200q-27 -9 -63.5 -10.5t-72.5 -1.5q-84 0 -156.5 27t-127.5 80t-85.5 129.5t-30.5 175.5v488h-16q-78 -171 -239.5 -263.5t-368.5 -92.5q-192 0 -351 77.5t-275 219t-179 337t-63 430.5q0 228 62.5 419
t178 331t275 217t352.5 77q210 0 371.5 -91t236.5 -253h24v316h228zM1036 204q226 0 364 110t201 296.5t63 417.5q0 226 -67 413t-205.5 299t-351.5 112q-190 0 -331 -107t-219 -293t-78 -424q0 -254 80 -439t221 -285t323 -100z" />
    <glyph glyph-name="uni024B" unicode="&#x24b;" horiz-adv-x="1800" 
d="M1664 -576q-84 0 -156.5 27t-127.5 80t-85.5 129.5t-30.5 175.5v100h236v-100q0 -80 29.5 -125.5t80 -64t114.5 -18.5q21 0 41 2.5t35 5.5v-200q-27 -9 -63.5 -10.5t-72.5 -1.5zM796 -32q-192 0 -339 97.5t-230 276t-83 422.5q0 242 83 420t231 275t342 97
q113 0 189.5 -29t125.5 -72.5t79.5 -88t49.5 -74.5h116v-1056h-116q-26 -42 -74 -105.5t-137 -113t-237 -49.5zM1500 -64h-236v428l80 388l-72 496v288h228v-1600zM828 180q142 0 240 74.5t149 207t51 306.5q0 172 -50 301.5t-148 202t-242 72.5q-150 0 -249.5 -76.5
t-149 -207t-49.5 -292.5q0 -164 50.5 -297.5t150 -212t247.5 -78.5z" />
    <glyph glyph-name="uni024C" unicode="&#x24c;" horiz-adv-x="1824" 
d="M412 800h-380v224h380v-224zM272 0v2048h692q240 0 394 -81.5t228 -223.5t74 -323t-74 -321t-227 -219.5t-391 -79.5h-560v224h552q164 0 264.5 48t146 136.5t45.5 211.5t-46 215t-147 142.5t-267 50.5h-436v-1828h-248zM1236 920l504 -920h-288l-496 920h280z" />
    <glyph glyph-name="uni024D" unicode="&#x24d;" horiz-adv-x="1048" 
d="M216 0v1536h228v-232h16q42 114 152 185t248 71q26 0 65 -1t59 -3v-240q-12 3 -54.5 9.5t-89.5 6.5q-112 0 -199.5 -46.5t-138 -128t-50.5 -185.5v-972h-236zM-104 644v184h880v-184h-880z" />
    <glyph glyph-name="uni024E" unicode="&#x24e;" horiz-adv-x="1880" 
d="M1872 1628v-164h-1864v164h1864zM72 2048h284l568 -956h24l568 956h284l-740 -1204v-844h-248v844z" />
    <glyph glyph-name="uni024F" unicode="&#x24f;" horiz-adv-x="1568" 
d="M1452 1096v-184h-1344v184h1344zM368 -576q-60 0 -107 9.5t-65 18.5l60 208q86 -22 152 -16t117.5 58.5t94.5 169.5l44 120l-568 1544h256l424 -1224h16l424 1224h256l-652 -1760q-44 -119 -109 -197.5t-150.5 -116.5t-192.5 -38z" />
    <glyph glyph-name="uni0250" unicode="&#x250;" horiz-adv-x="1588" 
d="M920 1572q146 0 265 -55.5t189 -161t70 -255.5q0 -132 -52 -214.5t-139 -129.5t-192.5 -70.5t-212.5 -37.5q-140 -18 -227.5 -27.5t-128 -32.5t-40.5 -80v-8q0 -148 80.5 -230t243.5 -82q169 0 265 74t135 158l224 -80q-60 -140 -160.5 -218.5t-220 -110t-235.5 -31.5
q-73 0 -170 17.5t-187.5 71.5t-150.5 163t-60 292v1012h236v-208h12q24 50 80 107t149 97t227 40zM884 1360q-140 0 -236.5 -55t-146 -142t-49.5 -183v-216q15 18 65.5 32.5t116 25t127.5 18.5t99 12q92 12 171.5 38.5t128 79t48.5 142.5q0 123 -91.5 185.5t-232.5 62.5z
" />
    <glyph glyph-name="uni0251" unicode="&#x251;" horiz-adv-x="1804" 
d="M780 -32q-192 2 -335 104.5t-222 282.5t-79 413q0 231 83.5 408.5t230.5 278.5t338 101q140 0 242 -53.5t173.5 -148.5t120.5 -218h92l36 -364l200 -772h-220l-188 772q-15 73 -46 170t-83 189t-132.5 152.5t-194.5 60.5q-122 0 -216 -74t-147 -205t-53 -301
q0 -166 50 -298.5t140 -209t210 -76.5q111 0 193 61.5t138 155t90.5 193t50.5 174.5l168 772h220l-180 -772l-36 -376h-80q-52 -124 -129.5 -219.5t-185 -148.5t-249.5 -52z" />
    <glyph glyph-name="uni0252" unicode="&#x252;" horiz-adv-x="1776" 
d="M1608 840v-68q0 -234 -67.5 -414.5t-198 -283t-318.5 -102.5q-136 0 -238 50t-171.5 144.5t-110.5 229.5t-56 304v124q20 228 86.5 392t188 252t305.5 88t313.5 -92.5t198 -254t68.5 -369.5zM1332 772v68q0 136 -37.5 248.5t-120 180t-218.5 67.5q-132 0 -212.5 -72
t-127 -187t-76.5 -245v-108q22 -136 69 -257.5t130 -198t213 -76.5q138 0 221.5 80t121 212t37.5 288zM580 0h-232v1116q0 123 -31 159.5t-73 36.5q-12 0 -23 -2t-17 -2l-32 200q42 30 85 39t91 9q129 0 202.5 -101.5t73.5 -338.5v-792z" />
    <glyph glyph-name="uni0253" unicode="&#x253;" horiz-adv-x="1716" 
d="M920 -32q-148 0 -237 49.5t-137 113t-74 105.5h-28v-236h-228v1664q0 99 30.5 175.5t85.5 129.5t127.5 80t156.5 27q36 0 72.5 -1.5t63.5 -10.5v-200q-15 3 -35 5.5t-41 2.5q-64 0 -114.5 -18.5t-80 -64t-29.5 -125.5v-372h20q26 40 72.5 102.5t134 112t237.5 49.5
q194 0 342 -97t231 -275t83 -420q0 -244 -83 -422.5t-230 -276t-339 -97.5zM888 180q148 0 247.5 78.5t150 212t50.5 297.5q0 162 -49.5 292.5t-149 207t-249.5 76.5q-144 0 -242 -72.5t-148 -202t-50 -301.5q0 -174 51 -306.5t149 -207t240 -74.5z" />
    <glyph glyph-name="uni0254" unicode="&#x254;" horiz-adv-x="1520" 
d="M128 472h260q8 -78 53.5 -141.5t121 -101t173.5 -37.5q146 0 230 78.5t119 199t35 246.5v76q0 136 -36.5 260.5t-122 204t-231.5 79.5q-162 0 -246 -100.5t-96 -259.5h-260q8 170 81.5 301t205.5 205t315 74q221 0 368 -104.5t220.5 -278t73.5 -381.5v-76
q0 -198 -75.5 -367.5t-221.5 -273t-357 -103.5q-175 0 -309.5 71t-213.5 185t-87 244z" />
    <glyph glyph-name="uni0255" unicode="&#x255;" horiz-adv-x="1572" 
d="M840 -32q-214 0 -370 101.5t-241 282t-85 416.5q0 230 86.5 408t242 279t363.5 101q162 0 292 -60t213 -168t103 -252h-236q-27 105 -119.5 186.5t-248.5 81.5q-138 0 -241.5 -71.5t-161 -201t-57.5 -303.5q0 -178 56.5 -310t160 -205t243.5 -73v-212zM144 -52l-164 144
q47 48 119 129.5t167.5 174t211.5 175.5t250 136t284 53q134 0 222 -44.5t131 -122t43 -177.5q0 -138 -76 -238.5t-205 -155t-287 -54.5v212q138 0 233 64.5t95 163.5q0 75 -54.5 109.5t-105.5 34.5q-95 0 -199 -49.5t-206 -127t-192.5 -162t-160 -156.5t-106.5 -109z" />
    <glyph glyph-name="uni0256" unicode="&#x256;" horiz-adv-x="1716" 
d="M1664 -576q-84 0 -156.5 27t-127.5 80t-85.5 129.5t-30.5 175.5v456h236v-456q0 -80 29.5 -125.5t80 -64t114.5 -18.5q21 0 41 2.5t35 5.5v-200q-27 -9 -63.5 -10.5t-72.5 -1.5zM796 -32q-192 0 -339 97.5t-230 276t-83 422.5q0 242 83 420t231 275t342 97
q150 0 237.5 -49.5t134 -112t72.5 -102.5h20v756h236v-2048h-228v236h-28q-26 -42 -74 -105.5t-137 -113t-237 -49.5zM828 180q142 0 240 74.5t149 207t51 306.5q0 172 -50 301.5t-148 202t-242 72.5q-150 0 -249.5 -76.5t-149 -207t-49.5 -292.5q0 -164 50.5 -297.5
t150 -212t247.5 -78.5z" />
    <glyph glyph-name="uni0257" unicode="&#x257;" horiz-adv-x="1732" 
d="M796 -32q-192 0 -339 97.5t-230 276t-83 422.5q0 242 83 420t231 275t342 97q150 0 237.5 -49.5t134 -112t72.5 -102.5h116v-1056h-116q-26 -42 -74 -105.5t-137 -113t-237 -49.5zM1264 1672q0 99 30.5 175t86 128t129 78.5t158.5 26.5q33 0 71 -3.5t65 -12.5v-204
q-15 6 -38 7t-38 1q-64 0 -115.5 -15.5t-82 -58t-30.5 -122.5v-1672h-228v288l72 496l-80 388v500zM828 180q142 0 240 74.5t149 207t51 306.5q0 172 -50 301.5t-148 202t-242 72.5q-150 0 -249.5 -76.5t-149 -207t-49.5 -292.5q0 -164 50.5 -297.5t150 -212t247.5 -78.5z
" />
    <glyph glyph-name="uni0258" unicode="&#x258;" horiz-adv-x="1520" 
d="M708 -28q-122 0 -226.5 33t-190.5 98t-151 161l168 128q77 -100 178 -150t214 -50q133 0 226.5 64.5t143.5 181.5t50 274v56q0 133 -24.5 238t-72 178.5t-117.5 112.5t-162 39q-98 0 -171.5 -46.5t-117.5 -139t-55 -230.5v-20h832v-220h-1108v120q0 236 72 405.5
t207.5 260t324.5 90.5q200 0 350.5 -98.5t234 -275.5t83.5 -414v-56q0 -168 -48.5 -304.5t-139 -233.5t-217.5 -149.5t-283 -52.5z" />
    <glyph glyph-name="uni0259" unicode="&#x259;" horiz-adv-x="1640" 
d="M780 1568q222 0 382.5 -98.5t247 -276t86.5 -413.5t-86.5 -416.5t-242 -282t-363.5 -101.5q-120 0 -237 40t-213 129.5t-153 237t-57 361.5v100h1184v-204h-944q0 -130 51.5 -232t146 -161t222.5 -59q142 0 244 69.5t157 181t55 237.5v136q0 175 -60.5 295t-168.5 182.5
t-251 62.5q-92 0 -168 -26.5t-131 -80t-85 -133.5l-228 64q36 116 121 203.5t210 136t281 48.5z" />
    <glyph glyph-name="uni025A" unicode="&#x25a;" horiz-adv-x="2032" 
d="M676 1516q212 0 366.5 -92.5t238 -254t83.5 -369.5v-60q0 -244 -94 -415.5t-243 -262t-315 -90.5q-220 0 -356.5 97.5t-200 265t-63.5 377.5v88l1036 200v-228l-760 -144v-40q0 -94 32.5 -185t108 -151t203.5 -60q83 0 151.5 35.5t119 105t78 172t27.5 235.5v60
q0 136 -49.5 248.5t-144 180t-230.5 67.5q-135 0 -228.5 -56.5t-159.5 -143.5l-168 128q50 74 125.5 141t184 109t258.5 42zM1236 792v228l364 68q18 -118 40.5 -207t64 -139t115.5 -50q36 0 54 0.5t30 3.5l36 -168q-39 -18 -83.5 -31t-92.5 -13q-114 0 -181 48t-103 127
t-56 173z" />
    <glyph glyph-name="uni025B" unicode="&#x25b;" horiz-adv-x="1532" 
d="M720 800h208v-112h-184q-108 0 -187 -35t-122 -93.5t-43 -131.5q0 -108 105 -174t279 -66q168 0 259 64t121 196h248q-13 -108 -63 -196t-133 -150.5t-195 -96t-249 -33.5q-178 0 -318.5 55.5t-221 155.5t-80.5 233q0 61 23.5 128t85 125t175 94.5t292.5 36.5zM928 736
h-208q-175 0 -283.5 34t-166 88.5t-78 119.5t-20.5 126q0 142 74 243t206.5 155t307.5 54t306.5 -53t211 -152.5t98.5 -238.5h-248q-25 104 -119 168t-249 64q-158 0 -253 -66.5t-95 -173.5q0 -96 82.5 -154t249.5 -58h184v-156z" />
    <glyph glyph-name="uni025C" unicode="&#x25c;" horiz-adv-x="1620" 
d="M828 800q179 0 292.5 -36.5t175 -94.5t85 -125t23.5 -128q0 -133 -80.5 -233t-220.5 -155.5t-319 -55.5q-136 0 -248.5 33.5t-195.5 96t-133 150.5t-63 196h248q30 -132 121 -196t259 -64q174 0 279 66t105 174q0 73 -43 131.5t-122 93.5t-187 35h-184v112h208zM620 736
v156h184q167 0 249.5 58t82.5 154q0 107 -95 173.5t-253 66.5q-154 0 -248.5 -64t-119.5 -168h-248q20 139 99 238.5t210.5 152.5t306.5 53t307.5 -54t206.5 -155t74 -243q0 -61 -20.5 -126t-78 -119.5t-165.5 -88.5t-284 -34h-208z" />
    <glyph glyph-name="uni025D" unicode="&#x25d;" horiz-adv-x="2032" 
d="M1240 1000v224l364 72q18 -118 40.5 -208t64 -141t115.5 -51q36 0 54 2.5t30 5.5l36 -168q-39 -21 -83.5 -32.5t-92.5 -11.5q-114 0 -181 47.5t-103 126t-56 170.5zM828 800q179 0 292.5 -36.5t175 -94.5t85 -125t23.5 -128q0 -133 -80.5 -233t-220.5 -155.5t-319 -55.5
q-136 0 -248.5 33.5t-195.5 96t-133 150.5t-63 196h248q30 -132 121 -196t259 -64q174 0 279 66t105 174q0 73 -43 131.5t-122 93.5t-187 35h-184v112h208zM620 736v156h184q167 0 249.5 58t82.5 154q0 107 -95 173.5t-253 66.5q-154 0 -248.5 -64t-119.5 -168h-248
q20 139 99 238.5t210.5 152.5t306.5 53t307.5 -54t206.5 -155t74 -243q0 -61 -20.5 -126t-78 -119.5t-165.5 -88.5t-284 -34h-208z" />
    <glyph glyph-name="uni025E" unicode="&#x25e;" horiz-adv-x="1584" 
d="M820 -28q-171 0 -300 56t-216.5 162.5t-131.5 258.5t-44 343h236q0 -281 112.5 -442.5t343.5 -161.5q167 0 269.5 66t102.5 174q0 73 -43 131.5t-122 93.5t-187 35h-184v112h208q179 0 292.5 -36.5t175 -94.5t85 -125t23.5 -128q0 -133 -80.5 -233t-220.5 -155.5
t-319 -55.5zM864 736h-208v156h184q167 0 249.5 58t82.5 154q0 107 -92 173.5t-244 66.5q-159 0 -263.5 -66.5t-156.5 -190t-52 -295.5h-236q0 178 44.5 319.5t132 240.5t218 151.5t301.5 52.5q263 0 425.5 -119.5t162.5 -332.5q0 -61 -20.5 -126t-78 -119.5t-165.5 -88.5
t-284 -34z" />
    <glyph glyph-name="uni025F" unicode="&#x25f;" horiz-adv-x="668" 
d="M216 1536h236v-1648q0 -142 -48.5 -246t-146 -161t-245.5 -57h-24h-24v220h22h22q108 0 158 63.5t50 180.5v1648zM-108 800v184h880v-184h-880z" />
    </font>
</defs>
</svg>
