<?xml version="1.0" standalone="no"?>
<!DOCTYPE svg PUBLIC "-//W3C//DTD SVG 1.1//EN" "http://www.w3.org/Graphics/SVG/1.1/DTD/svg11.dtd" >
<svg xmlns="http://www.w3.org/2000/svg" xmlns:xlink="http://www.w3.org/1999/xlink" version="1.1">
<metadata>
Created by FontForge 20201107 at Wed Sep  1 18:46:30 2021
 By 
Copyright 2020 The Inter Project Authors (https://github.com/rsms/inter)
</metadata>
<defs>
<font id="Inter-ExtraLight" horiz-adv-x="0" >
  <font-face 
    font-family="Inter ExtraLight"
    font-weight="250"
    font-stretch="normal"
    units-per-em="2816"
    panose-1="2 0 5 3 0 0 0 2 0 4"
    ascent="2252"
    descent="-564"
    x-height="1536"
    cap-height="2048"
    bbox="-2021 -900 7274 3023"
    underline-thickness="192"
    underline-position="-560"
    unicode-range="U+0020-1F852"
  />
<missing-glyph horiz-adv-x="2696" 
d="M219 -640v512h2258v-512h-2258zM219 1472v512h2258v-512h-2258zM219 2176v512h2258v-512h-2258zM219 64v512h2258v-512h-2258zM219 768v512h2258v-512h-2258z" />
    <glyph glyph-name=".notdef" horiz-adv-x="2696" 
d="M219 -640v512h2258v-512h-2258zM219 1472v512h2258v-512h-2258zM219 2176v512h2258v-512h-2258zM219 64v512h2258v-512h-2258zM219 768v512h2258v-512h-2258z" />
    <glyph glyph-name=".null" 
 />
    <glyph glyph-name="nonmarkingreturn" horiz-adv-x="938" 
 />
    <glyph glyph-name="uni0020" unicode=" " horiz-adv-x="792" 
 />
    <glyph glyph-name="uni0021" unicode="!" horiz-adv-x="752" 
d="M443 2048l-7 -1451h-120l-7 1451h134zM376 -13q-45 0 -76.5 31.5t-31.5 76.5q0 44 32 76t76 32t76 -32t32 -76q0 -30 -14.5 -54.5t-39 -39t-54.5 -14.5z" />
    <glyph glyph-name="uni0022" unicode="&#x22;" horiz-adv-x="1019" 
d="M353 2048v-661h-116v661h116zM780 2048v-661h-116v661h116z" />
    <glyph glyph-name="uni0023" unicode="#" horiz-adv-x="1781" 
d="M1028 0l336 2048h109l-336 -2048h-109zM59 613l18 110h1528l-18 -110h-1528zM308 0l336 2048h109l-336 -2048h-109zM176 1325l19 110h1528l-19 -110h-1528z" />
    <glyph glyph-name="uni0024" unicode="$" horiz-adv-x="1748" 
d="M827 -256v2560h97v-2560h-97zM1400 1536q-16 191 -155.5 309t-360.5 118q-149 0 -265 -55t-182 -150t-66 -218q0 -79 30.5 -142.5t86.5 -113t133 -86.5t170 -65l224 -66q115 -35 212.5 -81t170 -109.5t113 -148.5t40.5 -196q0 -162 -83.5 -290t-237 -201.5t-361.5 -73.5
q-198 0 -344.5 67t-231.5 186.5t-96 275.5h128q10 -127 81.5 -219.5t190.5 -142.5t272 -50q165 0 291 56.5t197 157.5t71 235q0 108 -51 185t-150.5 133t-246.5 100l-239 72q-240 73 -366.5 199t-126.5 314q0 158 84 280.5t228.5 192.5t326.5 70q183 0 323 -70.5t222 -193
t91 -279.5h-123z" />
    <glyph glyph-name="uni0025" unicode="%" horiz-adv-x="2213" 
d="M1272 376v79q0 117 45 208t125.5 143.5t186.5 52.5q107 0 187 -52.5t124.5 -143.5t44.5 -208v-79q0 -117 -44.5 -208.5t-125 -143.5t-186.5 -52t-186.5 52t-125.5 143.5t-45 208.5zM1383 455v-79q0 -133 67 -218.5t179 -85.5t179 85.5t67 218.5v79q0 133 -66.5 218.5
t-179.5 85.5q-111 0 -178.5 -85.5t-67.5 -218.5zM228 1593v79q0 117 45 208.5t125.5 143.5t186.5 52q107 0 187 -52t124.5 -143.5t44.5 -208.5v-79q0 -116 -44.5 -207.5t-125 -144t-186.5 -52.5t-186.5 52.5t-125.5 144t-45 207.5zM339 1672v-79q0 -133 67 -218.5t179 -85.5
t179 85.5t67 218.5v79q0 133 -66.5 218.5t-179.5 85.5q-111 0 -178.5 -85.5t-67.5 -218.5zM336 0l1405 2048h127l-1405 -2048h-127z" />
    <glyph glyph-name="uni0026" unicode="&#x26;" horiz-adv-x="1696" 
d="M769 -28q-175 0 -310.5 73t-213 197.5t-77.5 280.5q0 104 41 190.5t124.5 171t211.5 179.5l299 223q126 94 184.5 176.5t58.5 189.5q0 128 -87.5 219t-222.5 91q-92 0 -168.5 -47.5t-122 -123.5t-45.5 -163q0 -68 32.5 -134.5t93 -146t145.5 -184.5l932 -1164h-148
l-856 1067q-99 122 -171 214t-111 175t-39 175q0 123 60.5 223.5t163.5 159.5t232 59q128 0 226 -55.5t153 -151t55 -213.5q0 -131 -69.5 -237t-215.5 -219l-336 -250q-168 -128 -232.5 -228t-64.5 -196q0 -120 62 -219t169.5 -159t244.5 -61q138 2 255 54t206.5 145.5
t146 223t73.5 288.5l119 -6q-10 -125 -44 -224.5t-78.5 -175.5t-85.5 -129q-12 -16 -23 -31t-24 -29q-101 -109 -247.5 -168.5t-295.5 -59.5z" />
    <glyph glyph-name="uni0027" unicode="'" horiz-adv-x="592" 
d="M353 2048v-661h-116v661h116z" />
    <glyph glyph-name="uni0028" unicode="(" horiz-adv-x="932" 
d="M319 864q0 342 83.5 664.5t240.5 615.5h114q-74 -136 -132 -290.5t-98.5 -319.5t-62 -334t-21.5 -336q0 -223 38 -449t108.5 -438t167.5 -393h-114q-157 295 -240.5 617.5t-83.5 662.5z" />
    <glyph glyph-name="uni0029" unicode=")" horiz-adv-x="932" 
d="M613 864q0 -342 -83.5 -664.5t-240.5 -615.5h-114q74 136 132 290.5t98.5 319.5t62 334t21.5 336q0 223 -38 449t-108 438t-168 393h114q157 -295 240.5 -617.5t83.5 -662.5z" />
    <glyph glyph-name="uni002A" unicode="*" horiz-adv-x="1408" 
d="M651 896l5 493l-425 -252l-54 94l432 241l-432 241l54 94l425 -252l-5 493h106l-5 -493l425 252l54 -94l-432 -241l432 -241l-54 -94l-425 252l5 -493h-106z" />
    <glyph glyph-name="uni002B" unicode="+" horiz-adv-x="1813" 
d="M848 193v1214h117v-1214h-117zM300 741v118h1213v-118h-1213z" />
    <glyph glyph-name="uni002C" unicode="," horiz-adv-x="745" 
d="M493 280l-18 -105q-18 -103 -45.5 -232.5t-56.5 -249.5t-53 -193h-95q14 72 34.5 176.5t43 230.5t42.5 261l18 112h130z" />
    <glyph glyph-name="uni002D" unicode="-" horiz-adv-x="1256" 
d="M1032 936v-116h-808v116h808z" />
    <glyph glyph-name="uni002E" unicode="." horiz-adv-x="733" 
d="M367 -13q-45 0 -76.5 31.5t-31.5 76.5q0 44 31.5 76t76.5 32q44 0 76 -32t32 -76q0 -30 -14.5 -54.5t-39 -39t-54.5 -14.5z" />
    <glyph glyph-name="uni002F" unicode="/" horiz-adv-x="941" 
d="M860 2144l-660 -2452h-117l660 2452h117z" />
    <glyph glyph-name="uni0030" unicode="0" horiz-adv-x="1696" 
d="M848 -28q-205 0 -352 126t-225.5 361.5t-78.5 564.5q0 328 79 564t225.5 362t351.5 126t351.5 -126t225.5 -362t79 -564q0 -329 -78.5 -564.5t-225.5 -361.5t-352 -126zM848 88q249 0 391 247.5t142 688.5q0 294 -64.5 504t-183.5 321.5t-285 111.5q-249 0 -391 -248
t-142 -689q0 -294 64 -503.5t183.5 -321t285.5 -111.5z" />
    <glyph glyph-name="uni0031" unicode="1" horiz-adv-x="1201" 
d="M788 2048v-2048h-125v1916h-12l-460 -305v134l456 303h141z" />
    <glyph glyph-name="uni0032" unicode="2" horiz-adv-x="1733" 
d="M244 0v95l663 764q142 164 225 278t119 206t36 192q0 125 -58.5 221.5t-159 150.5t-228.5 54q-134 0 -235 -59t-157.5 -160t-56.5 -227h-121q0 159 74 286t203.5 201t295.5 74q163 0 290 -71t200 -193.5t73 -276.5q0 -113 -38.5 -217.5t-131.5 -233t-257 -316.5
l-556 -641v-11h1075v-116h-1255z" />
    <glyph glyph-name="uni0033" unicode="3" horiz-adv-x="1749" 
d="M883 -28q-182 0 -325 69.5t-226.5 191t-86.5 279.5h127q3 -125 71 -220.5t182.5 -149.5t255.5 -54q153 0 268.5 60t180.5 162.5t65 229.5q0 136 -71 238.5t-198 160t-295 57.5h-76v116h76q143 0 256 52.5t178.5 148.5t65.5 227q0 123 -57 218t-157.5 149t-235.5 54
q-130 0 -235.5 -53t-167.5 -149t-63 -223h-123q2 159 80.5 281t211 190.5t299.5 68.5q170 0 298.5 -71t200 -192t71.5 -269q0 -178 -98.5 -304.5t-266.5 -175.5v-11q199 -44 315 -181t116 -332q0 -160 -82 -289t-225.5 -204t-328.5 -75z" />
    <glyph glyph-name="uni0034" unicode="4" horiz-adv-x="1720" 
d="M193 460v100l927 1488h76v-193h-65l-787 -1268v-11h1183v-116h-1334zM1141 0v494v45v1509h122v-2048h-122z" />
    <glyph glyph-name="uni0035" unicode="5" horiz-adv-x="1643" 
d="M801 -28q-164 0 -292.5 69.5t-203 191.5t-76.5 279h123q4 -186 129 -305t320 -119q150 0 264.5 72.5t179.5 197.5t64 282q0 166 -70 290t-187 192t-259 69q-112 0 -210 -40.5t-167 -103.5l-141 20l121 981h960v-116h-853l-94 -767h10q72 64 171.5 103.5t216.5 39.5
q172 0 314.5 -84t227 -234t83.5 -349q-1 -192 -82 -343t-223.5 -238.5t-325.5 -87.5z" />
    <glyph glyph-name="uni0036" unicode="6" horiz-adv-x="1679" 
d="M855 -28q-129 1 -245 55.5t-205.5 170t-141 298t-51.5 437.5q0 229 36.5 435t115.5 365.5t206.5 251t308.5 91.5q158 0 278.5 -68.5t192.5 -190t87 -281.5h-124q-21 187 -133.5 305.5t-300.5 118.5q-266 0 -406.5 -260t-140.5 -744h11q40 96 118.5 169.5t181.5 114.5
t217 41q166 0 303.5 -85t220.5 -233t83 -335q0 -177 -77 -326.5t-214.5 -240t-320.5 -89.5zM855 88q140 0 250.5 73t174.5 195.5t64 271.5q0 150 -66 272t-178.5 193.5t-252.5 71.5q-110 0 -204 -44.5t-161.5 -122.5t-99 -178.5t-17.5 -211.5q23 -161 90.5 -277.5
t170 -179.5t229.5 -63z" />
    <glyph glyph-name="uni0037" unicode="7" horiz-adv-x="1563" 
d="M297 0l951 1921v11h-1093v116h1229v-120l-952 -1928h-135z" />
    <glyph glyph-name="uni0038" unicode="8" horiz-adv-x="1709" 
d="M855 -28q-186 0 -335 74.5t-235.5 201.5t-85.5 285q-1 125 53.5 235t149.5 187.5t217 103.5v9q-155 49 -252.5 181t-97.5 299q0 149 77.5 268.5t210.5 189.5t298 70q162 0 295 -69.5t211.5 -189t78.5 -269.5q0 -166 -96.5 -298.5t-252.5 -181.5v-9q121 -25 215.5 -102.5
t149 -188t55.5 -235.5q-1 -158 -87.5 -285t-235 -201.5t-333.5 -74.5zM855 88q153 0 273 60t189 162.5t70 229.5q-1 129 -71.5 234t-190.5 167t-270 62q-151 0 -271.5 -62t-191 -167t-69.5 -234q-1 -127 68.5 -229.5t190 -162.5t273.5 -60zM855 1111q129 0 233.5 58
t166.5 156t62 218t-61.5 214.5t-166 149t-234.5 54.5q-131 0 -236 -54.5t-166 -149t-61 -214.5t61.5 -218t166.5 -156t235 -58z" />
    <glyph glyph-name="uni0039" unicode="9" horiz-adv-x="1679" 
d="M824 2076q129 0 245 -55t205.5 -169.5t141 -296t51.5 -436.5q0 -229 -36.5 -435.5t-115.5 -367t-206 -252.5t-309 -92q-159 0 -279 69t-192.5 191.5t-87.5 283.5h124q21 -187 134 -307.5t301 -120.5q265 0 406 261t141 747h-11q-40 -96 -118.5 -169.5t-181.5 -114.5
t-217 -41q-167 0 -305 85t-220 233t-82 335q0 176 76.5 325t214 238.5t321.5 88.5zM824 1960q-141 0 -251.5 -72t-174 -194t-63.5 -270q0 -151 65.5 -272.5t178 -193t253.5 -71.5q110 0 204 44.5t161.5 123t99.5 179t16 210.5q-22 160 -89.5 275.5t-170 178t-229.5 62.5z
" />
    <glyph glyph-name="uni003A" unicode=":" horiz-adv-x="733" 
d="M367 93q-45 0 -76.5 32t-31.5 76q0 45 31.5 76.5t76.5 31.5q44 0 76 -31.5t32 -76.5q0 -29 -14.5 -54t-39 -39.5t-54.5 -14.5zM367 1169q-45 0 -76.5 32t-31.5 76q0 45 31.5 76.5t76.5 31.5q44 0 76 -31.5t32 -76.5q0 -29 -14.5 -54t-39 -39.5t-54.5 -14.5z" />
    <glyph glyph-name="uni003B" unicode=";" horiz-adv-x="748" 
d="M493 280l-18 -105q-18 -103 -45.5 -232.5t-56.5 -249.5t-53 -193h-95q14 72 34.5 176.5t43 230.5t42.5 261l18 112h130zM403 1169q-45 0 -76.5 32t-31.5 76q0 45 31.5 76.5t76.5 31.5q44 0 76 -31.5t32 -76.5q0 -29 -14.5 -54t-39 -39.5t-54.5 -14.5z" />
    <glyph glyph-name="uni003C" unicode="&#x3c;" horiz-adv-x="1813" 
d="M327 752v96l1160 693v-136l-1020 -606l10 18v-34l-10 18l1020 -606v-136z" />
    <glyph glyph-name="uni003D" unicode="=" horiz-adv-x="1813" 
d="M384 1020v115h1045v-115h-1045zM384 465v115h1045v-115h-1045z" />
    <glyph glyph-name="uni003E" unicode="&#x3e;" horiz-adv-x="1813" 
d="M1487 752l-1160 -693v136l1020 606l-11 -18v34l11 -18l-1020 606v136l1160 -693v-96z" />
    <glyph glyph-name="uni003F" unicode="?" horiz-adv-x="1375" 
d="M564 597v98q1 125 30 210t92 151.5t165 134.5q87 60 142 117.5t80.5 120.5t25.5 138q0 117 -55.5 206.5t-150 140t-212.5 50.5t-214 -53t-154 -149t-61 -226h-127q3 159 76.5 281t198.5 190.5t281 68.5q157 0 279 -66.5t191.5 -182.5t69.5 -264q0 -93 -30 -170.5
t-94 -146.5t-166 -140q-93 -64 -146.5 -122t-75.5 -126t-22 -163v-98h-123zM628 -13q-45 0 -76.5 31.5t-31.5 76.5q0 44 31.5 76t76.5 32t76.5 -32t31.5 -76q0 -30 -14.5 -54.5t-39 -39t-54.5 -14.5z" />
    <glyph glyph-name="uni0040" unicode="@" horiz-adv-x="2636" 
d="M1345 -543q-264 0 -485 93.5t-383 262.5t-250 399t-88 504q0 272 88.5 501t250 397.5t380.5 261.5t478 93q256 0 468.5 -95.5t368 -262t240 -383t84.5 -459.5q0 -139 -28.5 -266t-87 -226t-149 -156t-215.5 -57q-76 0 -136 27t-95 89t-39 167h-10q-40 -86 -106.5 -154
t-155.5 -106.5t-198 -37.5q-122 2 -224 54t-175.5 143.5t-114 213t-40.5 260.5q0 137 42.5 254.5t118 206.5t176.5 140t217 55q104 3 194 -31.5t158 -97.5t104 -146h10v251h113v-949q0 -126 36.5 -180t126.5 -54q115 0 197 73t125.5 208t43.5 321q0 176 -49.5 339t-142 300
t-222.5 239t-291.5 158.5t-347.5 56.5q-232 0 -428.5 -86t-342 -241t-226 -365t-80.5 -459t80.5 -459.5t227 -365t346.5 -239.5t439 -85q110 0 216 22t199 59.5t165 83.5l45 -96q-84 -54 -187.5 -93.5t-216 -61t-224.5 -21.5zM1288 160q137 0 240 71.5t161 198.5t58 294
t-59 289t-162 188.5t-235 66.5q-130 0 -233.5 -74t-163 -197.5t-59.5 -272.5q0 -153 57 -281.5t159 -205.5t237 -77z" />
    <glyph glyph-name="uni0041" unicode="A" horiz-adv-x="1792" 
d="M217 0h-132l739 2048h144l739 -2048h-132l-674 1887h-10zM404 771h984v-116h-984v116z" />
    <glyph glyph-name="uni0042" unicode="B" horiz-adv-x="1813" 
d="M296 0v2048h665q186 0 314 -66t194.5 -185t66.5 -277q0 -124 -40 -220t-111.5 -158.5t-167.5 -86.5v-12q106 -8 197 -73.5t146.5 -177.5t55.5 -261q0 -157 -67.5 -276.5t-201.5 -187t-332 -67.5h-719zM421 116h594q231 0 355.5 116t124.5 299q0 129 -60.5 231
t-167.5 161.5t-248 59.5h-598v-867zM421 1097h583q131 0 222.5 57t140 153t48.5 213q0 190 -118 301t-336 111h-540v-835z" />
    <glyph glyph-name="uni0043" unicode="C" horiz-adv-x="2040" 
d="M1856 1408h-128q-20 104 -75 201.5t-141.5 176t-200.5 124.5t-252 46q-202 0 -371.5 -107.5t-271 -315.5t-101.5 -509q0 -303 101.5 -511t271 -314.5t371.5 -106.5q138 0 252 45.5t200.5 124t141.5 176.5t75 202h128q-22 -124 -84.5 -243t-164 -215.5t-239 -153
t-309.5 -56.5q-256 0 -451 130.5t-305.5 367.5t-110.5 554t110.5 554t305.5 367.5t451 130.5q172 0 309.5 -56.5t239 -152t164 -214.5t84.5 -245z" />
    <glyph glyph-name="uni0044" unicode="D" horiz-adv-x="2016" 
d="M864 0h-568v2048h612q288 0 493 -122t314.5 -349.5t108.5 -545.5q-1 -325 -114 -555.5t-327 -353t-519 -122.5zM421 116h438q274 0 462 109.5t284.5 314.5t95.5 491q0 282 -93 483.5t-270.5 309.5t-434.5 108h-482v-1816z" />
    <glyph glyph-name="uni0045" unicode="E" horiz-adv-x="1657" 
d="M296 0v2048h1140v-116h-1015v-849h954v-116h-954v-851h1039v-116h-1164z" />
    <glyph glyph-name="uni0046" unicode="F" horiz-adv-x="1649" 
d="M296 0v2048h1143v-116h-1018v-849h923v-116h-923v-967h-125z" />
    <glyph glyph-name="uni0047" unicode="G" horiz-adv-x="2084" 
d="M1731 1408q-23 104 -78 201.5t-140.5 176t-200 124.5t-256.5 46q-217 0 -384.5 -113.5t-262 -323t-94.5 -495.5q0 -283 94 -493t263.5 -324.5t394.5 -114.5q201 0 356.5 93t242.5 266t85 414l44 -21h-696v116h774v-116q0 -271 -103.5 -466.5t-286 -300.5t-416.5 -105
q-264 0 -461 131t-305.5 367.5t-108.5 553.5q0 238 62 432t177 332.5t274 213t351 74.5q174 0 313 -57.5t240.5 -154t164.5 -215t85 -241.5h-128z" />
    <glyph glyph-name="uni0048" unicode="H" horiz-adv-x="2076" 
d="M296 0v2048h125v-965h1234v965h125v-2048h-125v967h-1234v-967h-125z" />
    <glyph glyph-name="uni0049" unicode="I" horiz-adv-x="717" 
d="M421 2048v-2048h-125v2048h125z" />
    <glyph glyph-name="uni004A" unicode="J" horiz-adv-x="1485" 
d="M1064 2048h125v-1491q0 -204 -70.5 -333t-189 -190.5t-265.5 -61.5q-150 0 -268.5 56.5t-187.5 156.5t-68 231h124q-1 -96 51.5 -169.5t143.5 -116t205 -42.5q110 0 201 47t144.5 150t54.5 272v1491z" />
    <glyph glyph-name="uni004B" unicode="K" horiz-adv-x="1769" 
d="M296 0v2048h125v-1189h14l1080 1189h166l-889 -969l881 -1079h-156l-805 989l-291 -322v-667h-125z" />
    <glyph glyph-name="uni004C" unicode="L" horiz-adv-x="1584" 
d="M296 0v2048h125v-1932h1000v-116h-1125z" />
    <glyph glyph-name="uni004D" unicode="M" horiz-adv-x="2456" 
d="M296 2048h136l789 -1868h14l789 1868h136v-2048h-120v1751h-12l-741 -1751h-118l-741 1751h-12v-1751h-120v2048z" />
    <glyph glyph-name="uni004E" unicode="N" horiz-adv-x="2157" 
d="M1861 2048v-2048h-122l-1306 1821h-12v-1821h-125v2048h123l1306 -1823h12v1823h124z" />
    <glyph glyph-name="uni004F" unicode="O" horiz-adv-x="2117" 
d="M1925 1024q0 -317 -110 -553.5t-305.5 -367.5t-450.5 -131q-256 0 -451.5 131.5t-305.5 368t-110 552.5q0 317 110.5 553t305.5 367.5t451 131.5q255 0 450.5 -131t305.5 -367.5t110 -553.5zM1803 1024q0 285 -95.5 494t-263.5 323.5t-385 114.5t-385 -113.5t-263.5 -323
t-95.5 -495.5q0 -283 94.5 -492.5t262.5 -324.5t387 -115q217 0 385 114.5t263.5 323.5t95.5 494z" />
    <glyph glyph-name="uni0050" unicode="P" horiz-adv-x="1735" 
d="M296 0v2048h631q195 0 334.5 -80t214.5 -219t75 -317q0 -176 -75 -315t-214.5 -219.5t-333.5 -80.5h-544v116h541q158 0 270 64.5t172 177t60 257.5q0 146 -60 259t-172.5 177t-270.5 64h-503v-1932h-125z" />
    <glyph glyph-name="uni0051" unicode="Q" horiz-adv-x="2117" 
d="M1085 640h144l298 -393l28 -38l302 -401h-144l-248 329l-26 36zM1925 1024q0 -317 -110 -553.5t-305.5 -367.5t-450.5 -131q-256 0 -451.5 131.5t-305.5 368t-110 552.5q0 317 110.5 553t305.5 367.5t451 131.5q255 0 450.5 -131t305.5 -367.5t110 -553.5zM1803 1024
q0 285 -95.5 494t-263.5 323.5t-385 114.5t-385 -113.5t-263.5 -323t-95.5 -495.5q0 -283 94.5 -492.5t262.5 -324.5t387 -115q217 0 385 114.5t263.5 323.5t95.5 494z" />
    <glyph glyph-name="uni0052" unicode="R" horiz-adv-x="1755" 
d="M296 0v2048h631q194 0 334 -76t215 -210.5t75 -312.5q0 -176 -75 -309.5t-214.5 -208.5t-333.5 -75h-565v117h562q158 0 270 59t172 165.5t60 251.5q0 146 -60 254.5t-172.5 168.5t-270.5 60h-503v-1932h-125zM1137 928l504 -928h-144l-501 928h141z" />
    <glyph glyph-name="uni0053" unicode="S" horiz-adv-x="1748" 
d="M1400 1536q-16 191 -155.5 309t-360.5 118q-149 0 -265 -55t-182 -150t-66 -218q0 -79 30.5 -142.5t86.5 -113t133 -86.5t170 -65l224 -66q115 -35 212.5 -81t170 -109.5t113 -148.5t40.5 -196q0 -162 -83.5 -290t-237 -201.5t-361.5 -73.5q-198 0 -344.5 67
t-231.5 186.5t-96 275.5h128q10 -127 81.5 -219.5t190.5 -142.5t272 -50q165 0 291 56.5t197 157.5t71 235q0 108 -51 185t-150.5 133t-246.5 100l-239 72q-240 73 -366.5 199t-126.5 314q0 158 84 280.5t228.5 192.5t326.5 70q183 0 323 -70.5t222 -193t91 -279.5h-123z
" />
    <glyph glyph-name="uni0054" unicode="T" horiz-adv-x="1755" 
d="M160 1932v116h1435v-116h-655v-1932h-125v1932h-655z" />
    <glyph glyph-name="uni0055" unicode="U" horiz-adv-x="2104" 
d="M1683 2048h125v-1356q0 -209 -97 -372.5t-267.5 -258t-391.5 -94.5q-220 0 -391 94.5t-268.5 258.5t-96.5 372v1356h125v-1349q0 -177 80.5 -315t222.5 -217.5t328 -79.5t328 79.5t222.5 217.5t80.5 315v1349z" />
    <glyph glyph-name="uni0056" unicode="V" horiz-adv-x="1792" 
d="M217 2048l672 -1887h14l672 1887h132l-739 -2048h-144l-739 2048h132z" />
    <glyph glyph-name="uni0057" unicode="W" horiz-adv-x="2565" 
d="M636 0l-563 2048h130l500 -1855h12l492 1855h152l492 -1855h12l500 1855h129l-563 -2048h-144l-497 1843h-11l-497 -1843h-144z" />
    <glyph glyph-name="uni0058" unicode="X" horiz-adv-x="1701" 
d="M240 2048l605 -927h11l605 927h151l-673 -1024l673 -1024h-151l-605 921h-11l-605 -921h-151l679 1024l-679 1024h151z" />
    <glyph glyph-name="uni0059" unicode="Y" horiz-adv-x="1776" 
d="M88 2048h148l645 -988h14l645 988h148l-737 -1119v-929h-126v929z" />
    <glyph glyph-name="uni005A" unicode="Z" horiz-adv-x="1723" 
d="M201 0v103l1171 1829h-1169v116h1318v-103l-1170 -1829h1180v-116h-1330z" />
    <glyph glyph-name="uni005B" unicode="[" horiz-adv-x="932" 
d="M345 -416v2560h432v-108h-314v-2344h314v-108h-432z" />
    <glyph glyph-name="uni005C" unicode="\" horiz-adv-x="941" 
d="M741 -308l-660 2452h118l660 -2452h-118z" />
    <glyph glyph-name="uni005D" unicode="]" horiz-adv-x="932" 
d="M587 2144v-2560h-432v108h314v2344h-314v108h432z" />
    <glyph glyph-name="uni005E" unicode="^" horiz-adv-x="1192" 
d="M571 1920h50v-76h-50v76zM125 1120l410 864h122l410 -864h-127l-359 764h30l-358 -764h-128z" />
    <glyph glyph-name="uni005F" unicode="_" horiz-adv-x="1225" 
d="M1231 0v-116h-1238v116h1238z" />
    <glyph glyph-name="uni0060" unicode="`" horiz-adv-x="1400" 
d="M785 1755l-301 442h145l268 -442h-112z" />
    <glyph glyph-name="uni0061" unicode="a" horiz-adv-x="1545" 
d="M660 -33q-133 0 -243.5 53t-177 155t-66.5 248q0 96 34 169t105 126t182 87.5t265 53.5q117 14 209 27.5t144.5 42.5t52.5 88v64q0 168 -106 267t-292 99q-165 0 -277.5 -72.5t-157.5 -186.5l-115 43q44 110 127.5 183t192 109t227.5 36q103 0 196.5 -29t167 -88
t116.5 -150.5t43 -218.5v-1073h-122v277h-9q-40 -86 -109.5 -156.5t-167 -112t-219.5 -41.5zM672 80q144 0 255.5 70.5t174.5 193.5t63 279v226q-23 -20 -66.5 -35.5t-98 -27t-114 -20t-115.5 -15.5q-168 -20 -273.5 -61.5t-154 -108.5t-48.5 -162q0 -157 108 -248t269 -91z
" />
    <glyph glyph-name="uni0062" unicode="b" horiz-adv-x="1705" 
d="M296 0v2048h121v-855h12q36 99 102 182t164 133.5t229 50.5q185 0 323 -102.5t214 -282t76 -410.5q0 -233 -76 -412.5t-213 -281.5t-323 -102q-131 0 -229 50.5t-164 134t-103 182.5h-14v-335h-119zM416 765q0 -196 59.5 -350.5t171.5 -244t268 -89.5q158 0 270 90.5
t171.5 245.5t59.5 348t-59.5 347t-171.5 243.5t-270 89.5q-156 0 -268 -88.5t-171.5 -242t-59.5 -349.5z" />
    <glyph glyph-name="uni0063" unicode="c" horiz-adv-x="1561" 
d="M829 -32q-196 0 -345 103.5t-232.5 283.5t-83.5 408t84 408t233 284t343 104q146 0 266.5 -60t200 -167t101.5 -248h-124q-30 156 -149.5 258.5t-293.5 102.5q-156 0 -278 -87.5t-192 -241t-70 -351.5q0 -195 68 -349.5t190 -244.5t282 -90q113 0 206.5 45t156.5 128
t83 194h124q-22 -142 -100 -250t-199 -169t-271 -61z" />
    <glyph glyph-name="uni0064" unicode="d" horiz-adv-x="1705" 
d="M780 -32q-185 0 -323 102t-213.5 281.5t-75.5 412.5q0 231 76.5 410.5t214.5 282t322 102.5q132 0 229.5 -50.5t164 -133.5t101.5 -182h12v855h121v-2048h-118v335h-15q-37 -99 -103 -182.5t-164 -134t-229 -50.5zM791 81q156 0 267.5 89.5t171 244t59.5 350.5
t-59.5 349.5t-171 242t-267.5 88.5q-158 0 -270.5 -89.5t-172 -243.5t-59.5 -347t59.5 -348t172 -245.5t270.5 -90.5z" />
    <glyph glyph-name="uni0065" unicode="e" horiz-adv-x="1629" 
d="M852 -32q-208 0 -362 103t-238 282t-84 408q0 230 84.5 410t232.5 284t338 104q129 0 244.5 -51.5t204 -148.5t139 -234t50.5 -308v-76h-1216v111h1094q0 167 -68 301t-185 213t-263 79q-153 0 -272.5 -85.5t-189 -230.5t-72.5 -324v-50q0 -192 67.5 -344.5t193.5 -241
t302 -88.5q126 0 215.5 42.5t146.5 103.5t86 118l111 -45q-35 -77 -108.5 -153.5t-186 -127.5t-264.5 -51z" />
    <glyph glyph-name="uni0066" unicode="f" horiz-adv-x="960" 
d="M833 1536v-109h-681v109h681zM376 0v1775q0 116 53 198t139.5 125t186.5 43q53 0 90.5 -8.5t65.5 -19.5l-36 -108q-23 8 -49.5 14t-62.5 6q-116 0 -191 -71t-75 -198l-1 -1756h-120z" />
    <glyph glyph-name="uni0067" unicode="g" horiz-adv-x="1668" 
d="M807 -608q-143 0 -257 37.5t-193.5 106.5t-121.5 164l102 60q34 -74 97 -132t156.5 -91t216.5 -33q222 0 351.5 114.5t129.5 350.5v382h-12q-35 -100 -103.5 -177.5t-167.5 -121.5t-225 -44q-182 0 -320 94t-215 264.5t-77 401.5t75.5 409.5t213.5 280t324 101.5
q133 0 230.5 -50.5t163.5 -133.5t102 -182h14v343h118v-1572q0 -192 -75.5 -319t-211 -190t-315.5 -63zM791 121q154 0 265.5 78.5t172 224t60.5 345.5q0 194 -59 347t-171 241t-268 88q-159 0 -271 -89.5t-171.5 -242.5t-59.5 -344q0 -192 60 -337.5t172 -228t270 -82.5z
" />
    <glyph glyph-name="uni0068" unicode="h" horiz-adv-x="1621" 
d="M375 996v-996h-122v2048h122v-755h12q54 120 172.5 191.5t284.5 71.5q155 0 273 -65.5t184.5 -187t66.5 -290.5v-1013h-121v1008q0 197 -117 316t-309 119q-129 0 -230 -56t-158.5 -156.5t-57.5 -234.5z" />
    <glyph glyph-name="uni0069" unicode="i" horiz-adv-x="639" 
d="M259 0v1536h121v-1536h-121zM320 1808q-40 0 -69.5 28t-29.5 68t29 68t70 28q40 0 69.5 -28t29.5 -68t-29 -68t-70 -28z" />
    <glyph glyph-name="uni006A" unicode="j" horiz-adv-x="639" 
d="M259 1536h121v-1723q0 -119 -49 -206.5t-134.5 -135t-197.5 -47.5q-8 0 -17 0.5t-21 2.5l6 113h15h15q112 0 187 72.5t75 200.5v1723zM319 1808q-41 0 -70 28t-29 68t29 68t70 28q40 0 69 -28t29 -68t-29 -68t-69 -28z" />
    <glyph glyph-name="uni006B" unicode="k" horiz-adv-x="1425" 
d="M359 600l-2 175h32l768 761h159l-705 -700l-12 -5zM253 0v2048h122v-2048h-122zM1192 0l-648 819l88 81l716 -900h-156z" />
    <glyph glyph-name="uni006C" unicode="l" horiz-adv-x="628" 
d="M375 2048v-2048h-122v2048h122z" />
    <glyph glyph-name="uni006D" unicode="m" horiz-adv-x="2384" 
d="M253 0v1536h119v-232h12q44 116 152 184t260 68q167 0 269.5 -80t147.5 -217h11q45 135 161.5 216t287.5 81q223 0 340.5 -140.5t117.5 -384.5v-1031h-122v1031q0 192 -92 302t-270 110q-190 0 -292 -119t-102 -303v-1021h-122v1039q0 179 -90 291.5t-270 112.5
q-122 0 -210.5 -56t-137 -154t-48.5 -225v-1008h-122z" />
    <glyph glyph-name="uni006E" unicode="n" horiz-adv-x="1616" 
d="M375 996v-996h-122v1536h119v-243h12q54 119 173 191t283 72q155 0 272.5 -66t184 -187.5t66.5 -289.5v-1013h-122v1008q0 196 -116.5 315.5t-307.5 119.5q-128 0 -228 -56t-157 -156.5t-57 -234.5z" />
    <glyph glyph-name="uni006F" unicode="o" horiz-adv-x="1648" 
d="M824 -32q-190 0 -338 102.5t-233 282.5t-85 410q0 231 85 410.5t233 282.5t338 103t338 -103t233 -283t85 -410t-85 -410t-233 -282.5t-338 -102.5zM824 81q161 0 281.5 91t187 246t66.5 345t-67 344.5t-187 246t-281 91.5t-281 -91.5t-187 -246t-67 -344.5t66.5 -345
t187 -246t281.5 -91z" />
    <glyph glyph-name="uni0070" unicode="p" horiz-adv-x="1663" 
d="M253 -576v2112h119v-343h15q36 99 101.5 182t163 133.5t229.5 50.5q186 0 324 -102t214 -281.5t76 -411.5t-76.5 -411.5t-214 -282t-321.5 -102.5q-131 0 -229.5 50t-165 133.5t-101.5 183.5h-12v-911h-122zM373 765q0 -196 60 -350.5t172 -244t267 -89.5
q157 0 269.5 90.5t172 245.5t59.5 348t-59 347t-171 243.5t-271 89.5q-157 0 -268.5 -88.5t-171 -242t-59.5 -349.5z" />
    <glyph glyph-name="uni0071" unicode="q" horiz-adv-x="1663" 
d="M1288 -576v911h-12q-35 -100 -102 -183.5t-165 -133.5t-229 -50q-184 0 -321.5 102.5t-214 282t-76.5 411.5t76 411.5t214 281.5t323 102q133 0 230 -50.5t163 -133.5t102 -182h15v343h118v-2112h-121zM791 81q155 0 266.5 89.5t171.5 244t60 350.5t-59 349.5t-171 242
t-268 88.5q-159 0 -271 -89.5t-171.5 -243.5t-59.5 -347t60 -348t172 -245.5t270 -90.5z" />
    <glyph glyph-name="uni0072" unicode="r" horiz-adv-x="960" 
d="M253 0v1536h119v-240h11q50 118 169 189.5t271 71.5h32t30 -1v-123q-12 1 -28.5 3.5t-40.5 2.5q-128 0 -227.5 -55t-156.5 -151.5t-57 -220.5v-1012h-122z" />
    <glyph glyph-name="uni0073" unicode="s" horiz-adv-x="1416" 
d="M1229 1205l-113 -30q-27 84 -77 145t-125.5 94.5t-180.5 33.5q-169 0 -276.5 -84t-107.5 -219q0 -110 73 -181.5t223 -108.5l236 -59q182 -45 274 -145.5t92 -249.5q0 -127 -69 -225t-190.5 -153t-282.5 -55q-215 0 -353 100.5t-177 288.5l117 30q33 -150 137.5 -228.5
t274.5 -78.5q188 0 303.5 89t115.5 228q0 106 -68 179t-206 107l-245 60q-188 46 -282 147.5t-94 250.5q0 124 65 218t179 147t261 53q195 0 318 -92t178 -262z" />
    <glyph glyph-name="uni0074" unicode="t" horiz-adv-x="995" 
d="M796 1536v-109h-671v109h671zM352 1904h121v-1541q0 -94 36.5 -153.5t96 -88t127.5 -28.5q33 0 57.5 5t46.5 13l30 -111q-28 -10 -62 -17.5t-80 -7.5q-96 0 -181.5 43t-138.5 125t-53 198v1563z" />
    <glyph glyph-name="uni0075" unicode="u" horiz-adv-x="1612" 
d="M1237 545v991h122v-1536h-122v249h-10q-54 -119 -174.5 -194t-284.5 -75q-151 0 -267 66t-182 187.5t-66 289.5v1013h122v-1008q0 -192 116.5 -310.5t301.5 -118.5q120 0 221 54t162 154.5t61 237.5z" />
    <glyph glyph-name="uni0076" unicode="v" horiz-adv-x="1504" 
d="M1376 1536l-555 -1536h-138l-555 1536h131l488 -1379h10l488 1379h131z" />
    <glyph glyph-name="uni0077" unicode="w" horiz-adv-x="2245" 
d="M588 0l-460 1536h128l396 -1357h11l397 1357h127l396 -1356h10l396 1356h128l-460 -1536h-136l-392 1337h-13l-392 -1337h-136z" />
    <glyph glyph-name="uni0078" unicode="x" horiz-adv-x="1445" 
d="M299 1536l424 -683l424 683h141l-492 -768l492 -768h-141l-424 672l-424 -672h-142l490 768l-490 768h142z" />
    <glyph glyph-name="uni0079" unicode="y" horiz-adv-x="1504" 
d="M351 -576q-46 0 -91 10t-81 26l36 107q94 -36 170.5 -26t135.5 70t100 176l70 192l-563 1557h131l488 -1379h10l488 1379h131l-648 -1797q-37 -104 -93 -174t-127.5 -105.5t-156.5 -35.5z" />
    <glyph glyph-name="uni007A" unicode="z" horiz-adv-x="1463" 
d="M201 0v103l904 1306v11h-854v116h1009v-105l-896 -1304v-11h932v-116h-1095z" />
    <glyph glyph-name="uni007B" unicode="{" horiz-adv-x="932" 
d="M157 841v84q171 1 234.5 65.5t63.5 233.5v456q0 119 23.5 206t73.5 144.5t129 85.5t190 28v-108q-108 1 -174.5 -36.5t-97 -116.5t-30.5 -203v-483q0 -92 -19.5 -159t-65.5 -110.5t-126 -65t-201 -21.5zM871 -416q-111 0 -190 28t-129 85.5t-73.5 144.5t-23.5 206v456
q0 169 -63.5 233.5t-234.5 65.5v84q121 -1 201 -22.5t126 -64.5t65.5 -110t19.5 -159v-483q0 -124 30.5 -203t97 -116t174.5 -37v-108zM157 803v122h223v-122h-223z" />
    <glyph glyph-name="uni007C" unicode="|" horiz-adv-x="819" 
d="M464 2708v-3368h-109v3368h109z" />
    <glyph glyph-name="uni007D" unicode="}" horiz-adv-x="932" 
d="M775 887v-84q-171 -1 -234.5 -65.5t-63.5 -233.5v-456q0 -119 -23.5 -206t-73.5 -144.5t-129 -85.5t-190 -28v108q109 0 175 37t96.5 116t30.5 203v483q0 92 19.5 159t65.5 110.5t126 65t201 21.5zM61 2144q111 0 190 -28t129 -85.5t73.5 -144.5t23.5 -206v-456
q0 -169 63.5 -233.5t234.5 -65.5v-84q-121 1 -201 22.5t-126 64.5t-65.5 110t-19.5 159v483q0 124 -30.5 203t-96.5 116.5t-175 36.5v108zM775 925v-122h-223v122h223z" />
    <glyph glyph-name="uni007E" unicode="~" horiz-adv-x="1813" 
d="M253 651q7 109 59 184.5t134 114.5t179 38q103 -1 180.5 -41.5t154.5 -99.5q64 -48 116 -76.5t119 -29.5q98 0 166.5 61.5t83.5 164.5l115 -11q-13 -107 -65 -180.5t-130 -111t-169 -37.5q-93 0 -165 38.5t-148 97.5q-65 48 -122.5 79t-133.5 31q-107 1 -178.5 -59
t-80.5 -169z" />
    <glyph glyph-name="uni00A0" unicode="&#xa0;" horiz-adv-x="792" 
 />
    <glyph glyph-name="uni00A1" unicode="&#xa1;" horiz-adv-x="752" 
d="M443 -520h-134l7 1451h120zM376 1541q45 0 76.5 -31.5t31.5 -76.5q0 -44 -32 -76t-76 -32t-76 32t-32 76q0 30 14.5 54.5t39 39t54.5 14.5z" />
    <glyph glyph-name="uni00A2" unicode="&#xa2;" horiz-adv-x="1561" 
d="M772 0v2048h97v-2048h-97zM829 229q-196 0 -345 103.5t-232.5 283t-83.5 407.5t84 408.5t233 284t343 103.5q146 0 266.5 -59.5t200 -166.5t101.5 -248h-124q-30 155 -149.5 258t-293.5 103q-156 0 -278 -87.5t-192 -241t-70 -351.5q0 -195 68 -350t190 -244.5t282 -89.5
q113 0 206.5 45t156.5 127.5t83 194.5h124q-22 -142 -100 -250.5t-199 -169t-271 -60.5z" />
    <glyph glyph-name="uni00A3" unicode="&#xa3;" horiz-adv-x="1776" 
d="M1495 0h-1284v116h1284v-116zM1095 833h-887v119h887v-119zM577 1481l30 -1028q5 -152 -42 -259.5t-160 -136.5l-98 59q68 0 108 50.5t56.5 127.5t13.5 159l-28 1028q-5 184 68 317.5t201 205.5t286 72q125 0 228.5 -44t175.5 -120t102 -172.5t7 -202.5l-120 32
q20 110 -29 199t-144.5 141t-215.5 51q-126 0 -226.5 -58t-157.5 -164.5t-55 -256.5z" />
    <glyph glyph-name="uni00A4" unicode="&#xa4;" horiz-adv-x="1957" 
d="M973 -28q-167 0 -313 65.5t-255.5 183.5t-171 275t-61.5 340t61.5 339.5t171 273.5t255.5 182t313 65q170 0 316.5 -65t256 -182t171.5 -273.5t62 -339.5t-62 -340t-171.5 -275t-256 -183.5t-316.5 -65.5zM973 88q145 0 269.5 57.5t218 159.5t146 238t53.5 293
q1 211 -90.5 379.5t-248 267t-348.5 98.5q-190 0 -345.5 -98.5t-247.5 -267t-92 -379.5q0 -209 91.5 -378.5t247 -269.5t346.5 -100zM1548 1344l-81 87l252 260l82 -87zM1719 -7l-252 260l81 86l253 -259zM232 -7l-81 87l252 259l82 -86zM403 1344l-252 260l81 87l253 -260z
" />
    <glyph glyph-name="uni00A5" unicode="&#xa5;" horiz-adv-x="1496" 
d="M193 2048l599 -1156l-112 -27l-627 1183h140zM704 892l599 1156h140l-627 -1183zM811 993v-993h-126v993h126zM1280 951v-103h-1064v103h1064zM1280 656v-103h-1064v103h1064z" />
    <glyph glyph-name="uni00A6" unicode="&#xa6;" horiz-adv-x="599" 
d="M241 539h116v-923h-116v923zM357 2048v-919h-116v919h116z" />
    <glyph glyph-name="uni00A7" unicode="&#xa7;" horiz-adv-x="1512" 
d="M1219 1612h-119q-6 147 -93.5 249t-250.5 102q-106 0 -182 -44t-117 -116t-41 -155q0 -85 40 -146t104 -107.5t136 -89.5l241 -142q69 -40 140 -86t130.5 -101t96.5 -125t37 -160q0 -85 -44.5 -156t-119 -116.5t-164.5 -53.5v-4q132 -93 180 -175.5t48 -180.5
q0 -134 -65.5 -228.5t-177 -143.5t-249.5 -49q-146 0 -260 58t-181.5 164t-72.5 249h120q8 -163 115.5 -260.5t278.5 -97.5q155 0 264.5 80.5t109.5 227.5q0 70 -30 123.5t-95 105t-171 114.5l-244 141q-99 58 -176 111.5t-129.5 108.5t-79.5 118t-27 138q0 86 40 160
t112 121t170 51v8q-91 69 -143.5 150t-52.5 193q0 120 59 217t162.5 154t237.5 57q138 0 240 -59.5t159.5 -164.5t63.5 -240zM1225 691q0 84 -51.5 150t-130.5 120t-160 102l-270 158q-98 14 -171.5 -16t-114 -92t-40.5 -142q0 -114 88.5 -197t263.5 -185l244 -141
q80 -13 159 12t131 84t52 147z" />
    <glyph glyph-name="uni00A8" unicode="&#xa8;" horiz-adv-x="1792" 
d="M672 1808q-38 0 -67 29t-29 67q0 40 29 68t67 28q40 0 68 -28t28 -68q0 -38 -28 -67t-68 -29zM1120 1808q-38 0 -67 29t-29 67q0 40 29 68t67 28q40 0 68 -28t28 -68q0 -38 -28 -67t-68 -29z" />
    <glyph glyph-name="uni00A9" unicode="&#xa9;" horiz-adv-x="2576" 
d="M716 1024q0 164 80 299t215 215t299 80q126 0 232 -49t180 -135t105 -197h-128q-42 117 -146 189t-243 72q-131 0 -238.5 -64t-171.5 -171.5t-64 -238.5t64 -238.5t171.5 -171.5t238.5 -64q139 0 239.5 72t142.5 189h129q-32 -111 -104.5 -197t-176.5 -135t-230 -49
q-164 0 -299 80t-215 215t-80 299zM1288 -32q-218 0 -409.5 82t-337 227.5t-228 336.5t-81.5 410t83.5 410t227.5 336.5t336 227.5t409 82q219 0 410.5 -82t336 -227.5t226.5 -336.5t83 -410t-81 -410t-227 -336.5t-337 -227.5t-411 -82zM1288 88q194 0 364.5 73t299 201
t201 298t71.5 364t-74 364t-201 298.5t-297.5 201t-363.5 72.5q-193 0 -362.5 -72.5t-297.5 -201.5t-201.5 -299t-74.5 -363t71.5 -362.5t201.5 -298.5t299 -202t364 -73z" />
    <glyph glyph-name="uni00AA" unicode="&#xaa;" horiz-adv-x="1099" 
d="M783 1184v468q-2 139 -55 204t-165 65q-122 0 -189 -55t-74 -162l-121 11q4 142 108 229.5t276 87.5q167 0 254.5 -93t87.5 -287v-432q0 -71 7.5 -130.5t26.5 -114.5h-127q-16 47 -23.5 101.5t-5.5 107.5zM811 1560v-93h-224q-153 0 -228.5 -56.5t-74.5 -157.5
q-1 -88 53 -139t152 -53q59 0 117.5 20t108.5 56t85 82l24 -82q-79 -86 -162 -135.5t-193 -49.5q-143 0 -226.5 82t-83.5 217q1 150 109 229.5t319 79.5h224z" />
    <glyph glyph-name="uni00AB" unicode="&#xab;" horiz-adv-x="1493" 
d="M741 220h-120l-404 600v20h119zM741 1448l-405 -620h-119v20l404 600h120zM1253 220h-120l-404 600v20h119zM1253 1448l-405 -620h-119v20l404 600h120z" />
    <glyph glyph-name="uni00AC" unicode="&#xac;" horiz-adv-x="1445" 
d="M1288 1108v-121h-1127v121h1127zM1288 1053v-537h-135v537h135z" />
    <glyph glyph-name="uni00AD" unicode="&#xad;" horiz-adv-x="1256" 
d="M1032 936v-116h-808v116h808z" />
    <glyph glyph-name="uni00AE" unicode="&#xae;" horiz-adv-x="1888" 
d="M681 916v738h336q65 0 118 -27.5t83.5 -78t30.5 -119.5q0 -70 -31 -122.5t-84.5 -82t-120.5 -29.5h-278v83h260q69 0 110.5 40t41.5 111q0 72 -41.5 107t-109.5 35h-218v-655h-97zM1097 1253l182 -337h-108l-179 337h105zM944 476q-166 0 -311 62t-255 172t-172 255
t-62 311t62 311t172 255t255 172t311 62t311 -62t255 -172t172 -255t62 -311t-62 -311t-172 -255t-255 -172t-311 -62zM944 583q192 0 349.5 93t250.5 250.5t93 349.5t-93.5 349t-250.5 250.5t-349 93.5t-349.5 -93t-250.5 -250.5t-93 -349.5q0 -191 93 -349t250.5 -251
t349.5 -93z" />
    <glyph glyph-name="uni00AF" unicode="&#xaf;" horiz-adv-x="971" 
d="M855 1957v-109h-739v109h739z" />
    <glyph glyph-name="uni00B0" unicode="&#xb0;" horiz-adv-x="1280" 
d="M640 1211q-119 0 -217 58t-156 155.5t-58 216.5t58 217t156 156t217 58t217 -58t156 -156t58 -217t-58 -216.5t-156 -155.5t-217 -58zM640 1320q89 0 162 43.5t116 116.5t43 162q0 88 -43 161t-116 116.5t-162 43.5t-162 -43.5t-116 -116.5t-43 -161q0 -89 43 -162
t116 -116.5t162 -43.5z" />
    <glyph glyph-name="uni00B1" unicode="&#xb1;" horiz-adv-x="1813" 
d="M305 160v117h1203v-117h-1203zM305 941v118h1203v-118h-1203zM848 464v1072h117v-1072h-117z" />
    <glyph glyph-name="uni00B2" unicode="&#xb2;" horiz-adv-x="1168" 
d="M159 1024v84l449 445q86 86 139 148.5t77.5 116.5t24.5 114q0 106 -80 173.5t-202 67.5q-128 0 -207 -73t-79 -180h-112q0 151 112.5 249.5t286.5 98.5q115 0 203.5 -44t139 -120t50.5 -171q0 -72 -27.5 -137t-91.5 -142t-173 -183l-345 -343v-5h695v-99h-860z" />
    <glyph glyph-name="uni00B3" unicode="&#xb3;" horiz-adv-x="1175" 
d="M591 1008q-125 0 -224 43.5t-156.5 119t-58.5 173.5h116q1 -105 94.5 -170.5t228.5 -65.5q143 0 233.5 72.5t90.5 178.5q0 110 -99.5 180t-260.5 70h-58v94h58q135 0 226.5 63.5t91.5 173.5q0 100 -79 166.5t-205 66.5q-124 0 -209 -66t-88 -174h-109q0 100 54 175
t146 117.5t206 42.5q117 0 206.5 -42.5t140.5 -115.5t51 -166q0 -108 -70.5 -182t-180.5 -98v-8q137 -25 215 -107.5t78 -195.5q0 -98 -56 -176t-155 -123.5t-227 -45.5z" />
    <glyph glyph-name="uni00B4" unicode="&#xb4;" horiz-adv-x="1400" 
d="M628 1755l268 442h145l-301 -442h-112z" />
    <glyph glyph-name="uni00B5" unicode="&#xb5;" horiz-adv-x="1643" 
d="M248 -589v2125h121v-991q0 -131 58 -231.5t160 -157.5t236 -57q133 0 235 57t160 158t58 231v991h121v-1536h-121v239h-9q-57 -121 -176.5 -190t-267.5 -69q-149 0 -268 69t-176 190h-10v-828h-121z" />
    <glyph glyph-name="uni00B6" unicode="&#xb6;" horiz-adv-x="1603" 
d="M1307 1932h-336v-1172h-116q-218 0 -369 83.5t-229 229t-78 331.5q0 184 78 329.5t229 230t369 84.5h452v-116zM1181 0v2048h126v-2048h-126z" />
    <glyph glyph-name="uni00B7" unicode="&#xb7;" horiz-adv-x="733" 
d="M367 788q-45 0 -76.5 31.5t-31.5 76.5q0 44 31.5 76t76.5 32q44 0 76 -32t32 -76q0 -30 -14.5 -54.5t-39 -39t-54.5 -14.5z" />
    <glyph glyph-name="uni00B8" unicode="&#xb8;" horiz-adv-x="635" 
d="M268 8h108l-15 -80q94 -15 151 -73.5t57 -159.5q0 -114 -81.5 -175t-238.5 -64l-4 95q106 2 158 35.5t53 105.5q-1 80 -55 118t-165 39z" />
    <glyph glyph-name="uni00B9" unicode="&#xb9;" horiz-adv-x="806" 
d="M429 1024v1110h-12l-296 -197v122l292 193h128v-1228h-112z" />
    <glyph glyph-name="uni00BA" unicode="&#xba;" horiz-adv-x="1155" 
d="M132 1437v114q0 148 53.5 256t153.5 166.5t240 58.5q209 0 326.5 -130t117.5 -351v-114q0 -149 -53 -257t-152.5 -166.5t-240.5 -58.5q-208 -1 -326.5 129t-118.5 353zM252 1551v-114q0 -172 85.5 -273.5t239.5 -102.5q157 0 241.5 101.5t84.5 274.5v114q0 170 -85 271.5
t-239 101.5q-156 0 -241.5 -101.5t-85.5 -271.5z" />
    <glyph glyph-name="uni00BB" unicode="&#xbb;" horiz-adv-x="1507" 
d="M233 220l406 620h118v-20l-404 -600h-120zM233 1448h120l404 -600v-20h-118zM758 220l406 620h118v-20l-404 -600h-120zM758 1448h120l404 -600v-20h-118z" />
    <glyph glyph-name="uni00BC" unicode="&#xbc;" horiz-adv-x="2303" 
d="M339 0l1405 2048h127l-1406 -2048h-126zM378 960v970h-11l-280 -186v121l275 183h128v-1088h-112zM1360 228v89l548 771h72v-143h-54l-441 -617v-4h709v-96h-834zM1933 0v259l1 37v792h106v-1088h-107z" />
    <glyph glyph-name="uni00BD" unicode="&#xbd;" horiz-adv-x="2483" 
d="M339 0l1405 2048h127l-1406 -2048h-126zM378 960v970h-11l-280 -186v121l275 183h128v-1088h-112zM1569 0v83l407 392q120 117 168 184.5t48 140.5q0 92 -72 150.5t-180 58.5q-112 0 -183.5 -62t-71.5 -155h-109q0 135 102.5 223.5t262.5 88.5q156 0 257 -87t101 -216
q0 -64 -25 -121t-83 -125t-156 -162l-303 -292v-5h620v-96h-783z" />
    <glyph glyph-name="uni00BE" unicode="&#xbe;" horiz-adv-x="2580" 
d="M616 0l1405 2048h127l-1406 -2048h-126zM1638 228v89l548 771h72v-143h-54l-441 -617v-4h709v-96h-834zM2211 0v259l1 37v792h106v-1088h-107zM535 944q-114 0 -204 39t-142.5 107.5t-52.5 156.5h113q0 -91 82.5 -148.5t203.5 -57.5q127 0 206.5 63.5t79.5 154.5
q0 96 -88.5 156t-228.5 60h-53v86h53q121 0 202 57t81 150q0 86 -70 143.5t-182 57.5t-187 -57t-75 -148h-110q0 87 49 155t133 106.5t190 38.5q105 0 187 -38t128.5 -104t46.5 -149q0 -93 -62.5 -159t-166.5 -89v-5q125 -22 196 -94t71 -173q0 -88 -51 -158t-141.5 -110.5
t-207.5 -40.5z" />
    <glyph glyph-name="uni00BF" unicode="&#xbf;" horiz-adv-x="1375" 
d="M811 945v-97q-1 -125 -30.5 -210t-92.5 -151t-164 -135q-87 -59 -142 -117t-80.5 -121t-25.5 -138q0 -117 55.5 -207t150 -140t211.5 -50q118 0 214.5 53t154.5 149t61 226h126q-2 -160 -75.5 -281.5t-198.5 -190t-282 -68.5q-156 0 -278 66.5t-192 182.5t-70 264
q0 94 30.5 171t94.5 146.5t166 139.5q93 64 146 122t75 126t23 163v97h123zM747 1556q44 0 76 -31.5t32 -76.5t-32 -76.5t-76 -31.5q-45 0 -76.5 31.5t-31.5 76.5q0 30 14.5 54.5t39 39t54.5 14.5z" />
    <glyph glyph-name="uni00C0" unicode="&#xc0;" horiz-adv-x="1792" 
d="M217 0h-132l739 2048h144l739 -2048h-132l-674 1887h-10zM404 771h984v-116h-984v116zM842 2267l-301 442h145l268 -442h-112z" />
    <glyph glyph-name="uni00C1" unicode="&#xc1;" horiz-adv-x="1792" 
d="M217 0h-132l739 2048h144l739 -2048h-132l-674 1887h-10zM404 771h984v-116h-984v116zM837 2267l268 442h145l-301 -442h-112z" />
    <glyph glyph-name="uni00C2" unicode="&#xc2;" horiz-adv-x="1792" 
d="M217 0h-132l739 2048h144l739 -2048h-132l-674 1887h-10zM404 771h984v-116h-984v116zM1165 2216l-269 299l-269 -299h-126v11l354 389h82l354 -389v-11h-126z" />
    <glyph glyph-name="uni00C3" unicode="&#xc3;" horiz-adv-x="1792" 
d="M217 0h-132l739 2048h144l739 -2048h-132l-674 1887h-10zM404 771h984v-116h-984v116zM531 2313l-104 8q9 114 87.5 186t189.5 72q65 0 113 -23.5t89 -53t83.5 -52.5t97.5 -23q64 0 116 43.5t62 110.5l103 -16q-15 -112 -94.5 -180.5t-182.5 -68.5q-66 0 -111.5 23
t-84.5 53t-82 53t-105 23q-71 0 -121 -44t-56 -111z" />
    <glyph glyph-name="uni00C4" unicode="&#xc4;" horiz-adv-x="1792" 
d="M217 0h-132l739 2048h144l739 -2048h-132l-674 1887h-10zM404 771h984v-116h-984v116zM672 2320q-38 0 -67 29t-29 67q0 40 29 68t67 28q40 0 68 -28t28 -68q0 -38 -28 -67t-68 -29zM1120 2320q-38 0 -67 29t-29 67q0 40 29 68t67 28q40 0 68 -28t28 -68q0 -38 -28 -67
t-68 -29z" />
    <glyph glyph-name="uni00C5" unicode="&#xc5;" horiz-adv-x="1792" 
d="M217 0h-132l739 2048h144l739 -2048h-132l-674 1887h-10zM404 771h984v-116h-984v116zM896 2161q-103 0 -176 73t-73 176q0 69 33.5 125.5t90 90t125.5 33.5t125.5 -33.5t90 -90t33.5 -125.5t-33.5 -125.5t-90 -90t-125.5 -33.5zM896 2252q67 0 112 46t45 112t-45.5 112
t-111.5 46q-67 0 -112 -46t-45 -112t45.5 -112t111.5 -46z" />
    <glyph glyph-name="uni00C6" unicode="&#xc6;" horiz-adv-x="2729" 
d="M85 0l1027 2048h1396v-116h-1015v-849h954v-116h-954v-851h1039v-116h-1164v1932h-183l-961 -1932h-139zM497 655v116h936v-116h-936z" />
    <glyph glyph-name="uni00C7" unicode="&#xc7;" horiz-adv-x="2040" 
d="M1856 1408h-128q-20 104 -75 201.5t-141.5 176t-200.5 124.5t-252 46q-202 0 -371.5 -107.5t-271 -315.5t-101.5 -509q0 -303 101.5 -511t271 -314.5t371.5 -106.5q138 0 252 45.5t200.5 124t141.5 176.5t75 202h128q-22 -124 -84.5 -243t-164 -215.5t-239 -153
t-309.5 -56.5q-256 0 -451 130.5t-305.5 367.5t-110.5 554t110.5 554t305.5 367.5t451 130.5q172 0 309.5 -56.5t239 -152t164 -214.5t84.5 -245zM1003 3h108l-15 -80q94 -15 151 -73.5t57 -159.5q0 -114 -81.5 -175t-238.5 -64l-4 95q106 2 158 35.5t53 105.5
q-1 80 -55 118t-165 39z" />
    <glyph glyph-name="uni00C8" unicode="&#xc8;" horiz-adv-x="1657" 
d="M296 0v2048h1140v-116h-1015v-849h954v-116h-954v-851h1039v-116h-1164zM816 2267l-301 442h145l268 -442h-112z" />
    <glyph glyph-name="uni00C9" unicode="&#xc9;" horiz-adv-x="1657" 
d="M296 0v2048h1140v-116h-1015v-849h954v-116h-954v-851h1039v-116h-1164zM811 2267l268 442h145l-301 -442h-112z" />
    <glyph glyph-name="uni00CA" unicode="&#xca;" horiz-adv-x="1657" 
d="M296 0v2048h1140v-116h-1015v-849h954v-116h-954v-851h1039v-116h-1164zM1138 2216l-269 299l-269 -299h-126v11l354 389h82l354 -389v-11h-126z" />
    <glyph glyph-name="uni00CB" unicode="&#xcb;" horiz-adv-x="1657" 
d="M296 0v2048h1140v-116h-1015v-849h954v-116h-954v-851h1039v-116h-1164zM645 2320q-38 0 -67 29t-29 67q0 41 29 68.5t67 27.5q40 0 68 -27.5t28 -68.5q0 -38 -28 -67t-68 -29zM1093 2320q-38 0 -67 29t-29 67q0 41 29 68.5t67 27.5q40 0 68 -27.5t28 -68.5
q0 -38 -28 -67t-68 -29z" />
    <glyph glyph-name="uni00CC" unicode="&#xcc;" horiz-adv-x="717" 
d="M421 2048v-2048h-125v2048h125zM305 2267l-301 442h145l268 -442h-112z" />
    <glyph glyph-name="uni00CD" unicode="&#xcd;" horiz-adv-x="717" 
d="M421 2048v-2048h-125v2048h125zM300 2267l268 442h145l-301 -442h-112z" />
    <glyph glyph-name="uni00CE" unicode="&#xce;" horiz-adv-x="717" 
d="M421 2048v-2048h-125v2048h125zM628 2216l-269 299l-269 -299h-126v11l354 389h82l354 -389v-11h-126z" />
    <glyph glyph-name="uni00CF" unicode="&#xcf;" horiz-adv-x="717" 
d="M421 2048v-2048h-125v2048h125zM135 2320q-39 0 -67.5 29t-28.5 67q0 40 28.5 68t67.5 28q40 0 68 -28t28 -68q0 -38 -28 -67t-68 -29zM583 2320q-39 0 -67.5 29t-28.5 67q0 40 28.5 68t67.5 28q40 0 68 -28t28 -68q0 -38 -28 -67t-68 -29z" />
    <glyph glyph-name="uni00D0" unicode="&#xd0;" horiz-adv-x="2016" 
d="M864 0h-500v116h495q274 0 462 109.5t284.5 314.5t95.5 491q0 282 -93 483.5t-270.5 309.5t-434.5 108h-543v116h548q288 0 493 -122t314.5 -349.5t108.5 -545.5q-1 -325 -114 -555.5t-327 -353t-519 -122.5zM421 2048v-2048h-125v2048h125zM-41 993v104h800v-104h-800z
" />
    <glyph glyph-name="uni00D1" unicode="&#xd1;" horiz-adv-x="2157" 
d="M1861 2048v-2048h-122l-1306 1821h-12v-1821h-125v2048h123l1306 -1823h12v1823h124zM712 2288l-104 8q9 114 87.5 185.5t189.5 71.5q65 0 113 -23t89 -52.5t83.5 -53t97.5 -23.5q64 0 116 43.5t62 111.5l103 -16q-15 -113 -94.5 -181t-182.5 -68q-66 0 -111.5 23
t-84.5 52.5t-82 53t-105 23.5q-71 0 -121 -44.5t-56 -110.5z" />
    <glyph glyph-name="uni00D2" unicode="&#xd2;" horiz-adv-x="2117" 
d="M1925 1024q0 -317 -110 -553.5t-305.5 -367.5t-450.5 -131q-256 0 -451.5 131.5t-305.5 368t-110 552.5q0 317 110.5 553t305.5 367.5t451 131.5q255 0 450.5 -131t305.5 -367.5t110 -553.5zM1803 1024q0 285 -95.5 494t-263.5 323.5t-385 114.5t-385 -113.5t-263.5 -323
t-95.5 -495.5q0 -283 94.5 -492.5t262.5 -324.5t387 -115q217 0 385 114.5t263.5 323.5t95.5 494zM1005 2267l-301 442h145l268 -442h-112z" />
    <glyph glyph-name="uni00D3" unicode="&#xd3;" horiz-adv-x="2117" 
d="M1925 1024q0 -317 -110 -553.5t-305.5 -367.5t-450.5 -131q-256 0 -451.5 131.5t-305.5 368t-110 552.5q0 317 110.5 553t305.5 367.5t451 131.5q255 0 450.5 -131t305.5 -367.5t110 -553.5zM1803 1024q0 285 -95.5 494t-263.5 323.5t-385 114.5t-385 -113.5t-263.5 -323
t-95.5 -495.5q0 -283 94.5 -492.5t262.5 -324.5t387 -115q217 0 385 114.5t263.5 323.5t95.5 494zM1000 2267l268 442h145l-301 -442h-112z" />
    <glyph glyph-name="uni00D4" unicode="&#xd4;" horiz-adv-x="2117" 
d="M1925 1024q0 -317 -110 -553.5t-305.5 -367.5t-450.5 -131q-256 0 -451.5 131.5t-305.5 368t-110 552.5q0 317 110.5 553t305.5 367.5t451 131.5q255 0 450.5 -131t305.5 -367.5t110 -553.5zM1803 1024q0 285 -95.5 494t-263.5 323.5t-385 114.5t-385 -113.5t-263.5 -323
t-95.5 -495.5q0 -283 94.5 -492.5t262.5 -324.5t387 -115q217 0 385 114.5t263.5 323.5t95.5 494zM1328 2216l-269 299l-269 -299h-126v11l354 389h82l354 -389v-11h-126z" />
    <glyph glyph-name="uni00D5" unicode="&#xd5;" horiz-adv-x="2117" 
d="M1925 1024q0 -317 -110 -553.5t-305.5 -367.5t-450.5 -131q-256 0 -451.5 131.5t-305.5 368t-110 552.5q0 317 110.5 553t305.5 367.5t451 131.5q255 0 450.5 -131t305.5 -367.5t110 -553.5zM1803 1024q0 285 -95.5 494t-263.5 323.5t-385 114.5t-385 -113.5t-263.5 -323
t-95.5 -495.5q0 -283 94.5 -492.5t262.5 -324.5t387 -115q217 0 385 114.5t263.5 323.5t95.5 494zM694 2313l-104 8q9 114 87.5 186t189.5 72q65 0 113 -23.5t89 -53t83.5 -52.5t97.5 -23q64 0 116 43.5t62 110.5l103 -16q-15 -112 -94.5 -180.5t-182.5 -68.5
q-66 0 -111.5 23t-84.5 53t-82 53t-105 23q-71 0 -121 -44t-56 -111z" />
    <glyph glyph-name="uni00D6" unicode="&#xd6;" horiz-adv-x="2117" 
d="M1925 1024q0 -317 -110 -553.5t-305.5 -367.5t-450.5 -131q-256 0 -451.5 131.5t-305.5 368t-110 552.5q0 317 110.5 553t305.5 367.5t451 131.5q255 0 450.5 -131t305.5 -367.5t110 -553.5zM1803 1024q0 285 -95.5 494t-263.5 323.5t-385 114.5t-385 -113.5t-263.5 -323
t-95.5 -495.5q0 -283 94.5 -492.5t262.5 -324.5t387 -115q217 0 385 114.5t263.5 323.5t95.5 494zM835 2320q-39 0 -67.5 29t-28.5 67q0 40 28.5 68t67.5 28q40 0 68 -28t28 -68q0 -38 -28 -67t-68 -29zM1283 2320q-39 0 -67.5 29t-28.5 67q0 40 28.5 68t67.5 28
q40 0 68 -28t28 -68q0 -38 -28 -67t-68 -29z" />
    <glyph glyph-name="uni00D7" unicode="&#xd7;" horiz-adv-x="1813" 
d="M1430 195l-1128 1128l81 82l1128 -1128zM383 195l-81 82l1128 1128l81 -82z" />
    <glyph glyph-name="uni00D8" unicode="&#xd8;" horiz-adv-x="2117" 
d="M403 -60l-86 59l1395 2108l85 -59zM1925 1024q0 -317 -110 -553.5t-305.5 -367.5t-450.5 -131q-256 0 -451.5 131.5t-305.5 368t-110 552.5q0 317 110.5 553t305.5 367.5t451 131.5q255 0 450.5 -131t305.5 -367.5t110 -553.5zM1803 1024q0 285 -95.5 494t-263.5 323.5
t-385 114.5t-385 -113.5t-263.5 -323t-95.5 -495.5q0 -283 94.5 -492.5t262.5 -324.5t387 -115q217 0 385 114.5t263.5 323.5t95.5 494z" />
    <glyph glyph-name="uni00D9" unicode="&#xd9;" horiz-adv-x="2104" 
d="M1683 2048h125v-1356q0 -209 -97 -372.5t-267.5 -258t-391.5 -94.5q-220 0 -391 94.5t-268.5 258.5t-96.5 372v1356h125v-1349q0 -177 80.5 -315t222.5 -217.5t328 -79.5t328 79.5t222.5 217.5t80.5 315v1349zM998 2267l-301 442h145l268 -442h-112z" />
    <glyph glyph-name="uni00DA" unicode="&#xda;" horiz-adv-x="2104" 
d="M1683 2048h125v-1356q0 -209 -97 -372.5t-267.5 -258t-391.5 -94.5q-220 0 -391 94.5t-268.5 258.5t-96.5 372v1356h125v-1349q0 -177 80.5 -315t222.5 -217.5t328 -79.5t328 79.5t222.5 217.5t80.5 315v1349zM993 2267l268 442h145l-301 -442h-112z" />
    <glyph glyph-name="uni00DB" unicode="&#xdb;" horiz-adv-x="2104" 
d="M1683 2048h125v-1356q0 -209 -97 -372.5t-267.5 -258t-391.5 -94.5q-220 0 -391 94.5t-268.5 258.5t-96.5 372v1356h125v-1349q0 -177 80.5 -315t222.5 -217.5t328 -79.5t328 79.5t222.5 217.5t80.5 315v1349zM1321 2216l-269 299l-269 -299h-126v11l354 389h82l354 -389
v-11h-126z" />
    <glyph glyph-name="uni00DC" unicode="&#xdc;" horiz-adv-x="2104" 
d="M1683 2048h125v-1356q0 -209 -97 -372.5t-267.5 -258t-391.5 -94.5q-220 0 -391 94.5t-268.5 258.5t-96.5 372v1356h125v-1349q0 -177 80.5 -315t222.5 -217.5t328 -79.5t328 79.5t222.5 217.5t80.5 315v1349zM828 2320q-38 0 -67 29t-29 67q0 41 29 68.5t67 27.5
q40 0 68 -27.5t28 -68.5q0 -38 -28 -67t-68 -29zM1276 2320q-38 0 -67 29t-29 67q0 41 29 68.5t67 27.5q40 0 68 -27.5t28 -68.5q0 -38 -28 -67t-68 -29z" />
    <glyph glyph-name="uni00DD" unicode="&#xdd;" horiz-adv-x="1776" 
d="M88 2048h148l645 -988h14l645 988h148l-737 -1119v-929h-126v929zM829 2267l268 442h145l-301 -442h-112z" />
    <glyph glyph-name="uni00DE" unicode="&#xde;" horiz-adv-x="1701" 
d="M272 2048h123v-2048h-123v2048zM332 1579h523q194 0 334 -69.5t214 -193t74 -285.5q0 -165 -73 -289t-212.5 -192.5t-336.5 -68.5h-523v116h523q160 0 271.5 50.5t170 146.5t59.5 233q-1 136 -60 234t-171 150t-270 52h-523v116z" />
    <glyph glyph-name="uni00DF" unicode="&#xdf;" horiz-adv-x="1651" 
d="M296 0v1535q0 165 67 287t187.5 188t280.5 66q153 0 270.5 -62.5t183.5 -175.5t66 -266q-1 -184 -98 -315t-266 -185v-12q222 -41 344 -173.5t122 -341.5q0 -162 -73 -284.5t-207 -191.5t-314 -69h-168v116h180q139 0 242.5 53.5t161.5 148.5t58 219q0 206 -150 330.5
t-404 124.5h-80v117h64q141 0 246 59.5t162.5 162t57.5 229.5q0 180 -107.5 290t-288.5 110q-189 1 -302.5 -116.5t-113.5 -319.5v-1524h-121z" />
    <glyph glyph-name="uni00E0" unicode="&#xe0;" horiz-adv-x="1545" 
d="M660 -33q-133 0 -243.5 53t-177 155t-66.5 248q0 96 34 169t105 126t182 87.5t265 53.5q117 14 209 27.5t144.5 42.5t52.5 88v64q0 168 -106 267t-292 99q-165 0 -277.5 -72.5t-157.5 -186.5l-115 43q44 110 127.5 183t192 109t227.5 36q103 0 196.5 -29t167 -88
t116.5 -150.5t43 -218.5v-1073h-122v277h-9q-40 -86 -109.5 -156.5t-167 -112t-219.5 -41.5zM672 80q144 0 255.5 70.5t174.5 193.5t63 279v226q-23 -20 -66.5 -35.5t-98 -27t-114 -20t-115.5 -15.5q-168 -20 -273.5 -61.5t-154 -108.5t-48.5 -162q0 -157 108 -248t269 -91z
M726 1755l-301 442h145l268 -442h-112z" />
    <glyph glyph-name="uni00E1" unicode="&#xe1;" horiz-adv-x="1545" 
d="M660 -33q-133 0 -243.5 53t-177 155t-66.5 248q0 96 34 169t105 126t182 87.5t265 53.5q117 14 209 27.5t144.5 42.5t52.5 88v64q0 168 -106 267t-292 99q-165 0 -277.5 -72.5t-157.5 -186.5l-115 43q44 110 127.5 183t192 109t227.5 36q103 0 196.5 -29t167 -88
t116.5 -150.5t43 -218.5v-1073h-122v277h-9q-40 -86 -109.5 -156.5t-167 -112t-219.5 -41.5zM672 80q144 0 255.5 70.5t174.5 193.5t63 279v226q-23 -20 -66.5 -35.5t-98 -27t-114 -20t-115.5 -15.5q-168 -20 -273.5 -61.5t-154 -108.5t-48.5 -162q0 -157 108 -248t269 -91z
M721 1755l268 442h145l-301 -442h-112z" />
    <glyph glyph-name="uni00E2" unicode="&#xe2;" horiz-adv-x="1545" 
d="M660 -33q-133 0 -243.5 53t-177 155t-66.5 248q0 96 34 169t105 126t182 87.5t265 53.5q117 14 209 27.5t144.5 42.5t52.5 88v64q0 168 -106 267t-292 99q-165 0 -277.5 -72.5t-157.5 -186.5l-115 43q44 110 127.5 183t192 109t227.5 36q103 0 196.5 -29t167 -88
t116.5 -150.5t43 -218.5v-1073h-122v277h-9q-40 -86 -109.5 -156.5t-167 -112t-219.5 -41.5zM672 80q144 0 255.5 70.5t174.5 193.5t63 279v226q-23 -20 -66.5 -35.5t-98 -27t-114 -20t-115.5 -15.5q-168 -20 -273.5 -61.5t-154 -108.5t-48.5 -162q0 -157 108 -248t269 -91z
M1049 1704l-269 299l-269 -299h-126v11l354 389h82l354 -389v-11h-126z" />
    <glyph glyph-name="uni00E3" unicode="&#xe3;" horiz-adv-x="1545" 
d="M660 -33q-133 0 -243.5 53t-177 155t-66.5 248q0 96 34 169t105 126t182 87.5t265 53.5q117 14 209 27.5t144.5 42.5t52.5 88v64q0 168 -106 267t-292 99q-165 0 -277.5 -72.5t-157.5 -186.5l-115 43q44 110 127.5 183t192 109t227.5 36q103 0 196.5 -29t167 -88
t116.5 -150.5t43 -218.5v-1073h-122v277h-9q-40 -86 -109.5 -156.5t-167 -112t-219.5 -41.5zM672 80q144 0 255.5 70.5t174.5 193.5t63 279v226q-23 -20 -66.5 -35.5t-98 -27t-114 -20t-115.5 -15.5q-168 -20 -273.5 -61.5t-154 -108.5t-48.5 -162q0 -157 108 -248t269 -91z
M414 1776l-104 8q9 114 87.5 185.5t189.5 71.5q65 0 113 -23t89 -52.5t83.5 -53t97.5 -23.5q64 0 116 43.5t62 111.5l103 -16q-15 -113 -94.5 -181t-182.5 -68q-66 0 -111.5 23t-84.5 52.5t-82 53t-105 23.5q-71 0 -121 -44.5t-56 -110.5z" />
    <glyph glyph-name="uni00E4" unicode="&#xe4;" horiz-adv-x="1545" 
d="M660 -33q-133 0 -243.5 53t-177 155t-66.5 248q0 96 34 169t105 126t182 87.5t265 53.5q117 14 209 27.5t144.5 42.5t52.5 88v64q0 168 -106 267t-292 99q-165 0 -277.5 -72.5t-157.5 -186.5l-115 43q44 110 127.5 183t192 109t227.5 36q103 0 196.5 -29t167 -88
t116.5 -150.5t43 -218.5v-1073h-122v277h-9q-40 -86 -109.5 -156.5t-167 -112t-219.5 -41.5zM672 80q144 0 255.5 70.5t174.5 193.5t63 279v226q-23 -20 -66.5 -35.5t-98 -27t-114 -20t-115.5 -15.5q-168 -20 -273.5 -61.5t-154 -108.5t-48.5 -162q0 -157 108 -248t269 -91z
M556 1808q-38 0 -67 29t-29 67q0 40 29 68t67 28q40 0 68 -28t28 -68q0 -38 -28 -67t-68 -29zM1004 1808q-38 0 -67 29t-29 67q0 40 29 68t67 28q40 0 68 -28t28 -68q0 -38 -28 -67t-68 -29z" />
    <glyph glyph-name="uni00E5" unicode="&#xe5;" horiz-adv-x="1545" 
d="M660 -33q-133 0 -243.5 53t-177 155t-66.5 248q0 96 34 169t105 126t182 87.5t265 53.5q117 14 209 27.5t144.5 42.5t52.5 88v64q0 168 -106 267t-292 99q-165 0 -277.5 -72.5t-157.5 -186.5l-115 43q44 110 127.5 183t192 109t227.5 36q103 0 196.5 -29t167 -88
t116.5 -150.5t43 -218.5v-1073h-122v277h-9q-40 -86 -109.5 -156.5t-167 -112t-219.5 -41.5zM672 80q144 0 255.5 70.5t174.5 193.5t63 279v226q-23 -20 -66.5 -35.5t-98 -27t-114 -20t-115.5 -15.5q-168 -20 -273.5 -61.5t-154 -108.5t-48.5 -162q0 -157 108 -248t269 -91z
M780 1721q-76 0 -138 35.5t-98.5 96t-36.5 134.5t36.5 135t98.5 97.5t138 36.5q77 0 138.5 -36.5t97.5 -97.5t36 -135t-36 -134.5t-97.5 -96t-138.5 -35.5zM780 1815q74 0 123.5 51t49.5 121q0 71 -50 122.5t-123 51.5q-74 0 -123.5 -52t-49.5 -122t50 -121t123 -51z" />
    <glyph glyph-name="uni00E6" unicode="&#xe6;" horiz-adv-x="2599" 
d="M1821 -32q-239 0 -403 133t-223 346l28 697q75 189 223.5 302t345.5 113q129 0 244 -52t204 -148.5t140 -233.5t51 -308v-76h-1208v111h1085q0 166 -68 300.5t-184.5 213.5t-263.5 79q-152 0 -271.5 -85.5t-189.5 -231t-72 -323.5v-50q0 -193 67 -345t193 -240.5
t302 -88.5q126 0 215.5 42.5t147 103.5t85.5 118l111 -45q-35 -77 -108 -153.5t-186 -127.5t-265 -51zM672 80q144 0 255.5 70.5t174.5 193.5t63 279v226q-23 -20 -66.5 -35.5t-98 -27t-114 -20t-115.5 -15.5q-168 -20 -273.5 -61.5t-154 -108.5t-48.5 -162q0 -157 108 -248
t269 -91zM660 -33q-133 0 -243.5 53t-177 155t-66.5 248q0 96 34.5 169t105 126t181.5 87.5t265 53.5q117 14 209 28t144.5 43t52.5 87v64q0 167 -106 266.5t-292 99.5q-164 0 -277 -72.5t-158 -186.5l-115 43q44 110 127.5 183t192 109t227.5 36q99 0 186.5 -27t157 -79.5
t114 -130t55.5 -179.5l-30 -730h-15q-41 -151 -129.5 -250t-204.5 -147.5t-238 -48.5z" />
    <glyph glyph-name="uni00E7" unicode="&#xe7;" horiz-adv-x="1561" 
d="M829 -32q-196 0 -345 103.5t-232.5 283.5t-83.5 408t84 408t233 284t343 104q146 0 266.5 -60t200 -167t101.5 -248h-124q-30 156 -149.5 258.5t-293.5 102.5q-156 0 -278 -87.5t-192 -241t-70 -351.5q0 -195 68 -349.5t190 -244.5t282 -90q113 0 206.5 45t156.5 128
t83 194h124q-22 -142 -100 -250t-199 -169t-271 -61zM760 8h108l-15 -80q94 -15 151 -73.5t57 -159.5q0 -114 -81.5 -175t-238.5 -64l-4 95q106 2 158 35.5t53 105.5q-1 80 -55 118t-165 39z" />
    <glyph glyph-name="uni00E8" unicode="&#xe8;" horiz-adv-x="1629" 
d="M852 -32q-208 0 -362 103t-238 282t-84 408q0 230 84.5 410t232.5 284t338 104q129 0 244.5 -51.5t204 -148.5t139 -234t50.5 -308v-76h-1216v111h1094q0 167 -68 301t-185 213t-263 79q-153 0 -272.5 -85.5t-189 -230.5t-72.5 -324v-50q0 -192 67.5 -344.5t193.5 -241
t302 -88.5q126 0 215.5 42.5t146.5 103.5t86 118l111 -45q-35 -77 -108.5 -153.5t-186 -127.5t-264.5 -51zM762 1755l-301 442h145l268 -442h-112z" />
    <glyph glyph-name="uni00E9" unicode="&#xe9;" horiz-adv-x="1629" 
d="M852 -32q-208 0 -362 103t-238 282t-84 408q0 230 84.5 410t232.5 284t338 104q129 0 244.5 -51.5t204 -148.5t139 -234t50.5 -308v-76h-1216v111h1094q0 167 -68 301t-185 213t-263 79q-153 0 -272.5 -85.5t-189 -230.5t-72.5 -324v-50q0 -192 67.5 -344.5t193.5 -241
t302 -88.5q126 0 215.5 42.5t146.5 103.5t86 118l111 -45q-35 -77 -108.5 -153.5t-186 -127.5t-264.5 -51zM757 1755l268 442h145l-301 -442h-112z" />
    <glyph glyph-name="uni00EA" unicode="&#xea;" horiz-adv-x="1629" 
d="M852 -32q-208 0 -362 103t-238 282t-84 408q0 230 84.5 410t232.5 284t338 104q129 0 244.5 -51.5t204 -148.5t139 -234t50.5 -308v-76h-1216v111h1094q0 167 -68 301t-185 213t-263 79q-153 0 -272.5 -85.5t-189 -230.5t-72.5 -324v-50q0 -192 67.5 -344.5t193.5 -241
t302 -88.5q126 0 215.5 42.5t146.5 103.5t86 118l111 -45q-35 -77 -108.5 -153.5t-186 -127.5t-264.5 -51zM1085 1704l-269 299l-269 -299h-126v11l354 389h82l354 -389v-11h-126z" />
    <glyph glyph-name="uni00EB" unicode="&#xeb;" horiz-adv-x="1629" 
d="M852 -32q-208 0 -362 103t-238 282t-84 408q0 230 84.5 410t232.5 284t338 104q129 0 244.5 -51.5t204 -148.5t139 -234t50.5 -308v-76h-1216v111h1094q0 167 -68 301t-185 213t-263 79q-153 0 -272.5 -85.5t-189 -230.5t-72.5 -324v-50q0 -192 67.5 -344.5t193.5 -241
t302 -88.5q126 0 215.5 42.5t146.5 103.5t86 118l111 -45q-35 -77 -108.5 -153.5t-186 -127.5t-264.5 -51zM592 1808q-38 0 -67 29t-29 67q0 40 29 68t67 28q40 0 68 -28t28 -68q0 -38 -28 -67t-68 -29zM1040 1808q-38 0 -67 29t-29 67q0 40 29 68t67 28q40 0 68 -28t28 -68
q0 -38 -28 -67t-68 -29z" />
    <glyph glyph-name="uni00EC" unicode="&#xec;" horiz-adv-x="639" 
d="M259 0v1536h121v-1536h-121zM266 1755l-301 442h145l268 -442h-112z" />
    <glyph glyph-name="uni00ED" unicode="&#xed;" horiz-adv-x="639" 
d="M259 0v1536h121v-1536h-121zM261 1755l268 442h145l-301 -442h-112z" />
    <glyph glyph-name="uni00EE" unicode="&#xee;" horiz-adv-x="639" 
d="M259 0v1536h121v-1536h-121zM589 1704l-269 299l-269 -299h-126v11l354 389h82l354 -389v-11h-126z" />
    <glyph glyph-name="uni00EF" unicode="&#xef;" horiz-adv-x="639" 
d="M259 0v1536h121v-1536h-121zM96 1808q-38 0 -67 29t-29 67q0 40 29 68t67 28q40 0 68 -28t28 -68q0 -38 -28 -67t-68 -29zM544 1808q-38 0 -67 29t-29 67q0 40 29 68t67 28q40 0 68 -28t28 -68q0 -38 -28 -67t-68 -29z" />
    <glyph glyph-name="uni00F0" unicode="&#xf0;" horiz-adv-x="1657" 
d="M1341 1989l-796 -369l-33 91l796 369zM829 -32q-191 0 -340.5 97.5t-235 266t-85.5 379.5q0 212 85.5 380t231 265t324.5 97q116 0 210.5 -38t168.5 -107t127 -163h13q-57 179 -162.5 349.5t-263 320t-370.5 262.5l48 99q195 -103 360.5 -252t288.5 -333.5t191.5 -396
t68.5 -441.5q1 -242 -85 -418.5t-235.5 -271.5t-339.5 -95zM829 81q160 0 282 83t191.5 225t69.5 316q0 171 -67.5 316.5t-189.5 234.5t-286 89q-158 0 -280 -85.5t-191 -229.5t-69 -319q0 -173 68 -316t189 -228.5t283 -85.5z" />
    <glyph glyph-name="uni00F1" unicode="&#xf1;" horiz-adv-x="1616" 
d="M375 996v-996h-122v1536h119v-243h12q54 119 173 191t283 72q155 0 272.5 -66t184 -187.5t66.5 -289.5v-1013h-122v1008q0 196 -116.5 315.5t-307.5 119.5q-128 0 -228 -56t-157 -156.5t-57 -234.5zM444 1776l-104 8q9 114 87.5 185.5t189.5 71.5q65 0 113 -23t89 -52.5
t83.5 -53t97.5 -23.5q64 0 116 43.5t62 111.5l103 -16q-15 -113 -94.5 -181t-182.5 -68q-66 0 -111.5 23t-84.5 52.5t-82 53t-105 23.5q-71 0 -121 -44.5t-56 -110.5z" />
    <glyph glyph-name="uni00F2" unicode="&#xf2;" horiz-adv-x="1648" 
d="M824 -32q-190 0 -338 102.5t-233 282.5t-85 410q0 231 85 410.5t233 282.5t338 103t338 -103t233 -283t85 -410t-85 -410t-233 -282.5t-338 -102.5zM824 81q161 0 281.5 91t187 246t66.5 345t-67 344.5t-187 246t-281 91.5t-281 -91.5t-187 -246t-67 -344.5t66.5 -345
t187 -246t281.5 -91zM770 1755l-301 442h145l268 -442h-112z" />
    <glyph glyph-name="uni00F3" unicode="&#xf3;" horiz-adv-x="1648" 
d="M824 -32q-190 0 -338 102.5t-233 282.5t-85 410q0 231 85 410.5t233 282.5t338 103t338 -103t233 -283t85 -410t-85 -410t-233 -282.5t-338 -102.5zM824 81q161 0 281.5 91t187 246t66.5 345t-67 344.5t-187 246t-281 91.5t-281 -91.5t-187 -246t-67 -344.5t66.5 -345
t187 -246t281.5 -91zM765 1755l268 442h145l-301 -442h-112z" />
    <glyph glyph-name="uni00F4" unicode="&#xf4;" horiz-adv-x="1648" 
d="M824 -32q-190 0 -338 102.5t-233 282.5t-85 410q0 231 85 410.5t233 282.5t338 103t338 -103t233 -283t85 -410t-85 -410t-233 -282.5t-338 -102.5zM824 81q161 0 281.5 91t187 246t66.5 345t-67 344.5t-187 246t-281 91.5t-281 -91.5t-187 -246t-67 -344.5t66.5 -345
t187 -246t281.5 -91zM1093 1704l-269 299l-269 -299h-126v11l354 389h82l354 -389v-11h-126z" />
    <glyph glyph-name="uni00F5" unicode="&#xf5;" horiz-adv-x="1648" 
d="M824 -32q-190 0 -338 102.5t-233 282.5t-85 410q0 231 85 410.5t233 282.5t338 103t338 -103t233 -283t85 -410t-85 -410t-233 -282.5t-338 -102.5zM824 81q161 0 281.5 91t187 246t66.5 345t-67 344.5t-187 246t-281 91.5t-281 -91.5t-187 -246t-67 -344.5t66.5 -345
t187 -246t281.5 -91zM458 1776l-104 8q9 114 87.5 185.5t189.5 71.5q65 0 113 -23t89 -52.5t83.5 -53t97.5 -23.5q64 0 116 43.5t62 111.5l103 -16q-15 -113 -94.5 -181t-182.5 -68q-66 0 -111.5 23t-84.5 52.5t-82 53t-105 23.5q-71 0 -121 -44.5t-56 -110.5z" />
    <glyph glyph-name="uni00F6" unicode="&#xf6;" horiz-adv-x="1648" 
d="M824 -32q-190 0 -338 102.5t-233 282.5t-85 410q0 231 85 410.5t233 282.5t338 103t338 -103t233 -283t85 -410t-85 -410t-233 -282.5t-338 -102.5zM824 81q161 0 281.5 91t187 246t66.5 345t-67 344.5t-187 246t-281 91.5t-281 -91.5t-187 -246t-67 -344.5t66.5 -345
t187 -246t281.5 -91zM600 1808q-38 0 -67 29t-29 67q0 40 29 68t67 28q40 0 68 -28t28 -68q0 -38 -28 -67t-68 -29zM1048 1808q-38 0 -67 29t-29 67q0 40 29 68t67 28q40 0 68 -28t28 -68q0 -38 -28 -67t-68 -29z" />
    <glyph glyph-name="uni00F7" unicode="&#xf7;" horiz-adv-x="1813" 
d="M1507 859v-118h-1200v118h1200zM907 216q-45 0 -76.5 31.5t-31.5 76.5q0 44 31.5 75.5t76.5 31.5q43 0 74.5 -31.5t31.5 -75.5q0 -45 -31.5 -76.5t-74.5 -31.5zM907 1169q-30 0 -55 14.5t-39 39t-14 55.5q0 43 31.5 74.5t76.5 31.5q43 0 74.5 -31.5t31.5 -74.5
q0 -46 -31.5 -77.5t-74.5 -31.5z" />
    <glyph glyph-name="uni00F8" unicode="&#xf8;" horiz-adv-x="1648" 
d="M335 -55l-88 59l1066 1583l88 -59zM824 -29q-190 0 -338 102.5t-233 282t-85 409.5q0 232 85 411.5t233 282t338 102.5t338 -103t233 -282.5t85 -410.5q0 -230 -85 -409.5t-233 -282t-338 -102.5zM824 84q161 0 281.5 91t187 245.5t66.5 344.5t-67 345t-187 246.5
t-281 91.5t-281 -91.5t-187 -246.5t-67 -345t66.5 -344.5t187 -245.5t281.5 -91z" />
    <glyph glyph-name="uni00F9" unicode="&#xf9;" horiz-adv-x="1612" 
d="M1237 545v991h122v-1536h-122v249h-10q-54 -119 -174.5 -194t-284.5 -75q-151 0 -267 66t-182 187.5t-66 289.5v1013h122v-1008q0 -192 116.5 -310.5t301.5 -118.5q120 0 221 54t162 154.5t61 237.5zM753 1755l-301 442h145l268 -442h-112z" />
    <glyph glyph-name="uni00FA" unicode="&#xfa;" horiz-adv-x="1612" 
d="M1237 545v991h122v-1536h-122v249h-10q-54 -119 -174.5 -194t-284.5 -75q-151 0 -267 66t-182 187.5t-66 289.5v1013h122v-1008q0 -192 116.5 -310.5t301.5 -118.5q120 0 221 54t162 154.5t61 237.5zM748 1755l268 442h145l-301 -442h-112z" />
    <glyph glyph-name="uni00FB" unicode="&#xfb;" horiz-adv-x="1612" 
d="M1237 545v991h122v-1536h-122v249h-10q-54 -119 -174.5 -194t-284.5 -75q-151 0 -267 66t-182 187.5t-66 289.5v1013h122v-1008q0 -192 116.5 -310.5t301.5 -118.5q120 0 221 54t162 154.5t61 237.5zM1076 1704l-269 299l-269 -299h-126v11l354 389h82l354 -389v-11h-126
z" />
    <glyph glyph-name="uni00FC" unicode="&#xfc;" horiz-adv-x="1612" 
d="M1237 545v991h122v-1536h-122v249h-10q-54 -119 -174.5 -194t-284.5 -75q-151 0 -267 66t-182 187.5t-66 289.5v1013h122v-1008q0 -192 116.5 -310.5t301.5 -118.5q120 0 221 54t162 154.5t61 237.5zM583 1808q-38 0 -67 29t-29 67q0 40 29 68t67 28q40 0 68 -28t28 -68
q0 -38 -28 -67t-68 -29zM1031 1808q-38 0 -67 29t-29 67q0 40 29 68t67 28q40 0 68 -28t28 -68q0 -38 -28 -67t-68 -29z" />
    <glyph glyph-name="uni00FD" unicode="&#xfd;" horiz-adv-x="1504" 
d="M351 -576q-46 0 -91 10t-81 26l36 107q94 -36 170.5 -26t135.5 70t100 176l70 192l-563 1557h131l488 -1379h10l488 1379h131l-648 -1797q-37 -104 -93 -174t-127.5 -105.5t-156.5 -35.5zM693 1755l268 442h145l-301 -442h-112z" />
    <glyph glyph-name="uni00FE" unicode="&#xfe;" horiz-adv-x="1653" 
d="M248 2048h121v-1028l-33 -247l33 -288v-1061h-121v2624zM317 1193h64q37 99 102.5 182t163 133.5t229.5 50.5q186 0 323.5 -102t213.5 -281.5t76 -411.5t-76 -411.5t-214 -282t-322 -102.5q-130 0 -228.5 50t-165 133.5t-102.5 183.5h-64v858zM1368 765q0 193 -59 347
t-171.5 243.5t-270.5 89.5q-157 0 -268.5 -88.5t-171 -242t-59.5 -349.5t60 -350.5t171.5 -244t267.5 -89.5q157 0 269 90.5t172 245.5t60 348z" />
    <glyph glyph-name="uni00FF" unicode="&#xff;" horiz-adv-x="1504" 
d="M351 -576q-46 0 -91 10t-81 26l36 107q94 -36 170.5 -26t135.5 70t100 176l70 192l-563 1557h131l488 -1379h10l488 1379h131l-648 -1797q-37 -104 -93 -174t-127.5 -105.5t-156.5 -35.5zM528 1808q-38 0 -67 29t-29 67q0 40 29 68t67 28q40 0 68 -28t28 -68
q0 -38 -28 -67t-68 -29zM976 1808q-38 0 -67 29t-29 67q0 40 29 68t67 28q40 0 68 -28t28 -68q0 -38 -28 -67t-68 -29z" />
    <glyph glyph-name="uni0100" unicode="&#x100;" horiz-adv-x="1792" 
d="M217 0h-132l739 2048h144l739 -2048h-132l-674 1887h-10zM404 771h984v-116h-984v116zM1266 2469v-109h-739v109h739z" />
    <glyph glyph-name="uni0101" unicode="&#x101;" horiz-adv-x="1545" 
d="M660 -33q-133 0 -243.5 53t-177 155t-66.5 248q0 96 34 169t105 126t182 87.5t265 53.5q117 14 209 27.5t144.5 42.5t52.5 88v64q0 168 -106 267t-292 99q-165 0 -277.5 -72.5t-157.5 -186.5l-115 43q44 110 127.5 183t192 109t227.5 36q103 0 196.5 -29t167 -88
t116.5 -150.5t43 -218.5v-1073h-122v277h-9q-40 -86 -109.5 -156.5t-167 -112t-219.5 -41.5zM672 80q144 0 255.5 70.5t174.5 193.5t63 279v226q-23 -20 -66.5 -35.5t-98 -27t-114 -20t-115.5 -15.5q-168 -20 -273.5 -61.5t-154 -108.5t-48.5 -162q0 -157 108 -248t269 -91z
M1150 1957v-109h-739v109h739z" />
    <glyph glyph-name="uni0102" unicode="&#x102;" horiz-adv-x="1792" 
d="M217 0h-132l739 2048h144l739 -2048h-132l-674 1887h-10zM404 771h984v-116h-984v116zM1068 2560h116q0 -125 -77 -200t-211 -75q-133 0 -210 75t-77 200h116q0 -79 42 -127t129 -48t129.5 48t42.5 127z" />
    <glyph glyph-name="uni0103" unicode="&#x103;" horiz-adv-x="1545" 
d="M660 -33q-133 0 -243.5 53t-177 155t-66.5 248q0 96 34 169t105 126t182 87.5t265 53.5q117 14 209 27.5t144.5 42.5t52.5 88v64q0 168 -106 267t-292 99q-165 0 -277.5 -72.5t-157.5 -186.5l-115 43q44 110 127.5 183t192 109t227.5 36q103 0 196.5 -29t167 -88
t116.5 -150.5t43 -218.5v-1073h-122v277h-9q-40 -86 -109.5 -156.5t-167 -112t-219.5 -41.5zM672 80q144 0 255.5 70.5t174.5 193.5t63 279v226q-23 -20 -66.5 -35.5t-98 -27t-114 -20t-115.5 -15.5q-168 -20 -273.5 -61.5t-154 -108.5t-48.5 -162q0 -157 108 -248t269 -91z
M952 2048h116q0 -125 -77 -200t-211 -75q-133 0 -210 75t-77 200h116q0 -79 42 -127t129 -48t129.5 48t42.5 127z" />
    <glyph glyph-name="uni0104" unicode="&#x104;" horiz-adv-x="1792" 
d="M217 0h-132l739 2048h144l739 -2048h-132l-674 1887h-10zM404 771h984v-116h-984v116zM1612 -605q-110 0 -181 62t-71 182q0 73 30 139t90 127.5t148 122.5l78 -28q-98 -91 -161 -174.5t-63 -176.5q0 -73 39.5 -109t110.5 -36q44 0 77.5 12.5t64.5 34.5l31 -94
q-40 -27 -86.5 -44.5t-106.5 -17.5z" />
    <glyph glyph-name="uni0105" unicode="&#x105;" horiz-adv-x="1545" 
d="M660 -33q-133 0 -243.5 53t-177 155t-66.5 248q0 96 34 169t105 126t182 87.5t265 53.5q117 14 209 27.5t144.5 42.5t52.5 88v64q0 168 -106 267t-292 99q-165 0 -277.5 -72.5t-157.5 -186.5l-115 43q44 110 127.5 183t192 109t227.5 36q103 0 196.5 -29t167 -88
t116.5 -150.5t43 -218.5v-1073h-122v277h-9q-40 -86 -109.5 -156.5t-167 -112t-219.5 -41.5zM672 80q144 0 255.5 70.5t174.5 193.5t63 279v226q-23 -20 -66.5 -35.5t-98 -27t-114 -20t-115.5 -15.5q-168 -20 -273.5 -61.5t-154 -108.5t-48.5 -162q0 -157 108 -248t269 -91z
M1192 -605q-110 0 -181 62t-71 182q0 73 30 139t90 127.5t148 122.5l78 -28q-98 -91 -161 -174.5t-63 -176.5q0 -73 39.5 -109t110.5 -36q44 0 77.5 12.5t64.5 34.5l31 -94q-40 -27 -86.5 -44.5t-106.5 -17.5z" />
    <glyph glyph-name="uni0106" unicode="&#x106;" horiz-adv-x="2040" 
d="M1856 1408h-128q-20 104 -75 201.5t-141.5 176t-200.5 124.5t-252 46q-202 0 -371.5 -107.5t-271 -315.5t-101.5 -509q0 -303 101.5 -511t271 -314.5t371.5 -106.5q138 0 252 45.5t200.5 124t141.5 176.5t75 202h128q-22 -124 -84.5 -243t-164 -215.5t-239 -153
t-309.5 -56.5q-256 0 -451 130.5t-305.5 367.5t-110.5 554t110.5 554t305.5 367.5t451 130.5q172 0 309.5 -56.5t239 -152t164 -214.5t84.5 -245zM1000 2267l268 442h145l-301 -442h-112z" />
    <glyph glyph-name="uni0107" unicode="&#x107;" horiz-adv-x="1561" 
d="M829 -32q-196 0 -345 103.5t-232.5 283.5t-83.5 408t84 408t233 284t343 104q146 0 266.5 -60t200 -167t101.5 -248h-124q-30 156 -149.5 258.5t-293.5 102.5q-156 0 -278 -87.5t-192 -241t-70 -351.5q0 -195 68 -349.5t190 -244.5t282 -90q113 0 206.5 45t156.5 128
t83 194h124q-22 -142 -100 -250t-199 -169t-271 -61zM757 1755l268 442h145l-301 -442h-112z" />
    <glyph glyph-name="uni0108" unicode="&#x108;" horiz-adv-x="2040" 
d="M1856 1408h-128q-20 104 -75 201.5t-141.5 176t-200.5 124.5t-252 46q-202 0 -371.5 -107.5t-271 -315.5t-101.5 -509q0 -303 101.5 -511t271 -314.5t371.5 -106.5q138 0 252 45.5t200.5 124t141.5 176.5t75 202h128q-22 -124 -84.5 -243t-164 -215.5t-239 -153
t-309.5 -56.5q-256 0 -451 130.5t-305.5 367.5t-110.5 554t110.5 554t305.5 367.5t451 130.5q172 0 309.5 -56.5t239 -152t164 -214.5t84.5 -245zM1328 2216l-269 299l-269 -299h-126v11l354 389h82l354 -389v-11h-126z" />
    <glyph glyph-name="uni0109" unicode="&#x109;" horiz-adv-x="1561" 
d="M829 -32q-196 0 -345 103.5t-232.5 283.5t-83.5 408t84 408t233 284t343 104q146 0 266.5 -60t200 -167t101.5 -248h-124q-30 156 -149.5 258.5t-293.5 102.5q-156 0 -278 -87.5t-192 -241t-70 -351.5q0 -195 68 -349.5t190 -244.5t282 -90q113 0 206.5 45t156.5 128
t83 194h124q-22 -142 -100 -250t-199 -169t-271 -61zM1085 1704l-269 299l-269 -299h-126v11l354 389h82l354 -389v-11h-126z" />
    <glyph glyph-name="uni010A" unicode="&#x10a;" horiz-adv-x="2040" 
d="M1856 1408h-128q-20 104 -75 201.5t-141.5 176t-200.5 124.5t-252 46q-202 0 -371.5 -107.5t-271 -315.5t-101.5 -509q0 -303 101.5 -511t271 -314.5t371.5 -106.5q138 0 252 45.5t200.5 124t141.5 176.5t75 202h128q-22 -124 -84.5 -243t-164 -215.5t-239 -153
t-309.5 -56.5q-256 0 -451 130.5t-305.5 367.5t-110.5 554t110.5 554t305.5 367.5t451 130.5q172 0 309.5 -56.5t239 -152t164 -214.5t84.5 -245zM1059 2320q-41 0 -70 28t-29 68t29 68t70 28q40 0 69 -28t29 -68t-29 -68t-69 -28z" />
    <glyph glyph-name="uni010B" unicode="&#x10b;" horiz-adv-x="1561" 
d="M829 -32q-196 0 -345 103.5t-232.5 283.5t-83.5 408t84 408t233 284t343 104q146 0 266.5 -60t200 -167t101.5 -248h-124q-30 156 -149.5 258.5t-293.5 102.5q-156 0 -278 -87.5t-192 -241t-70 -351.5q0 -195 68 -349.5t190 -244.5t282 -90q113 0 206.5 45t156.5 128
t83 194h124q-22 -142 -100 -250t-199 -169t-271 -61zM816 1808q-41 0 -70 28t-29 68t29 68t70 28q40 0 69 -28t29 -68t-29 -68t-69 -28z" />
    <glyph glyph-name="uni010C" unicode="&#x10c;" horiz-adv-x="2040" 
d="M1856 1408h-128q-20 104 -75 201.5t-141.5 176t-200.5 124.5t-252 46q-202 0 -371.5 -107.5t-271 -315.5t-101.5 -509q0 -303 101.5 -511t271 -314.5t371.5 -106.5q138 0 252 45.5t200.5 124t141.5 176.5t75 202h128q-22 -124 -84.5 -243t-164 -215.5t-239 -153
t-309.5 -56.5q-256 0 -451 130.5t-305.5 367.5t-110.5 554t110.5 554t305.5 367.5t451 130.5q172 0 309.5 -56.5t239 -152t164 -214.5t84.5 -245zM790 2650l269 -298l269 298h126v-10l-354 -390h-82l-354 390v10h126z" />
    <glyph glyph-name="uni010D" unicode="&#x10d;" horiz-adv-x="1561" 
d="M829 -32q-196 0 -345 103.5t-232.5 283.5t-83.5 408t84 408t233 284t343 104q146 0 266.5 -60t200 -167t101.5 -248h-124q-30 156 -149.5 258.5t-293.5 102.5q-156 0 -278 -87.5t-192 -241t-70 -351.5q0 -195 68 -349.5t190 -244.5t282 -90q113 0 206.5 45t156.5 128
t83 194h124q-22 -142 -100 -250t-199 -169t-271 -61zM547 2138l269 -298l269 298h126v-10l-354 -390h-82l-354 390v10h126z" />
    <glyph glyph-name="uni010E" unicode="&#x10e;" horiz-adv-x="2016" 
d="M864 0h-568v2048h612q288 0 493 -122t314.5 -349.5t108.5 -545.5q-1 -325 -114 -555.5t-327 -353t-519 -122.5zM421 116h438q274 0 462 109.5t284.5 314.5t95.5 491q0 282 -93 483.5t-270.5 309.5t-434.5 108h-482v-1816zM592 2650l269 -298l269 298h126v-10l-354 -390
h-82l-354 390v10h126z" />
    <glyph glyph-name="uni010F" unicode="&#x10f;" horiz-adv-x="1690" 
d="M780 -32q-185 0 -323 102t-213.5 281.5t-75.5 412.5q0 231 76.5 410.5t214.5 282t322 102.5q132 0 229.5 -50.5t164 -133.5t101.5 -182h12v855h121v-2048h-118v335h-15q-37 -99 -103 -182.5t-164 -134t-229 -50.5zM791 81q156 0 267.5 89.5t171 244t59.5 350.5
t-59.5 349.5t-171 242t-267.5 88.5q-158 0 -270.5 -89.5t-172 -243.5t-59.5 -347t59.5 -348t172 -245.5t270.5 -90.5zM1594 1626v518h128l-36 -518h-92z" />
    <glyph glyph-name="uni0110" unicode="&#x110;" horiz-adv-x="2016" 
d="M864 0h-500v116h495q274 0 462 109.5t284.5 314.5t95.5 491q0 282 -93 483.5t-270.5 309.5t-434.5 108h-543v116h548q288 0 493 -122t314.5 -349.5t108.5 -545.5q-1 -325 -114 -555.5t-327 -353t-519 -122.5zM421 2048v-2048h-125v2048h125zM-41 993v104h800v-104h-800z
" />
    <glyph glyph-name="uni0111" unicode="&#x111;" horiz-adv-x="1705" 
d="M780 -32q-185 0 -323 102t-213.5 281.5t-75.5 412.5q0 231 76.5 410.5t214.5 282t322 102.5q132 0 229.5 -50.5t164 -133.5t101.5 -182h12v855h121v-2048h-118v335h-15q-37 -99 -103 -182.5t-164 -134t-229 -50.5zM791 81q156 0 267.5 89.5t171 244t59.5 350.5
t-59.5 349.5t-171 242t-267.5 88.5q-158 0 -270.5 -89.5t-172 -243.5t-59.5 -347t59.5 -348t172 -245.5t270.5 -90.5zM861 1708v104h800v-104h-800z" />
    <glyph glyph-name="uni0112" unicode="&#x112;" horiz-adv-x="1657" 
d="M296 0v2048h1140v-116h-1015v-849h954v-116h-954v-851h1039v-116h-1164zM1239 2469v-109h-739v109h739z" />
    <glyph glyph-name="uni0113" unicode="&#x113;" horiz-adv-x="1629" 
d="M852 -32q-208 0 -362 103t-238 282t-84 408q0 230 84.5 410t232.5 284t338 104q129 0 244.5 -51.5t204 -148.5t139 -234t50.5 -308v-76h-1216v111h1094q0 167 -68 301t-185 213t-263 79q-153 0 -272.5 -85.5t-189 -230.5t-72.5 -324v-50q0 -192 67.5 -344.5t193.5 -241
t302 -88.5q126 0 215.5 42.5t146.5 103.5t86 118l111 -45q-35 -77 -108.5 -153.5t-186 -127.5t-264.5 -51zM1186 1957v-109h-739v109h739z" />
    <glyph glyph-name="uni0114" unicode="&#x114;" horiz-adv-x="1657" 
d="M296 0v2048h1140v-116h-1015v-849h954v-116h-954v-851h1039v-116h-1164zM1041 2560h116q0 -125 -77 -200t-211 -75q-133 0 -210 75t-77 200h116q0 -79 42 -127t129 -48t129.5 48t42.5 127z" />
    <glyph glyph-name="uni0115" unicode="&#x115;" horiz-adv-x="1629" 
d="M852 -32q-208 0 -362 103t-238 282t-84 408q0 230 84.5 410t232.5 284t338 104q129 0 244.5 -51.5t204 -148.5t139 -234t50.5 -308v-76h-1216v111h1094q0 167 -68 301t-185 213t-263 79q-153 0 -272.5 -85.5t-189 -230.5t-72.5 -324v-50q0 -192 67.5 -344.5t193.5 -241
t302 -88.5q126 0 215.5 42.5t146.5 103.5t86 118l111 -45q-35 -77 -108.5 -153.5t-186 -127.5t-264.5 -51zM988 2048h116q0 -125 -77 -200t-211 -75q-133 0 -210 75t-77 200h116q0 -79 42 -127t129 -48t129.5 48t42.5 127z" />
    <glyph glyph-name="uni0116" unicode="&#x116;" horiz-adv-x="1657" 
d="M296 0v2048h1140v-116h-1015v-849h954v-116h-954v-851h1039v-116h-1164zM870 2320q-41 0 -70 28t-29 68t29 68t70 28q40 0 69 -28t29 -68t-29 -68t-69 -28z" />
    <glyph glyph-name="uni0117" unicode="&#x117;" horiz-adv-x="1629" 
d="M852 -32q-208 0 -362 103t-238 282t-84 408q0 230 84.5 410t232.5 284t338 104q129 0 244.5 -51.5t204 -148.5t139 -234t50.5 -308v-76h-1216v111h1094q0 167 -68 301t-185 213t-263 79q-153 0 -272.5 -85.5t-189 -230.5t-72.5 -324v-50q0 -192 67.5 -344.5t193.5 -241
t302 -88.5q126 0 215.5 42.5t146.5 103.5t86 118l111 -45q-35 -77 -108.5 -153.5t-186 -127.5t-264.5 -51zM816 1808q-41 0 -70 28t-29 68t29 68t70 28q40 0 69 -28t29 -68t-29 -68t-69 -28z" />
    <glyph glyph-name="uni0118" unicode="&#x118;" horiz-adv-x="1657" 
d="M296 0v2048h1140v-116h-1015v-849h954v-116h-954v-851h1039v-116h-1164zM1366 -605q-110 0 -181 62t-71 182q0 73 30 139t90 127.5t148 122.5l78 -28q-98 -91 -161 -174.5t-63 -176.5q0 -73 39.5 -109t110.5 -36q44 0 77.5 12.5t64.5 34.5l31 -94q-40 -27 -86.5 -44.5
t-106.5 -17.5z" />
    <glyph glyph-name="uni0119" unicode="&#x119;" horiz-adv-x="1629" 
d="M852 -32q-208 0 -362 103t-238 282t-84 408q0 230 84.5 410t232.5 284t338 104q129 0 244.5 -51.5t204 -148.5t139 -234t50.5 -308v-76h-1216v111h1094q0 167 -68 301t-185 213t-263 79q-153 0 -272.5 -85.5t-189 -230.5t-72.5 -324v-50q0 -192 67.5 -344.5t193.5 -241
t302 -88.5q126 0 215.5 42.5t146.5 103.5t86 118l111 -45q-35 -77 -108.5 -153.5t-186 -127.5t-264.5 -51zM844 -605q-110 0 -181 62t-71 182q0 73 30 139t90 127.5t148 122.5l78 -28q-98 -91 -161 -174.5t-63 -176.5q0 -73 39.5 -109t110.5 -36q44 0 77.5 12.5t64.5 34.5
l31 -94q-40 -27 -86.5 -44.5t-106.5 -17.5z" />
    <glyph glyph-name="uni011A" unicode="&#x11a;" horiz-adv-x="1657" 
d="M296 0v2048h1140v-116h-1015v-849h954v-116h-954v-851h1039v-116h-1164zM600 2650l269 -298l269 298h126v-10l-354 -390h-82l-354 390v10h126z" />
    <glyph glyph-name="uni011B" unicode="&#x11b;" horiz-adv-x="1629" 
d="M852 -32q-208 0 -362 103t-238 282t-84 408q0 230 84.5 410t232.5 284t338 104q129 0 244.5 -51.5t204 -148.5t139 -234t50.5 -308v-76h-1216v111h1094q0 167 -68 301t-185 213t-263 79q-153 0 -272.5 -85.5t-189 -230.5t-72.5 -324v-50q0 -192 67.5 -344.5t193.5 -241
t302 -88.5q126 0 215.5 42.5t146.5 103.5t86 118l111 -45q-35 -77 -108.5 -153.5t-186 -127.5t-264.5 -51zM547 2138l269 -298l269 298h126v-10l-354 -390h-82l-354 390v10h126z" />
    <glyph glyph-name="uni011C" unicode="&#x11c;" horiz-adv-x="2084" 
d="M1731 1408q-23 104 -78 201.5t-140.5 176t-200 124.5t-256.5 46q-217 0 -384.5 -113.5t-262 -323t-94.5 -495.5q0 -283 94 -493t263.5 -324.5t394.5 -114.5q201 0 356.5 93t242.5 266t85 414l44 -21h-696v116h774v-116q0 -271 -103.5 -466.5t-286 -300.5t-416.5 -105
q-264 0 -461 131t-305.5 367.5t-108.5 553.5q0 238 62 432t177 332.5t274 213t351 74.5q174 0 313 -57.5t240.5 -154t164.5 -215t85 -241.5h-128zM1317 2216l-269 299l-269 -299h-126v11l354 389h82l354 -389v-11h-126z" />
    <glyph glyph-name="uni011D" unicode="&#x11d;" horiz-adv-x="1668" 
d="M807 -608q-143 0 -257 37.5t-193.5 106.5t-121.5 164l102 60q34 -74 97 -132t156.5 -91t216.5 -33q222 0 351.5 114.5t129.5 350.5v382h-12q-35 -100 -103.5 -177.5t-167.5 -121.5t-225 -44q-182 0 -320 94t-215 264.5t-77 401.5t75.5 409.5t213.5 280t324 101.5
q133 0 230.5 -50.5t163.5 -133.5t102 -182h14v343h118v-1572q0 -192 -75.5 -319t-211 -190t-315.5 -63zM791 121q154 0 265.5 78.5t172 224t60.5 345.5q0 194 -59 347t-171 241t-268 88q-159 0 -271 -89.5t-171.5 -242.5t-59.5 -344q0 -192 60 -337.5t172 -228t270 -82.5z
M1102 1704l-269 299l-269 -299h-126v11l354 389h82l354 -389v-11h-126z" />
    <glyph glyph-name="uni011E" unicode="&#x11e;" horiz-adv-x="2084" 
d="M1731 1408q-23 104 -78 201.5t-140.5 176t-200 124.5t-256.5 46q-217 0 -384.5 -113.5t-262 -323t-94.5 -495.5q0 -283 94 -493t263.5 -324.5t394.5 -114.5q201 0 356.5 93t242.5 266t85 414l44 -21h-696v116h774v-116q0 -271 -103.5 -466.5t-286 -300.5t-416.5 -105
q-264 0 -461 131t-305.5 367.5t-108.5 553.5q0 238 62 432t177 332.5t274 213t351 74.5q174 0 313 -57.5t240.5 -154t164.5 -215t85 -241.5h-128zM1220 2560h116q0 -125 -77 -200t-211 -75q-133 0 -210 75t-77 200h116q0 -79 42 -127t129 -48t129.5 48t42.5 127z" />
    <glyph glyph-name="uni011F" unicode="&#x11f;" horiz-adv-x="1668" 
d="M807 -608q-143 0 -257 37.5t-193.5 106.5t-121.5 164l102 60q34 -74 97 -132t156.5 -91t216.5 -33q222 0 351.5 114.5t129.5 350.5v382h-12q-35 -100 -103.5 -177.5t-167.5 -121.5t-225 -44q-182 0 -320 94t-215 264.5t-77 401.5t75.5 409.5t213.5 280t324 101.5
q133 0 230.5 -50.5t163.5 -133.5t102 -182h14v343h118v-1572q0 -192 -75.5 -319t-211 -190t-315.5 -63zM791 121q154 0 265.5 78.5t172 224t60.5 345.5q0 194 -59 347t-171 241t-268 88q-159 0 -271 -89.5t-171.5 -242.5t-59.5 -344q0 -192 60 -337.5t172 -228t270 -82.5z
M1005 2048h116q0 -125 -77 -200t-211 -75q-133 0 -210 75t-77 200h116q0 -79 42 -127t129 -48t129.5 48t42.5 127z" />
    <glyph glyph-name="uni0120" unicode="&#x120;" horiz-adv-x="2084" 
d="M1731 1408q-23 104 -78 201.5t-140.5 176t-200 124.5t-256.5 46q-217 0 -384.5 -113.5t-262 -323t-94.5 -495.5q0 -283 94 -493t263.5 -324.5t394.5 -114.5q201 0 356.5 93t242.5 266t85 414l44 -21h-696v116h774v-116q0 -271 -103.5 -466.5t-286 -300.5t-416.5 -105
q-264 0 -461 131t-305.5 367.5t-108.5 553.5q0 238 62 432t177 332.5t274 213t351 74.5q174 0 313 -57.5t240.5 -154t164.5 -215t85 -241.5h-128zM1048 2320q-41 0 -70 28t-29 68t29 68t70 28q40 0 69 -28t29 -68t-29 -68t-69 -28z" />
    <glyph glyph-name="uni0121" unicode="&#x121;" horiz-adv-x="1668" 
d="M807 -608q-143 0 -257 37.5t-193.5 106.5t-121.5 164l102 60q34 -74 97 -132t156.5 -91t216.5 -33q222 0 351.5 114.5t129.5 350.5v382h-12q-35 -100 -103.5 -177.5t-167.5 -121.5t-225 -44q-182 0 -320 94t-215 264.5t-77 401.5t75.5 409.5t213.5 280t324 101.5
q133 0 230.5 -50.5t163.5 -133.5t102 -182h14v343h118v-1572q0 -192 -75.5 -319t-211 -190t-315.5 -63zM791 121q154 0 265.5 78.5t172 224t60.5 345.5q0 194 -59 347t-171 241t-268 88q-159 0 -271 -89.5t-171.5 -242.5t-59.5 -344q0 -192 60 -337.5t172 -228t270 -82.5z
M834 1808q-41 0 -70 28t-29 68t29 68t70 28q40 0 69 -28t29 -68t-29 -68t-69 -28z" />
    <glyph glyph-name="uni0122" unicode="&#x122;" horiz-adv-x="2084" 
d="M1731 1408q-23 104 -78 201.5t-140.5 176t-200 124.5t-256.5 46q-217 0 -384.5 -113.5t-262 -323t-94.5 -495.5q0 -283 94 -493t263.5 -324.5t394.5 -114.5q201 0 356.5 93t242.5 266t85 414l44 -21h-696v116h774v-116q0 -271 -103.5 -466.5t-286 -300.5t-416.5 -105
q-264 0 -461 131t-305.5 367.5t-108.5 553.5q0 238 62 432t177 332.5t274 213t351 74.5q174 0 313 -57.5t240.5 -154t164.5 -215t85 -241.5h-128zM856 -680l125 518h127l-156 -518h-96z" />
    <glyph glyph-name="uni0123" unicode="&#x123;" horiz-adv-x="1668" 
d="M807 -608q-143 0 -257 37.5t-193.5 106.5t-121.5 164l102 60q34 -74 97 -132t156.5 -91t216.5 -33q222 0 351.5 114.5t129.5 350.5v382h-12q-35 -100 -103.5 -177.5t-167.5 -121.5t-225 -44q-182 0 -320 94t-215 264.5t-77 401.5t75.5 409.5t213.5 280t324 101.5
q133 0 230.5 -50.5t163.5 -133.5t102 -182h14v343h118v-1572q0 -192 -75.5 -319t-211 -190t-315.5 -63zM791 121q154 0 265.5 78.5t172 224t60.5 345.5q0 194 -59 347t-171 241t-268 88q-159 0 -271 -89.5t-171.5 -242.5t-59.5 -344q0 -192 60 -337.5t172 -228t270 -82.5z
M761 1732v93q0 91 20.5 166t63.5 141t108 132l71 -68q-75 -101 -101.5 -183t-26.5 -197v-84h-135z" />
    <glyph glyph-name="uni0124" unicode="&#x124;" horiz-adv-x="2076" 
d="M296 0v2048h125v-965h1234v965h125v-2048h-125v967h-1234v-967h-125zM1310 2217l-269 299l-269 -299h-126v11l354 389h82l354 -389v-11h-126z" />
    <glyph glyph-name="uni0125" unicode="&#x125;" horiz-adv-x="1621" 
d="M375 996v-996h-122v2048h122v-755h12q54 120 172.5 191.5t284.5 71.5q155 0 273 -65.5t184.5 -187t66.5 -290.5v-1013h-121v1008q0 197 -117 316t-309 119q-129 0 -230 -56t-158.5 -156.5t-57.5 -234.5zM584 2216l-269 299l-269 -299h-126v11l354 389h82l354 -389v-11
h-126z" />
    <glyph glyph-name="uni0126" unicode="&#x126;" horiz-adv-x="2125" 
d="M1967 1528v-112h-1807v112h1807zM324 0v2048h125v-965h1234v965h125v-2048h-125v967h-1234v-967h-125z" />
    <glyph glyph-name="uni0127" unicode="&#x127;" horiz-adv-x="1621" 
d="M375 996v-996h-122v2048h122v-755h12q54 120 172.5 191.5t284.5 71.5q155 0 273 -65.5t184.5 -187t66.5 -290.5v-1013h-121v1008q0 197 -117 316t-309 119q-129 0 -230 -56t-158.5 -156.5t-57.5 -234.5zM-85 1759v104h800v-104h-800z" />
    <glyph glyph-name="uni0128" unicode="&#x128;" horiz-adv-x="1072" 
d="M598 2048v-2048h-125v2048h125zM170 2288l-104 8q9 114 87.5 185.5t189.5 71.5q65 0 113 -23t89 -52.5t83.5 -53t97.5 -23.5q64 0 116 43.5t62 111.5l103 -16q-15 -113 -94.5 -181t-182.5 -68q-66 0 -111.5 23t-84.5 52.5t-82 53t-105 23.5q-71 0 -121 -44.5t-56 -110.5z
" />
    <glyph glyph-name="uni0129" unicode="&#x129;" horiz-adv-x="677" 
d="M279 0v1536h121v-1536h-121zM-26 1776l-104 8q9 114 87.5 185.5t189.5 71.5q65 0 113 -23t89 -52.5t83.5 -53t97.5 -23.5q64 0 116 43.5t62 111.5l103 -16q-15 -113 -94.5 -181t-182.5 -68q-66 0 -111.5 23t-84.5 52.5t-82 53t-105 23.5q-71 0 -121 -44.5t-56 -110.5z
" />
    <glyph glyph-name="uni012A" unicode="&#x12a;" horiz-adv-x="717" 
d="M421 2048v-2048h-125v2048h125zM728 2469v-109h-739v109h739z" />
    <glyph glyph-name="uni012B" unicode="&#x12b;" horiz-adv-x="639" 
d="M259 0v1536h121v-1536h-121zM690 1957v-109h-739v109h739z" />
    <glyph glyph-name="uni012C" unicode="&#x12c;" horiz-adv-x="717" 
d="M421 2048v-2048h-125v2048h125zM531 2560h116q0 -125 -77 -200t-211 -75q-133 0 -210 75t-77 200h116q0 -79 42 -127t129 -48t129.5 48t42.5 127z" />
    <glyph glyph-name="uni012D" unicode="&#x12d;" horiz-adv-x="639" 
d="M259 0v1536h121v-1536h-121zM492 2048h116q0 -125 -77 -200t-211 -75q-133 0 -210 75t-77 200h116q0 -79 42 -127t129 -48t129.5 48t42.5 127z" />
    <glyph glyph-name="uni012E" unicode="&#x12e;" horiz-adv-x="717" 
d="M421 2048v-2048h-125v2048h125zM327 -605q-110 0 -181 62t-71 182q0 73 30 139t90 127.5t148 122.5l78 -28q-98 -91 -161 -174.5t-63 -176.5q0 -73 39.5 -109t110.5 -36q44 0 77.5 12.5t64.5 34.5l31 -94q-40 -27 -86.5 -44.5t-106.5 -17.5z" />
    <glyph glyph-name="uni012F" unicode="&#x12f;" horiz-adv-x="591" 
d="M272 0v1536h121v-1536h-121zM298 -605q-109 0 -180.5 62t-71.5 182q0 73 30.5 139t90.5 127.5t147 122.5l79 -28q-99 -91 -161.5 -174.5t-62.5 -176.5q0 -73 39.5 -109t109.5 -36q45 0 78.5 12.5t64.5 34.5l31 -94q-40 -27 -87 -44.5t-107 -17.5zM299 1808q-41 0 -70 28
t-29 68t29 68t70 28q40 0 69 -28t29 -68t-29 -68t-69 -28z" />
    <glyph glyph-name="uni0130" unicode="&#x130;" horiz-adv-x="717" 
d="M421 2048v-2048h-125v2048h125zM359 2320q-41 0 -70 28t-29 68t29 68t70 28q40 0 69 -28t29 -68t-29 -68t-69 -28z" />
    <glyph glyph-name="uni0131" unicode="&#x131;" horiz-adv-x="639" 
d="M259 0v1536h121v-1536h-121z" />
    <glyph glyph-name="uni0132" unicode="&#x132;" horiz-adv-x="2203" 
d="M421 2048v-2048h-125v2048h125zM1781 2048h125v-1491q0 -204 -70.5 -333t-189 -190.5t-265.5 -61.5q-150 0 -268.5 56.5t-187.5 156.5t-68 231h124q-1 -96 51.5 -169.5t143.5 -116t205 -42.5q110 0 201 47t144.5 150t54.5 272v1491z" />
    <glyph glyph-name="uni0133" unicode="&#x133;" horiz-adv-x="1277" 
d="M259 0v1536h121v-1536h-121zM320 1808q-40 0 -69.5 28t-29.5 68t29 68t70 28q40 0 69.5 -28t29.5 -68t-29 -68t-70 -28zM898 1536h121v-1723q0 -119 -49 -206.5t-134.5 -135t-197.5 -47.5q-8 0 -17 0.5t-21 2.5l6 113h15h15q112 0 187 72.5t75 200.5v1723zM958 1808
q-41 0 -70 28t-29 68t29 68t70 28q40 0 69 -28t29 -68t-29 -68t-69 -28z" />
    <glyph glyph-name="uni0134" unicode="&#x134;" horiz-adv-x="1485" 
d="M1064 2048h125v-1491q0 -204 -70.5 -333t-189 -190.5t-265.5 -61.5q-150 0 -268.5 56.5t-187.5 156.5t-68 231h124q-1 -96 51.5 -169.5t143.5 -116t205 -42.5q110 0 201 47t144.5 150t54.5 272v1491zM1396 2216l-269 299l-269 -299h-126v11l354 389h82l354 -389v-11h-126
z" />
    <glyph glyph-name="uni0135" unicode="&#x135;" horiz-adv-x="639" 
d="M259 1536h121v-1723q0 -119 -49 -206.5t-134.5 -135t-197.5 -47.5q-8 0 -17 0.5t-21 2.5l6 113h15h15q112 0 187 72.5t75 200.5v1723zM588 1704l-269 299l-269 -299h-126v11l354 389h82l354 -389v-11h-126z" />
    <glyph glyph-name="uni0136" unicode="&#x136;" horiz-adv-x="1769" 
d="M296 0v2048h125v-1189h14l1080 1189h166l-889 -969l881 -1079h-156l-805 989l-291 -322v-667h-125zM697 -680l125 518h127l-156 -518h-96z" />
    <glyph glyph-name="uni0137" unicode="&#x137;" horiz-adv-x="1425" 
d="M359 600l-2 175h32l768 761h159l-705 -700l-12 -5zM253 0v2048h122v-2048h-122zM1192 0l-648 819l88 81l716 -900h-156zM566 -680l125 518h127l-156 -518h-96z" />
    <glyph glyph-name="uni0138" unicode="&#x138;" horiz-adv-x="1645" 
d="M388 1536v-1536h-135v1536h135zM1373 1536l-774 -822l-268 1l-15 122h223l664 699h170zM1201 0l-709 728l108 76l779 -804h-178z" />
    <glyph glyph-name="uni0139" unicode="&#x139;" horiz-adv-x="1584" 
d="M296 0v2048h125v-1932h1000v-116h-1125zM300 2267l268 442h145l-301 -442h-112z" />
    <glyph glyph-name="uni013A" unicode="&#x13a;" horiz-adv-x="628" 
d="M375 2048v-2048h-122v2048h122zM255 2267l268 442h145l-301 -442h-112z" />
    <glyph glyph-name="uni013B" unicode="&#x13b;" horiz-adv-x="1584" 
d="M296 0v2048h125v-1932h1000v-116h-1125zM668 -680l125 518h127l-156 -518h-96z" />
    <glyph glyph-name="uni013C" unicode="&#x13c;" horiz-adv-x="628" 
d="M375 2048v-2048h-122v2048h122zM123 -680l125 518h127l-156 -518h-96z" />
    <glyph glyph-name="uni013D" unicode="&#x13d;" horiz-adv-x="1575" 
d="M296 0v2048h125v-1932h1000v-116h-1125zM826 1626v518h128l-36 -518h-92z" />
    <glyph glyph-name="uni013E" unicode="&#x13e;" horiz-adv-x="691" 
d="M375 2048v-2048h-122v2048h122zM565 1626v518h128l-36 -518h-92z" />
    <glyph glyph-name="uni013F" unicode="&#x13f;" horiz-adv-x="1552" 
d="M291 0v2048h125v-1932h1000v-116h-1125zM927 980q-41 0 -70 28t-29 68t29 68t70 28q40 0 69 -28t29 -68t-29 -68t-69 -28z" />
    <glyph glyph-name="uni0140" unicode="&#x140;" horiz-adv-x="707" 
d="M367 2048v-2048h-122v2048h122zM602 1011q-41 0 -70 28t-29 68t29 68t70 28q40 0 69 -28t29 -68t-29 -68t-69 -28z" />
    <glyph glyph-name="uni0141" unicode="&#x141;" horiz-adv-x="1541" 
d="M755 1216v-104l-735 -256v107zM237 0v2048h126v-1932h1000v-116h-1126z" />
    <glyph glyph-name="uni0142" unicode="&#x142;" horiz-adv-x="593" 
d="M591 1229v-105l-588 -253v105zM356 2048v-2048h-121v2048h121z" />
    <glyph glyph-name="uni0143" unicode="&#x143;" horiz-adv-x="2157" 
d="M1861 2048v-2048h-122l-1306 1821h-12v-1821h-125v2048h123l1306 -1823h12v1823h124zM1020 2267l268 442h145l-301 -442h-112z" />
    <glyph glyph-name="uni0144" unicode="&#x144;" horiz-adv-x="1616" 
d="M375 996v-996h-122v1536h119v-243h12q54 119 173 191t283 72q155 0 272.5 -66t184 -187.5t66.5 -289.5v-1013h-122v1008q0 196 -116.5 315.5t-307.5 119.5q-128 0 -228 -56t-157 -156.5t-57 -234.5zM752 1755l268 442h145l-301 -442h-112z" />
    <glyph glyph-name="uni0145" unicode="&#x145;" horiz-adv-x="2157" 
d="M1861 2048v-2048h-122l-1306 1821h-12v-1821h-125v2048h123l1306 -1823h12v1823h124zM888 -680l125 518h127l-156 -518h-96z" />
    <glyph glyph-name="uni0146" unicode="&#x146;" horiz-adv-x="1616" 
d="M375 996v-996h-122v1536h119v-243h12q54 119 173 191t283 72q155 0 272.5 -66t184 -187.5t66.5 -289.5v-1013h-122v1008q0 196 -116.5 315.5t-307.5 119.5q-128 0 -228 -56t-157 -156.5t-57 -234.5zM617 -680l125 518h127l-156 -518h-96z" />
    <glyph glyph-name="uni0147" unicode="&#x147;" horiz-adv-x="2157" 
d="M1861 2048v-2048h-122l-1306 1821h-12v-1821h-125v2048h123l1306 -1823h12v1823h124zM810 2650l269 -298l269 298h126v-10l-354 -390h-82l-354 390v10h126z" />
    <glyph glyph-name="uni0148" unicode="&#x148;" horiz-adv-x="1616" 
d="M375 996v-996h-122v1536h119v-243h12q54 119 173 191t283 72q155 0 272.5 -66t184 -187.5t66.5 -289.5v-1013h-122v1008q0 196 -116.5 315.5t-307.5 119.5q-128 0 -228 -56t-157 -156.5t-57 -234.5zM542 2138l269 -298l269 298h126v-10l-354 -390h-82l-354 390v10h126z
" />
    <glyph glyph-name="uni014A" unicode="&#x14a;" horiz-adv-x="2157" 
d="M1739 0h122v-209q0 -118 -39.5 -199t-110.5 -123t-167 -42q-27 0 -53 1.5t-44 7.5v111q14 -4 32.5 -6t40.5 -2q104 0 161.5 60t57.5 193v208zM1861 2048v-2048h-122l-1306 1821h-12v-1821h-125v2048h123l1306 -1823h12v1823h124z" />
    <glyph glyph-name="uni014B" unicode="&#x14b;" horiz-adv-x="1561" 
d="M1241 0h122v-212q0 -118 -39.5 -199t-110 -123t-165.5 -42q-32 0 -61.5 3.5t-50.5 12.5v105q18 -3 41 -6.5t48 -3.5q102 0 159 59.5t57 193.5v212zM375 996v-996h-122v1536h119v-243h12q54 119 173 191t283 72q155 0 272.5 -66t184 -187.5t66.5 -289.5v-1013h-122v1008
q0 196 -116.5 315.5t-307.5 119.5q-128 0 -228 -56t-157 -156.5t-57 -234.5z" />
    <glyph glyph-name="uni014C" unicode="&#x14c;" horiz-adv-x="2117" 
d="M1925 1024q0 -317 -110 -553.5t-305.5 -367.5t-450.5 -131q-256 0 -451.5 131.5t-305.5 368t-110 552.5q0 317 110.5 553t305.5 367.5t451 131.5q255 0 450.5 -131t305.5 -367.5t110 -553.5zM1803 1024q0 285 -95.5 494t-263.5 323.5t-385 114.5t-385 -113.5t-263.5 -323
t-95.5 -495.5q0 -283 94.5 -492.5t262.5 -324.5t387 -115q217 0 385 114.5t263.5 323.5t95.5 494zM1428 2469v-109h-739v109h739z" />
    <glyph glyph-name="uni014D" unicode="&#x14d;" horiz-adv-x="1648" 
d="M824 -32q-190 0 -338 102.5t-233 282.5t-85 410q0 231 85 410.5t233 282.5t338 103t338 -103t233 -283t85 -410t-85 -410t-233 -282.5t-338 -102.5zM824 81q161 0 281.5 91t187 246t66.5 345t-67 344.5t-187 246t-281 91.5t-281 -91.5t-187 -246t-67 -344.5t66.5 -345
t187 -246t281.5 -91zM1194 1957v-109h-739v109h739z" />
    <glyph glyph-name="uni014E" unicode="&#x14e;" horiz-adv-x="2117" 
d="M1925 1024q0 -317 -110 -553.5t-305.5 -367.5t-450.5 -131q-256 0 -451.5 131.5t-305.5 368t-110 552.5q0 317 110.5 553t305.5 367.5t451 131.5q255 0 450.5 -131t305.5 -367.5t110 -553.5zM1803 1024q0 285 -95.5 494t-263.5 323.5t-385 114.5t-385 -113.5t-263.5 -323
t-95.5 -495.5q0 -283 94.5 -492.5t262.5 -324.5t387 -115q217 0 385 114.5t263.5 323.5t95.5 494zM1231 2560h116q0 -125 -77 -200t-211 -75q-133 0 -210 75t-77 200h116q0 -79 42 -127t129 -48t129.5 48t42.5 127z" />
    <glyph glyph-name="uni014F" unicode="&#x14f;" horiz-adv-x="1648" 
d="M824 -32q-190 0 -338 102.5t-233 282.5t-85 410q0 231 85 410.5t233 282.5t338 103t338 -103t233 -283t85 -410t-85 -410t-233 -282.5t-338 -102.5zM824 81q161 0 281.5 91t187 246t66.5 345t-67 344.5t-187 246t-281 91.5t-281 -91.5t-187 -246t-67 -344.5t66.5 -345
t187 -246t281.5 -91zM996 2048h116q0 -125 -77 -200t-211 -75q-133 0 -210 75t-77 200h116q0 -79 42 -127t129 -48t129.5 48t42.5 127z" />
    <glyph glyph-name="uni0150" unicode="&#x150;" horiz-adv-x="2117" 
d="M1925 1024q0 -317 -110 -553.5t-305.5 -367.5t-450.5 -131q-256 0 -451.5 131.5t-305.5 368t-110 552.5q0 317 110.5 553t305.5 367.5t451 131.5q255 0 450.5 -131t305.5 -367.5t110 -553.5zM1803 1024q0 285 -95.5 494t-263.5 323.5t-385 114.5t-385 -113.5t-263.5 -323
t-95.5 -495.5q0 -283 94.5 -492.5t262.5 -324.5t387 -115q217 0 385 114.5t263.5 323.5t95.5 494zM1112 2211l343 429h141l-372 -429h-112zM779 2211l261 429h140l-296 -429h-105z" />
    <glyph glyph-name="uni0151" unicode="&#x151;" horiz-adv-x="1648" 
d="M824 -32q-190 0 -338 102.5t-233 282.5t-85 410q0 231 85 410.5t233 282.5t338 103t338 -103t233 -283t85 -410t-85 -410t-233 -282.5t-338 -102.5zM824 81q161 0 281.5 91t187 246t66.5 345t-67 344.5t-187 246t-281 91.5t-281 -91.5t-187 -246t-67 -344.5t66.5 -345
t187 -246t281.5 -91zM877 1699l343 429h141l-372 -429h-112zM544 1699l261 429h140l-296 -429h-105z" />
    <glyph glyph-name="uni0152" unicode="&#x152;" horiz-adv-x="2625" 
d="M1059 0q-259 0 -454 129t-304 359.5t-109 535.5q0 306 109 536.5t304.5 359t453.5 128.5h1345v-116h-1015v-849h954v-116h-954v-851h1039v-116h-1369zM1264 116v1816h-205q-221 1 -388.5 -112.5t-261.5 -318t-94 -477.5q0 -269 93 -474t260.5 -319.5t390.5 -114.5h205z
" />
    <glyph glyph-name="uni0153" unicode="&#x153;" horiz-adv-x="2813" 
d="M821 -32q-190 0 -338 102.5t-233 282.5t-85 410q0 231 85 410.5t233 282.5t338 103t338 -103t233 -283t85 -410t-85 -410t-233 -282.5t-338 -102.5zM821 81q161 0 281.5 91t187 246t66.5 345t-67 344.5t-187 246t-281 91.5t-281 -91.5t-187 -246t-67 -344.5t66.5 -345
t187 -246t281.5 -91zM2043 -32q-208 0 -362 103t-238 282t-84 408q0 230 84.5 410t232.5 284t338 104q129 0 244.5 -51.5t204 -148.5t139 -234t50.5 -308v-76h-1216v111h1094q0 167 -68 301t-185 213t-263 79q-153 0 -272.5 -85.5t-189 -230.5t-72.5 -324v-50
q0 -192 67.5 -344.5t193.5 -241t302 -88.5q126 0 215.5 42.5t146.5 103.5t86 118l111 -45q-35 -77 -108.5 -153.5t-186 -127.5t-264.5 -51z" />
    <glyph glyph-name="uni0154" unicode="&#x154;" horiz-adv-x="1755" 
d="M296 0v2048h631q194 0 334 -76t215 -210.5t75 -312.5q0 -176 -75 -309.5t-214.5 -208.5t-333.5 -75h-565v117h562q158 0 270 59t172 165.5t60 251.5q0 146 -60 254.5t-172.5 168.5t-270.5 60h-503v-1932h-125zM1137 928l504 -928h-144l-501 928h141zM811 2267l268 442
h145l-301 -442h-112z" />
    <glyph glyph-name="uni0155" unicode="&#x155;" horiz-adv-x="960" 
d="M253 0v1536h119v-240h11q50 118 169 189.5t271 71.5h32t30 -1v-123q-12 1 -28.5 3.5t-40.5 2.5q-128 0 -227.5 -55t-156.5 -151.5t-57 -220.5v-1012h-122zM527 1755l268 442h145l-301 -442h-112z" />
    <glyph glyph-name="uni0156" unicode="&#x156;" horiz-adv-x="1755" 
d="M296 0v2048h631q194 0 334 -76t215 -210.5t75 -312.5q0 -176 -75 -309.5t-214.5 -208.5t-333.5 -75h-565v117h562q158 0 270 59t172 165.5t60 251.5q0 146 -60 254.5t-172.5 168.5t-270.5 60h-503v-1932h-125zM1137 928l504 -928h-144l-501 928h141zM709 -680l125 518
h127l-156 -518h-96z" />
    <glyph glyph-name="uni0157" unicode="&#x157;" horiz-adv-x="960" 
d="M253 0v1536h119v-240h11q50 118 169 189.5t271 71.5h32t30 -1v-123q-12 1 -28.5 3.5t-40.5 2.5q-128 0 -227.5 -55t-156.5 -151.5t-57 -220.5v-1012h-122zM122 -680l125 518h127l-156 -518h-96z" />
    <glyph glyph-name="uni0158" unicode="&#x158;" horiz-adv-x="1755" 
d="M296 0v2048h631q194 0 334 -76t215 -210.5t75 -312.5q0 -176 -75 -309.5t-214.5 -208.5t-333.5 -75h-565v117h562q158 0 270 59t172 165.5t60 251.5q0 146 -60 254.5t-172.5 168.5t-270.5 60h-503v-1932h-125zM1137 928l504 -928h-144l-501 928h141zM600 2650l269 -298
l269 298h126v-10l-354 -390h-82l-354 390v10h126z" />
    <glyph glyph-name="uni0159" unicode="&#x159;" horiz-adv-x="960" 
d="M253 0v1536h119v-240h11q50 118 169 189.5t271 71.5h32t30 -1v-123q-12 1 -28.5 3.5t-40.5 2.5q-128 0 -227.5 -55t-156.5 -151.5t-57 -220.5v-1012h-122zM316 2138l269 -298l269 298h126v-10l-354 -390h-82l-354 390v10h126z" />
    <glyph glyph-name="uni015A" unicode="&#x15a;" horiz-adv-x="1748" 
d="M1400 1536q-16 191 -155.5 309t-360.5 118q-149 0 -265 -55t-182 -150t-66 -218q0 -79 30.5 -142.5t86.5 -113t133 -86.5t170 -65l224 -66q115 -35 212.5 -81t170 -109.5t113 -148.5t40.5 -196q0 -162 -83.5 -290t-237 -201.5t-361.5 -73.5q-198 0 -344.5 67
t-231.5 186.5t-96 275.5h128q10 -127 81.5 -219.5t190.5 -142.5t272 -50q165 0 291 56.5t197 157.5t71 235q0 108 -51 185t-150.5 133t-246.5 100l-239 72q-240 73 -366.5 199t-126.5 314q0 158 84 280.5t228.5 192.5t326.5 70q183 0 323 -70.5t222 -193t91 -279.5h-123z
M816 2267l268 442h145l-301 -442h-112z" />
    <glyph glyph-name="uni015B" unicode="&#x15b;" horiz-adv-x="1416" 
d="M1229 1205l-113 -30q-27 84 -77 145t-125.5 94.5t-180.5 33.5q-169 0 -276.5 -84t-107.5 -219q0 -110 73 -181.5t223 -108.5l236 -59q182 -45 274 -145.5t92 -249.5q0 -127 -69 -225t-190.5 -153t-282.5 -55q-215 0 -353 100.5t-177 288.5l117 30q33 -150 137.5 -228.5
t274.5 -78.5q188 0 303.5 89t115.5 228q0 106 -68 179t-206 107l-245 60q-188 46 -282 147.5t-94 250.5q0 124 65 218t179 147t261 53q195 0 318 -92t178 -262zM669 1755l268 442h145l-301 -442h-112z" />
    <glyph glyph-name="uni015C" unicode="&#x15c;" horiz-adv-x="1748" 
d="M1400 1536q-16 191 -155.5 309t-360.5 118q-149 0 -265 -55t-182 -150t-66 -218q0 -79 30.5 -142.5t86.5 -113t133 -86.5t170 -65l224 -66q115 -35 212.5 -81t170 -109.5t113 -148.5t40.5 -196q0 -162 -83.5 -290t-237 -201.5t-361.5 -73.5q-198 0 -344.5 67
t-231.5 186.5t-96 275.5h128q10 -127 81.5 -219.5t190.5 -142.5t272 -50q165 0 291 56.5t197 157.5t71 235q0 108 -51 185t-150.5 133t-246.5 100l-239 72q-240 73 -366.5 199t-126.5 314q0 158 84 280.5t228.5 192.5t326.5 70q183 0 323 -70.5t222 -193t91 -279.5h-123z
M1144 2216l-269 299l-269 -299h-126v11l354 389h82l354 -389v-11h-126z" />
    <glyph glyph-name="uni015D" unicode="&#x15d;" horiz-adv-x="1416" 
d="M1229 1205l-113 -30q-27 84 -77 145t-125.5 94.5t-180.5 33.5q-169 0 -276.5 -84t-107.5 -219q0 -110 73 -181.5t223 -108.5l236 -59q182 -45 274 -145.5t92 -249.5q0 -127 -69 -225t-190.5 -153t-282.5 -55q-215 0 -353 100.5t-177 288.5l117 30q33 -150 137.5 -228.5
t274.5 -78.5q188 0 303.5 89t115.5 228q0 106 -68 179t-206 107l-245 60q-188 46 -282 147.5t-94 250.5q0 124 65 218t179 147t261 53q195 0 318 -92t178 -262zM997 1704l-269 299l-269 -299h-126v11l354 389h82l354 -389v-11h-126z" />
    <glyph glyph-name="uni015E" unicode="&#x15e;" horiz-adv-x="1748" 
d="M1400 1536q-16 191 -155.5 309t-360.5 118q-149 0 -265 -55t-182 -150t-66 -218q0 -79 30.5 -142.5t86.5 -113t133 -86.5t170 -65l224 -66q115 -35 212.5 -81t170 -109.5t113 -148.5t40.5 -196q0 -162 -83.5 -290t-237 -201.5t-361.5 -73.5q-198 0 -344.5 67
t-231.5 186.5t-96 275.5h128q10 -127 81.5 -219.5t190.5 -142.5t272 -50q165 0 291 56.5t197 157.5t71 235q0 108 -51 185t-150.5 133t-246.5 100l-239 72q-240 73 -366.5 199t-126.5 314q0 158 84 280.5t228.5 192.5t326.5 70q183 0 323 -70.5t222 -193t91 -279.5h-123z
M820 8h108l-15 -80q94 -15 151 -73.5t57 -159.5q0 -114 -81.5 -175t-238.5 -64l-4 95q106 2 158 35.5t53 105.5q-1 80 -55 118t-165 39z" />
    <glyph glyph-name="uni015F" unicode="&#x15f;" horiz-adv-x="1416" 
d="M1229 1205l-113 -30q-27 84 -77 145t-125.5 94.5t-180.5 33.5q-169 0 -276.5 -84t-107.5 -219q0 -110 73 -181.5t223 -108.5l236 -59q182 -45 274 -145.5t92 -249.5q0 -127 -69 -225t-190.5 -153t-282.5 -55q-215 0 -353 100.5t-177 288.5l117 30q33 -150 137.5 -228.5
t274.5 -78.5q188 0 303.5 89t115.5 228q0 106 -68 179t-206 107l-245 60q-188 46 -282 147.5t-94 250.5q0 124 65 218t179 147t261 53q195 0 318 -92t178 -262zM663 8h108l-15 -80q94 -15 151 -73.5t57 -159.5q0 -114 -81.5 -175t-238.5 -64l-4 95q106 2 158 35.5t53 105.5
q-1 80 -55 118t-165 39z" />
    <glyph glyph-name="uni0160" unicode="&#x160;" horiz-adv-x="1748" 
d="M1400 1536q-16 191 -155.5 309t-360.5 118q-149 0 -265 -55t-182 -150t-66 -218q0 -79 30.5 -142.5t86.5 -113t133 -86.5t170 -65l224 -66q115 -35 212.5 -81t170 -109.5t113 -148.5t40.5 -196q0 -162 -83.5 -290t-237 -201.5t-361.5 -73.5q-198 0 -344.5 67
t-231.5 186.5t-96 275.5h128q10 -127 81.5 -219.5t190.5 -142.5t272 -50q165 0 291 56.5t197 157.5t71 235q0 108 -51 185t-150.5 133t-246.5 100l-239 72q-240 73 -366.5 199t-126.5 314q0 158 84 280.5t228.5 192.5t326.5 70q183 0 323 -70.5t222 -193t91 -279.5h-123z
M606 2650l269 -298l269 298h126v-10l-354 -390h-82l-354 390v10h126z" />
    <glyph glyph-name="uni0161" unicode="&#x161;" horiz-adv-x="1416" 
d="M1229 1205l-113 -30q-27 84 -77 145t-125.5 94.5t-180.5 33.5q-169 0 -276.5 -84t-107.5 -219q0 -110 73 -181.5t223 -108.5l236 -59q182 -45 274 -145.5t92 -249.5q0 -127 -69 -225t-190.5 -153t-282.5 -55q-215 0 -353 100.5t-177 288.5l117 30q33 -150 137.5 -228.5
t274.5 -78.5q188 0 303.5 89t115.5 228q0 106 -68 179t-206 107l-245 60q-188 46 -282 147.5t-94 250.5q0 124 65 218t179 147t261 53q195 0 318 -92t178 -262zM459 2138l269 -298l269 298h126v-10l-354 -390h-82l-354 390v10h126z" />
    <glyph glyph-name="uni0162" unicode="&#x162;" horiz-adv-x="1755" 
d="M160 1932v116h1435v-116h-655v-1932h-125v1932h-655zM832 3h108l-15 -80q94 -15 151 -73.5t57 -159.5q0 -114 -81.5 -175t-238.5 -64l-4 95q106 2 158 35.5t53 105.5q-1 80 -55 118t-165 39z" />
    <glyph glyph-name="uni0163" unicode="&#x163;" horiz-adv-x="995" 
d="M796 1536v-109h-671v109h671zM352 1904h121v-1541q0 -94 36.5 -153.5t96 -88t127.5 -28.5q33 0 57.5 5t46.5 13l30 -111q-28 -10 -62 -17.5t-80 -7.5q-96 0 -181.5 43t-138.5 125t-53 198v1563zM595 8h108l-15 -80q94 -15 151 -73.5t57 -159.5q0 -114 -81.5 -175
t-238.5 -64l-4 95q106 2 158 35.5t53 105.5q-1 80 -55 118t-165 39z" />
    <glyph glyph-name="uni0164" unicode="&#x164;" horiz-adv-x="1755" 
d="M160 1932v116h1435v-116h-655v-1932h-125v1932h-655zM608 2650l269 -298l269 298h126v-10l-354 -390h-82l-354 390v10h126z" />
    <glyph glyph-name="uni0165" unicode="&#x165;" horiz-adv-x="995" 
d="M796 1536v-109h-671v109h671zM352 1904h121v-1541q0 -94 36.5 -153.5t96 -88t127.5 -28.5q33 0 57.5 5t46.5 13l30 -111q-28 -10 -62 -17.5t-80 -7.5q-96 0 -181.5 43t-138.5 125t-53 198v1563zM659 1726v518h128l-36 -518h-92z" />
    <glyph glyph-name="uni0166" unicode="&#x166;" horiz-adv-x="1755" 
d="M160 1932v116h1435v-116h-655v-1932h-125v1932h-655zM477 1004v104h800v-104h-800z" />
    <glyph glyph-name="uni0167" unicode="&#x167;" horiz-adv-x="995" 
d="M107 921v104h708v-104h-708zM796 1536v-109h-671v109h671zM352 1904h121v-1541q0 -94 36.5 -153.5t96 -88t127.5 -28.5q33 0 57.5 5t46.5 13l30 -111q-28 -10 -62 -17.5t-80 -7.5q-96 0 -181.5 43t-138.5 125t-53 198v1563z" />
    <glyph glyph-name="uni0168" unicode="&#x168;" horiz-adv-x="2104" 
d="M1683 2048h125v-1356q0 -209 -97 -372.5t-267.5 -258t-391.5 -94.5q-220 0 -391 94.5t-268.5 258.5t-96.5 372v1356h125v-1349q0 -177 80.5 -315t222.5 -217.5t328 -79.5t328 79.5t222.5 217.5t80.5 315v1349zM686 2288l-104 8q9 114 87.5 185.5t189.5 71.5q65 0 113 -23
t89 -52.5t83.5 -53t97.5 -23.5q64 0 116 43.5t62 111.5l103 -16q-15 -113 -94.5 -181t-182.5 -68q-66 0 -111.5 23t-84.5 52.5t-82 53t-105 23.5q-71 0 -121 -44.5t-56 -110.5z" />
    <glyph glyph-name="uni0169" unicode="&#x169;" horiz-adv-x="1612" 
d="M1237 545v991h122v-1536h-122v249h-10q-54 -119 -174.5 -194t-284.5 -75q-151 0 -267 66t-182 187.5t-66 289.5v1013h122v-1008q0 -192 116.5 -310.5t301.5 -118.5q120 0 221 54t162 154.5t61 237.5zM440 1776l-104 8q9 114 87.5 185.5t189.5 71.5q65 0 113 -23t89 -52.5
t83.5 -53t97.5 -23.5q64 0 116 43.5t62 111.5l103 -16q-15 -113 -94.5 -181t-182.5 -68q-66 0 -111.5 23t-84.5 52.5t-82 53t-105 23.5q-71 0 -121 -44.5t-56 -110.5z" />
    <glyph glyph-name="uni016A" unicode="&#x16a;" horiz-adv-x="2104" 
d="M1683 2048h125v-1356q0 -209 -97 -372.5t-267.5 -258t-391.5 -94.5q-220 0 -391 94.5t-268.5 258.5t-96.5 372v1356h125v-1349q0 -177 80.5 -315t222.5 -217.5t328 -79.5t328 79.5t222.5 217.5t80.5 315v1349zM1422 2469v-109h-739v109h739z" />
    <glyph glyph-name="uni016B" unicode="&#x16b;" horiz-adv-x="1612" 
d="M1237 545v991h122v-1536h-122v249h-10q-54 -119 -174.5 -194t-284.5 -75q-151 0 -267 66t-182 187.5t-66 289.5v1013h122v-1008q0 -192 116.5 -310.5t301.5 -118.5q120 0 221 54t162 154.5t61 237.5zM1176 1957v-109h-739v109h739z" />
    <glyph glyph-name="uni016C" unicode="&#x16c;" horiz-adv-x="2104" 
d="M1683 2048h125v-1356q0 -209 -97 -372.5t-267.5 -258t-391.5 -94.5q-220 0 -391 94.5t-268.5 258.5t-96.5 372v1356h125v-1349q0 -177 80.5 -315t222.5 -217.5t328 -79.5t328 79.5t222.5 217.5t80.5 315v1349zM1224 2560h116q0 -125 -77 -200t-211 -75q-133 0 -210 75
t-77 200h116q0 -79 42 -127t129 -48t129.5 48t42.5 127z" />
    <glyph glyph-name="uni016D" unicode="&#x16d;" horiz-adv-x="1612" 
d="M1237 545v991h122v-1536h-122v249h-10q-54 -119 -174.5 -194t-284.5 -75q-151 0 -267 66t-182 187.5t-66 289.5v1013h122v-1008q0 -192 116.5 -310.5t301.5 -118.5q120 0 221 54t162 154.5t61 237.5zM979 2048h116q0 -125 -77 -200t-211 -75q-133 0 -210 75t-77 200h116
q0 -79 42 -127t129 -48t129.5 48t42.5 127z" />
    <glyph glyph-name="uni016E" unicode="&#x16e;" horiz-adv-x="2104" 
d="M1683 2048h125v-1356q0 -209 -97 -372.5t-267.5 -258t-391.5 -94.5q-220 0 -391 94.5t-268.5 258.5t-96.5 372v1356h125v-1349q0 -177 80.5 -315t222.5 -217.5t328 -79.5t328 79.5t222.5 217.5t80.5 315v1349zM1052 2161q-104 0 -176.5 73t-72.5 176q0 69 33.5 125.5
t90 90t125.5 33.5t125.5 -33.5t89.5 -90t33 -125.5t-33 -125.5t-89.5 -90t-125.5 -33.5zM1052 2252q66 0 111.5 46t45.5 112t-45.5 112t-112.5 46q-66 0 -111.5 -46t-45.5 -112t46 -112t112 -46z" />
    <glyph glyph-name="uni016F" unicode="&#x16f;" horiz-adv-x="1612" 
d="M1237 545v991h122v-1536h-122v249h-10q-54 -119 -174.5 -194t-284.5 -75q-151 0 -267 66t-182 187.5t-66 289.5v1013h122v-1008q0 -192 116.5 -310.5t301.5 -118.5q120 0 221 54t162 154.5t61 237.5zM807 1721q-76 0 -138.5 35.5t-99 96t-36.5 134.5t36.5 135t99 97.5
t138.5 36.5t137.5 -36.5t98 -97.5t36.5 -135t-36.5 -134.5t-98 -96t-137.5 -35.5zM807 1815q74 0 123.5 51t49.5 121q0 71 -50 122.5t-123 51.5q-74 0 -124 -52t-50 -122t50 -121t124 -51z" />
    <glyph glyph-name="uni0170" unicode="&#x170;" horiz-adv-x="2104" 
d="M1683 2048h125v-1356q0 -209 -97 -372.5t-267.5 -258t-391.5 -94.5q-220 0 -391 94.5t-268.5 258.5t-96.5 372v1356h125v-1349q0 -177 80.5 -315t222.5 -217.5t328 -79.5t328 79.5t222.5 217.5t80.5 315v1349zM1105 2211l343 429h141l-372 -429h-112zM772 2211l261 429
h140l-296 -429h-105z" />
    <glyph glyph-name="uni0171" unicode="&#x171;" horiz-adv-x="1612" 
d="M1237 545v991h122v-1536h-122v249h-10q-54 -119 -174.5 -194t-284.5 -75q-151 0 -267 66t-182 187.5t-66 289.5v1013h122v-1008q0 -192 116.5 -310.5t301.5 -118.5q120 0 221 54t162 154.5t61 237.5zM860 1699l343 429h141l-372 -429h-112zM527 1699l261 429h140
l-296 -429h-105z" />
    <glyph glyph-name="uni0172" unicode="&#x172;" horiz-adv-x="2104" 
d="M1683 2048h125v-1356q0 -209 -97 -372.5t-267.5 -258t-391.5 -94.5q-220 0 -391 94.5t-268.5 258.5t-96.5 372v1356h125v-1349q0 -177 80.5 -315t222.5 -217.5t328 -79.5t328 79.5t222.5 217.5t80.5 315v1349zM1080 -604q-110 0 -181 62t-71 182q0 73 30 139t90 127.5
t148 122.5l78 -28q-98 -91 -161 -174.5t-63 -176.5q0 -73 39.5 -109t110.5 -36q44 0 77.5 12.5t64.5 34.5l31 -94q-40 -27 -86.5 -44.5t-106.5 -17.5z" />
    <glyph glyph-name="uni0173" unicode="&#x173;" horiz-adv-x="1612" 
d="M1237 545v991h122v-1536h-122v249h-10q-54 -119 -174.5 -194t-284.5 -75q-151 0 -267 66t-182 187.5t-66 289.5v1013h122v-1008q0 -192 116.5 -310.5t301.5 -118.5q120 0 221 54t162 154.5t61 237.5zM1264 -605q-110 0 -181 62t-71 182q0 73 30 139t90 127.5t148 122.5
l78 -28q-98 -91 -161 -174.5t-63 -176.5q0 -73 39.5 -109t110.5 -36q44 0 77.5 12.5t64.5 34.5l31 -94q-40 -27 -86.5 -44.5t-106.5 -17.5z" />
    <glyph glyph-name="uni0174" unicode="&#x174;" horiz-adv-x="2565" 
d="M636 0l-563 2048h130l500 -1855h12l492 1855h152l492 -1855h12l500 1855h129l-563 -2048h-144l-497 1843h-11l-497 -1843h-144zM1552 2216l-269 299l-269 -299h-126v11l354 389h82l354 -389v-11h-126z" />
    <glyph glyph-name="uni0175" unicode="&#x175;" horiz-adv-x="2245" 
d="M588 0l-460 1536h128l396 -1357h11l397 1357h127l396 -1356h10l396 1356h128l-460 -1536h-136l-392 1337h-13l-392 -1337h-136zM1392 1704l-269 299l-269 -299h-126v11l354 389h82l354 -389v-11h-126z" />
    <glyph glyph-name="uni0176" unicode="&#x176;" horiz-adv-x="1776" 
d="M88 2048h148l645 -988h14l645 988h148l-737 -1119v-929h-126v929zM1157 2216l-269 299l-269 -299h-126v11l354 389h82l354 -389v-11h-126z" />
    <glyph glyph-name="uni0177" unicode="&#x177;" horiz-adv-x="1504" 
d="M351 -576q-46 0 -91 10t-81 26l36 107q94 -36 170.5 -26t135.5 70t100 176l70 192l-563 1557h131l488 -1379h10l488 1379h131l-648 -1797q-37 -104 -93 -174t-127.5 -105.5t-156.5 -35.5zM1021 1704l-269 299l-269 -299h-126v11l354 389h82l354 -389v-11h-126z" />
    <glyph glyph-name="uni0178" unicode="&#x178;" horiz-adv-x="1776" 
d="M88 2048h148l645 -988h14l645 988h148l-737 -1119v-929h-126v929zM664 2320q-38 0 -67 29t-29 67q0 40 29 68t67 28q40 0 68 -28t28 -68q0 -38 -28 -67t-68 -29zM1112 2320q-38 0 -67 29t-29 67q0 40 29 68t67 28q40 0 68 -28t28 -68q0 -38 -28 -67t-68 -29z" />
    <glyph glyph-name="uni0179" unicode="&#x179;" horiz-adv-x="1723" 
d="M201 0v103l1171 1829h-1169v116h1318v-103l-1170 -1829h1180v-116h-1330zM803 2267l268 442h145l-301 -442h-112z" />
    <glyph glyph-name="uni017A" unicode="&#x17a;" horiz-adv-x="1463" 
d="M201 0v103l904 1306v11h-854v116h1009v-105l-896 -1304v-11h932v-116h-1095zM672 1755l268 442h145l-301 -442h-112z" />
    <glyph glyph-name="uni017B" unicode="&#x17b;" horiz-adv-x="1723" 
d="M201 0v103l1171 1829h-1169v116h1318v-103l-1170 -1829h1180v-116h-1330zM862 2320q-41 0 -70 28t-29 68t29 68t70 28q40 0 69 -28t29 -68t-29 -68t-69 -28z" />
    <glyph glyph-name="uni017C" unicode="&#x17c;" horiz-adv-x="1463" 
d="M201 0v103l904 1306v11h-854v116h1009v-105l-896 -1304v-11h932v-116h-1095zM731 1808q-41 0 -70 28t-29 68t29 68t70 28q40 0 69 -28t29 -68t-29 -68t-69 -28z" />
    <glyph glyph-name="uni017D" unicode="&#x17d;" horiz-adv-x="1723" 
d="M201 0v103l1171 1829h-1169v116h1318v-103l-1170 -1829h1180v-116h-1330zM592 2650l269 -298l269 298h126v-10l-354 -390h-82l-354 390v10h126z" />
    <glyph glyph-name="uni017E" unicode="&#x17e;" horiz-adv-x="1463" 
d="M201 0v103l904 1306v11h-854v116h1009v-105l-896 -1304v-11h932v-116h-1095zM461 2139l270 -299l269 299h125v-11l-353 -389h-83l-353 389v11h125z" />
    <glyph glyph-name="uni017F" unicode="&#x17f;" horiz-adv-x="661" 
d="M196 0h-135v1739q0 126 52 216t141.5 138t202.5 48q36 0 74 -5.5t70 -14.5l-18 -110q-29 8 -54.5 11t-51.5 3q-124 0 -202.5 -75t-78.5 -211v-1739z" />
    <glyph glyph-name="uni0180" unicode="&#x180;" horiz-adv-x="1705" 
d="M296 0v2048h121v-855h12q36 99 102 182t164 133.5t229 50.5q185 0 323 -102.5t214 -282t76 -410.5q0 -233 -76 -412.5t-213 -281.5t-323 -102q-131 0 -229 50.5t-164 134t-103 182.5h-14v-335h-119zM416 765q0 -196 59.5 -350.5t171.5 -244t268 -89.5q158 0 270 90.5
t171.5 245.5t59.5 348t-59.5 347t-171.5 243.5t-270 89.5q-156 0 -268 -88.5t-171.5 -242t-59.5 -349.5zM-43 1708v104h800v-104h-800z" />
    <glyph glyph-name="uni0181" unicode="&#x181;" horiz-adv-x="2140" 
d="M664 1932h-183q-77 0 -121 -29t-62 -86t-18 -141v-49h-120v93q1 100 37 173.5t107 114t173 40.5h187v-116zM623 0v2048h665q186 0 314 -66t194.5 -185t66.5 -277q0 -124 -40 -220t-112 -158.5t-167 -86.5v-12q105 -8 196 -73.5t147 -177.5t56 -261q0 -157 -68 -276.5
t-202 -187t-332 -67.5h-718zM748 116h593q231 0 355.5 116t124.5 299q0 129 -60 231t-167 161.5t-249 59.5h-597v-867zM748 1097h583q130 0 221.5 57t140 153t48.5 213q0 190 -118 301t-335 111h-540v-835z" />
    <glyph glyph-name="uni0182" unicode="&#x182;" horiz-adv-x="1840" 
d="M296 0v2048h1153v-116h-1028v-824h643q189 0 325.5 -66t209.5 -186.5t73 -283.5q0 -173 -72.5 -302t-208.5 -199.5t-327 -70.5h-768zM421 115h643q153 0 261.5 58t165.5 162t57 241q1 183 -129.5 299.5t-354.5 116.5h-643v-877z" />
    <glyph glyph-name="uni0183" unicode="&#x183;" horiz-adv-x="1705" 
d="M1363 2048v-116h-946v-739h12q36 99 102 182t164 133.5t229 50.5q185 0 323 -102.5t214 -282t76 -410.5q0 -233 -76 -412.5t-213 -281.5t-323 -102q-131 0 -229 50.5t-164 134t-103 182.5h-14v-335h-119v2048h1067zM416 765q0 -196 59.5 -350.5t171.5 -244t268 -89.5
q158 0 270 90.5t171.5 245.5t59.5 348t-59.5 347t-171.5 243.5t-270 89.5q-156 0 -268 -88.5t-171.5 -242t-59.5 -349.5z" />
    <glyph glyph-name="uni0184" unicode="&#x184;" horiz-adv-x="1853" 
d="M620 2048v-116h-596v116h596zM580 1108h683q189 0 325 -66t209.5 -186.5t73.5 -283.5q0 -173 -72.5 -302t-208.5 -199.5t-327 -70.5h-768v2048h125v-1933h643q153 0 261 58t165.5 162t57.5 241q0 183 -130 299.5t-354 116.5h-683v116z" />
    <glyph glyph-name="uni0185" unicode="&#x185;" horiz-adv-x="1608" 
d="M272 2112h61v-672h-61l-171 312v51zM360 1193h69q36 99 102 182t164 133.5t229 50.5q185 0 323 -102.5t214 -282t76 -410.5q0 -233 -76 -412.5t-213 -281.5t-323 -102q-131 0 -229 50.5t-164 134t-103 182.5h-69v858zM1416 765q0 193 -59.5 347t-171.5 243.5t-270 89.5
q-156 0 -268 -88.5t-171.5 -242t-59.5 -349.5t59.5 -350.5t171.5 -244t268 -89.5q158 0 270 90.5t171.5 245.5t59.5 348zM296 2048h121v-895l-38 -380l36 -421v-352h-119v2048z" />
    <glyph glyph-name="uni0186" unicode="&#x186;" horiz-adv-x="2040" 
d="M184 640h128q20 -103 75 -201t141.5 -176.5t200.5 -124.5t252 -46q202 0 371.5 107.5t271 315.5t101.5 509q0 303 -101.5 511t-271 314.5t-371.5 106.5q-138 0 -252 -45.5t-200.5 -124t-141.5 -176t-75 -202.5h-128q22 125 84.5 243.5t164 215t239 153t309.5 56.5
q256 0 451 -130.5t305.5 -367.5t110.5 -554t-110.5 -554t-305.5 -367.5t-451 -130.5q-172 0 -309.5 56.5t-239 152t-164 215t-84.5 244.5z" />
    <glyph glyph-name="uni0187" unicode="&#x187;" horiz-adv-x="2047" 
d="M1856 1408h-121v312q0 112 34.5 186.5t100 111.5t157.5 37q22 0 42.5 -1.5t35.5 -5.5v-109q-11 2 -26.5 3.5t-31.5 1.5q-64 0 -106 -21.5t-63.5 -70.5t-21.5 -132v-312zM1856 1408h-128q-20 104 -75 201.5t-141.5 176t-200.5 124.5t-252 46q-202 0 -371.5 -107.5
t-271 -315.5t-101.5 -509q0 -303 101.5 -511t271 -314.5t371.5 -106.5q138 0 252 45.5t200.5 124t141.5 176.5t75 202h128q-22 -124 -84.5 -243t-164 -215.5t-239 -153t-309.5 -56.5q-256 0 -451 130.5t-305.5 367.5t-110.5 554t110.5 554t305.5 367.5t451 130.5
q172 0 309.5 -56.5t239 -152t164 -214.5t84.5 -245z" />
    <glyph glyph-name="uni0188" unicode="&#x188;" horiz-adv-x="1659" 
d="M1396 1084h-121v224q0 113 35.5 187t103 111t163.5 37q26 0 55.5 -1.5t55.5 -6.5v-110q-22 3 -46 5t-45 2q-102 0 -151.5 -49.5t-49.5 -174.5v-224zM829 -32q-196 0 -345 103.5t-232.5 283.5t-83.5 408t84 408t233 284t343 104q146 0 266.5 -60t200 -167t101.5 -248h-124
q-30 156 -149.5 258.5t-293.5 102.5q-156 0 -278 -87.5t-192 -241t-70 -351.5q0 -195 68 -349.5t190 -244.5t282 -90q113 0 206.5 45t156.5 128t83 194h124q-22 -142 -100 -250t-199 -169t-271 -61z" />
    <glyph glyph-name="uni0189" unicode="&#x189;" horiz-adv-x="2016" 
d="M864 0h-500v116h495q274 0 462 109.5t284.5 314.5t95.5 491q0 282 -93 483.5t-270.5 309.5t-434.5 108h-543v116h548q288 0 493 -122t314.5 -349.5t108.5 -545.5q-1 -325 -114 -555.5t-327 -353t-519 -122.5zM421 2048v-2048h-125v2048h125zM-41 993v104h800v-104h-800z
" />
    <glyph glyph-name="uni018A" unicode="&#x18a;" horiz-adv-x="2364" 
d="M160 1627v93q1 100 37 173.5t107 114t173 40.5h200v-116h-196q-77 0 -121 -29t-62 -86t-18 -141v-49h-120zM1212 0h-568v2048h612q288 0 493 -122t314.5 -349.5t108.5 -545.5q-1 -325 -114 -555.5t-327 -353t-519 -122.5zM769 116h438q274 0 462 109.5t284.5 314.5
t95.5 491q0 282 -93 483.5t-270.5 309.5t-434.5 108h-482v-1816z" />
    <glyph glyph-name="uni018B" unicode="&#x18b;" horiz-adv-x="1701" 
d="M1539 0h-767q-191 0 -327.5 70.5t-209 199.5t-72.5 302q0 163 73.5 284t210 188t325.5 67h629v802h-1014v120h1152v-2033zM1401 119v872h-629q-225 0 -348 -116t-123 -299q1 -137 54.5 -240t158 -160t258.5 -57h629z" />
    <glyph glyph-name="uni018C" unicode="&#x18c;" horiz-adv-x="1705" 
d="M343 2048h977v-116h-977v116zM1409 0h-118v335h-15q-36 -99 -102.5 -182.5t-164 -134t-229.5 -50.5q-185 0 -322.5 102t-213.5 281.5t-76 412.5q0 231 76.5 410.5t214.5 282t322 102.5q132 0 229.5 -50.5t164 -133.5t101.5 -182h12v855h121v-2048zM1289 765
q0 196 -59.5 349.5t-171 242t-267.5 88.5q-158 0 -270.5 -89.5t-172 -243.5t-59.5 -347t59.5 -348t172 -245.5t270.5 -90.5q156 0 267.5 89.5t171 244t59.5 350.5z" />
    <glyph glyph-name="uni018D" unicode="&#x18d;" horiz-adv-x="1381" 
d="M1119 -516h-879v113l691 -1q-66 73 -143.5 154t-160.5 165t-166 165q-126 122 -212.5 237t-131.5 232.5t-45 245.5v16q0 229 76 396.5t215 259.5t328 92t328 -92t215.5 -260t76.5 -396v-18q0 -188 -75.5 -338t-211.5 -240t-317 -98q-31 -1 -62 2t-69 9
q62 -61 129.5 -128.5t137.5 -138.5t139.5 -145t136.5 -148v-84zM1176 793v18q0 193 -57 335t-165.5 219.5t-262.5 77.5q-152 0 -260.5 -78t-167 -220t-58.5 -334v-16q0 -155 69.5 -287t200.5 -263q58 -15 106 -22t95 -7q155 0 267 75.5t172.5 206t60.5 295.5z" />
    <glyph glyph-name="uni018E" unicode="&#x18e;" horiz-adv-x="1657" 
d="M1361 2048v-2048h-1140v116h1015v849h-953v116h953v851h-1039v116h1164z" />
    <glyph glyph-name="uni018F" unicode="&#x18f;" horiz-adv-x="1952" 
d="M966 -28q-237 0 -413.5 117.5t-274 334t-97.5 516.5v79h1508l-1 -115h-1368v-19q0 -243 80.5 -421.5t225 -275t339.5 -96.5q209 0 358.5 105t229.5 298t80 456v98q0 215 -47.5 383t-139.5 284.5t-225.5 177.5t-305.5 61q-83 0 -163.5 -13.5t-162 -41.5t-169.5 -73
l-40 108q59 35 123 61t132 44t139.5 27t145.5 9q264 0 455 -123.5t294 -353.5t103 -550v-100q0 -292 -99 -512t-279.5 -342.5t-427.5 -122.5z" />
    <glyph glyph-name="uni0190" unicode="&#x190;" horiz-adv-x="1680" 
d="M1043 1029h-304q-171 24 -290.5 94t-182 178t-62.5 242q0 159 80.5 279t223.5 187t329 67q188 0 325.5 -68.5t217 -191t92.5 -284.5h-137q-20 187 -145.5 305.5t-352.5 118.5q-155 0 -266 -53.5t-170.5 -147t-59.5 -215.5q0 -123 63.5 -220t184 -153t291.5 -56h163v-82z
M729 1077h314v-85h-163q-178 0 -306.5 -56.5t-198.5 -158.5t-70 -241q0 -134 66 -234.5t185 -155.5t279 -55q251 0 392.5 124.5t161.5 311.5h138q-14 -171 -105 -295.5t-242.5 -192t-344.5 -67.5q-194 0 -345 67.5t-237 192.5t-86 297q0 223 147 366.5t415 181.5z" />
    <glyph glyph-name="uni0191" unicode="&#x191;" horiz-adv-x="1607" 
d="M253 0h126v-209q0 -88 -22 -156t-64.5 -114.5t-105.5 -70t-146 -23.5q-18 0 -35.5 1.5t-41.5 7.5v111q14 -4 33 -6t40 -2q104 0 160 60t56 193v208zM253 0v2048h1143v-116h-1017v-849h922v-116h-922v-967h-126z" />
    <glyph glyph-name="uni0192" unicode="&#x192;" horiz-adv-x="920" 
d="M785 1480v-111h-274v-1552q0 -185 -108 -289t-272 -104q-38 0 -70 5.5t-65 15.5l20 112q24 -9 56.5 -13t58.5 -4q103 0 178.5 73.5t75.5 203.5v1552h-264v111h264v259q0 189 111 295t267 106q43 0 85.5 -7t74.5 -20l-34 -112q-23 8 -48 13t-57 5q-116 0 -194.5 -73
t-78.5 -207v-259h274z" />
    <glyph glyph-name="uni0193" unicode="&#x193;" horiz-adv-x="2061" 
d="M1857 1408h-126l4 227q2 85 21 147.5t56.5 104.5t94 62t132.5 20q25 0 55 -1.5t55 -6.5v-109q-22 3 -46 5t-44 2q-68 0 -113 -21.5t-67 -70.5t-22 -132v-227zM1731 1408q-23 104 -78 201.5t-140.5 176t-200 124.5t-256.5 46q-217 0 -384.5 -113.5t-262 -323t-94.5 -495.5
q0 -283 94 -493t263.5 -324.5t394.5 -114.5q201 0 356.5 93t242.5 266t85 414l44 -21h-696v116h774v-116q0 -271 -103.5 -466.5t-286 -300.5t-416.5 -105q-264 0 -461 131t-305.5 367.5t-108.5 553.5q0 238 62 432t177 332.5t274 213t351 74.5q174 0 313 -57.5t240.5 -154
t164.5 -215t85 -241.5h-128z" />
    <glyph glyph-name="uni0194" unicode="&#x194;" horiz-adv-x="1561" 
d="M-31 2048h136l756 -1853q71 -173 115 -278.5t64 -167.5t20 -104q0 -75 -34 -132t-96.5 -89t-148.5 -32q-130 0 -205 70.5t-75 182.5q0 26 6.5 56t20.5 70t36.5 95t54 131t73.5 178l768 1873h136l-788 -1912q-64 -156 -103.5 -253.5t-58 -154t-18.5 -88.5q0 -55 42.5 -93
t110.5 -38t110 38.5t42 92.5q1 32 -16 88t-56.5 157.5t-108.5 267.5z" />
    <glyph glyph-name="uni0195" unicode="&#x195;" horiz-adv-x="2611" 
d="M253 0v2048h122v-755h12q54 121 173 192t284 71q155 0 273 -65.5t184.5 -187t66.5 -290.5v-304h-121v299q0 197 -117 316t-309 119q-129 0 -230 -56t-158.5 -156.5t-57.5 -234.5v-996h-122zM1700 -27q-142 0 -243.5 68t-155.5 208t-54 356v222h121v-222
q0 -190 41.5 -304.5t118 -165t177.5 -50.5q169 0 287.5 139.5t181 428t62.5 736.5v147h121v-163q0 -474 -77 -784.5t-224 -463t-356 -152.5z" />
    <glyph glyph-name="uni0196" unicode="&#x196;" horiz-adv-x="656" 
d="M253 2048h122v-1749q0 -128 53 -166t152 -21q18 2 27 4t14 4l27 -108q-10 -3 -32 -7.5t-43 -5.5q-150 -20 -235 48.5t-85 229.5v1771z" />
    <glyph glyph-name="uni0197" unicode="&#x197;" horiz-adv-x="717" 
d="M421 2048v-2048h-125v2048h125zM-41 1004v104h800v-104h-800z" />
    <glyph glyph-name="uni0198" unicode="&#x198;" horiz-adv-x="1860" 
d="M296 0v2048h125v-1189h14l985 1085q59 69 134.5 97t150 16.5t131.5 -62.5l-63 -90q-68 48 -135 36.5t-134 -85.5l-712 -777l948 -1079h-159l-869 989l-291 -322v-667h-125z" />
    <glyph glyph-name="uni0199" unicode="&#x199;" horiz-adv-x="1417" 
d="M1187 0l-619 789l-193 -196v-593h-122v1672h122v-900h12l752 764h161l-651 -660l688 -876h-150zM375 1613h-122v128q0 85 20.5 148t59.5 104.5t95 62t128 20.5q26 0 55.5 -1.5t55.5 -6.5v-109q-22 3 -46.5 4.5t-44.5 1.5q-102 0 -151.5 -49t-49.5 -175v-128z" />
    <glyph glyph-name="uni019A" unicode="&#x19a;" horiz-adv-x="628" 
d="M375 2048v-2048h-122v2048h122zM-86 1004v104h800v-104h-800z" />
    <glyph glyph-name="uni019B" unicode="&#x19b;" horiz-adv-x="1719" 
d="M845 1967v-126l-588 -256v124zM775 1328l-474 -1328h-146l561 1540l89 -45zM387 2076q131 -2 204 -62.5t123 -194.5l559 -1503q31 -83 56 -129.5t51.5 -65t59.5 -18.5q12 0 27.5 2t29.5 4l20 -114q-17 -6 -40 -10t-49 -4q-63 0 -110 22.5t-86.5 81.5t-80.5 170l-416 1114
l-148 396q-38 107 -91 150.5t-133 45.5q-21 1 -46 -2t-50 -10l-16 110q29 8 66.5 13t69.5 4z" />
    <glyph glyph-name="uni019C" unicode="&#x19c;" horiz-adv-x="2411" 
d="M2044 307v1741h133v-2048h-124zM2051 567l72 1q6 -172 -53.5 -305t-174 -209.5t-271.5 -76.5q-151 0 -260 64.5t-167 189.5t-58 308v1509h133v-1509q0 -146 45 -244.5t127.5 -148.5t194.5 -50q126 0 218.5 61t143 167t50.5 243zM1147 567l72 1q6 -172 -54 -305
t-174.5 -209.5t-271.5 -76.5q-152 0 -260.5 65t-167 190t-58.5 307v1509h135v-1509q0 -146 45 -244.5t126.5 -148.5t193.5 -50q127 0 220 61t143.5 167t50.5 243z" />
    <glyph glyph-name="uni019D" unicode="&#x19d;" horiz-adv-x="2119" 
d="M257 0h126v-209q0 -88 -22.5 -156t-64.5 -114.5t-100.5 -70t-130.5 -23.5q-26 0 -52.5 1.5t-44.5 7.5v111q14 -4 33 -6t40 -2q104 0 160 60t56 193v208zM1823 2048v-2048h-123l-1305 1821h-12v-1821h-126v2048h123l1307 -1823h12v1823h124z" />
    <glyph glyph-name="uni019E" unicode="&#x19e;" horiz-adv-x="1616" 
d="M375 996v-996h-122v1536h119v-243h12q54 119 173 191t283 72q155 0 272.5 -66t184 -187.5t66.5 -289.5v-1589h-122v1584q0 196 -116.5 315.5t-307.5 119.5q-128 0 -227.5 -56t-157 -156.5t-57.5 -234.5z" />
    <glyph glyph-name="uni019F" unicode="&#x19f;" horiz-adv-x="2117" 
d="M1925 1024q0 -317 -110 -553.5t-305.5 -367.5t-450.5 -131q-256 0 -451.5 131.5t-305.5 368t-110 552.5q0 317 110.5 553t305.5 367.5t451 131.5q255 0 450.5 -131t305.5 -367.5t110 -553.5zM1803 1024q0 285 -95.5 494t-263.5 323.5t-385 114.5t-385 -113.5t-263.5 -323
t-95.5 -495.5q0 -283 94.5 -492.5t262.5 -324.5t387 -115q217 0 385 114.5t263.5 323.5t95.5 494zM1832 1082v-116h-1545v116h1545z" />
    <glyph glyph-name="uni01A0" unicode="&#x1a0;" horiz-adv-x="2107" 
d="M1888 2201h121q1 -216 -96.5 -330t-308.5 -140v108q157 26 220 110.5t64 251.5zM1925 1024q0 -317 -110 -553.5t-305.5 -367.5t-450.5 -131q-256 0 -451.5 131.5t-305.5 368t-110 552.5q0 317 110.5 553t305.5 367.5t451 131.5q255 0 450.5 -131t305.5 -367.5t110 -553.5
zM1803 1024q0 285 -95.5 494t-263.5 323.5t-385 114.5t-385 -113.5t-263.5 -323t-95.5 -495.5q0 -283 94.5 -492.5t262.5 -324.5t387 -115q217 0 385 114.5t263.5 323.5t95.5 494z" />
    <glyph glyph-name="uni01A1" unicode="&#x1a1;" horiz-adv-x="1620" 
d="M1468 1669h116q0 -194 -79 -303.5t-270 -117.5v99q92 5 142.5 42.5t70.5 107.5t20 172zM824 -32q-190 0 -338 102.5t-233 282.5t-85 410q0 231 85 410.5t233 282.5t338 103t338 -103t233 -283t85 -410t-85 -410t-233 -282.5t-338 -102.5zM824 81q161 0 281.5 91t187 246
t66.5 345t-67 344.5t-187 246t-281 91.5t-281 -91.5t-187 -246t-67 -344.5t66.5 -345t187 -246t281.5 -91z" />
    <glyph glyph-name="uni01A2" unicode="&#x1a2;" horiz-adv-x="2260" 
d="M1603 1068v-819q-58 -87 -148.5 -149t-202.5 -95t-236 -33q-178 0 -328.5 69t-261.5 196t-172.5 302t-61.5 388v96l137 1v-97q1 -251 90 -439t246 -292.5t359 -104.5q139 0 259.5 52t185.5 141v784h134zM1603 1812v-857h-134v810q-68 90 -188.5 140.5t-257.5 50.5
q-155 0 -282 -62t-219.5 -176t-142.5 -273t-50 -352v-132h-137v132q0 217 60 397t171 311.5t264 203t337 71.5q118 0 227.5 -31.5t199.5 -91t152 -141.5zM1964 2048v-2624h-135v2493l-301 -192v132l304 191h132z" />
    <glyph glyph-name="uni01A3" unicode="&#x1a3;" horiz-adv-x="1565" 
d="M719 85q72 0 134 19.5t115 55.5v765h135v-809q-55 -47 -116 -79.5t-128.5 -50t-143.5 -17.5q-193 0 -334.5 101t-218.5 273.5t-77 388.5v21q0 238 77 419.5t219 284t338 102.5q75 0 142.5 -16.5t127.5 -47t114 -74.5v-781h-135v732q-52 33 -115.5 52t-136.5 19
q-158 0 -269 -89t-169 -244.5t-58 -356.5v-21q0 -193 63 -338.5t175.5 -227t260.5 -81.5zM1480 1536v-2112h-133v1953l-299 -190v166l301 183h131z" />
    <glyph glyph-name="uni01A4" unicode="&#x1a4;" horiz-adv-x="2016" 
d="M280 1627h-120v93q1 100 37 173.5t107 114t173 40.5h702q195 0 334.5 -80t214.5 -219t75 -317q0 -176 -75 -315t-214.5 -219.5t-333.5 -80.5h-507v-817h-125v1932h-67q-77 0 -121 -29t-62 -86t-18 -141v-49zM673 933h504q158 0 270 64.5t172 177t60 257.5q0 146 -60 259
t-172.5 177t-270.5 64h-503v-999z" />
    <glyph glyph-name="uni01A5" unicode="&#x1a5;" horiz-adv-x="1673" 
d="M367 1536h-119q0 181 75.5 259t224.5 78q29 0 59 -2t52 -6v-109q-24 3 -48 5t-43 2q-106 0 -153.5 -49t-47.5 -178zM253 -576v2112h119v-343h15q36 99 101.5 182t163 133.5t229.5 50.5q186 0 324 -102t214 -281.5t76 -411.5t-76.5 -411.5t-214 -282t-321.5 -102.5
q-131 0 -229.5 50t-165 133.5t-101.5 183.5h-12v-911h-122zM373 765q0 -196 60 -350.5t172 -244t267 -89.5q157 0 269.5 90.5t172 245.5t59.5 348t-59 347t-171 243.5t-271 89.5q-157 0 -268.5 -88.5t-171 -242t-59.5 -349.5z" />
    <glyph glyph-name="uni01A6" unicode="&#x1a6;" horiz-adv-x="1917" 
d="M151 1906v280h138v-280h-138zM151 2049h622q191 0 331.5 -72t218 -204t77.5 -315q0 -143 -54 -260t-153.5 -197t-233.5 -114l-38 -13h-674v119h576q124 0 223.5 58.5t158 163.5t58.5 243q0 142 -59.5 248t-169 164.5t-261.5 58.5h-484v-1929h-138v2049zM1603 -507
l-763 1420h148l761 -1409v-11h-146z" />
    <glyph glyph-name="uni01A7" unicode="&#x1a7;" horiz-adv-x="1748" 
d="M348 1536h-123q9 157 91 279.5t222.5 193t322.5 70.5t326.5 -70t228.5 -192.5t84 -280.5q0 -188 -126 -314t-367 -199l-239 -72q-146 -44 -246 -100t-151 -133t-51 -185q0 -134 71 -235t197 -157.5t291 -56.5q153 0 272 50t190.5 142.5t81.5 219.5h128
q-11 -156 -95.5 -275.5t-231.5 -186.5t-345 -67q-208 0 -361.5 73.5t-237 201.5t-83.5 290q0 111 40.5 196t113 148.5t170 109.5t212.5 81l224 66q124 37 218.5 91.5t148 132t53.5 183.5q0 123 -66 218t-181.5 150t-265.5 55q-147 0 -259.5 -54t-179 -150t-77.5 -223z" />
    <glyph glyph-name="uni01A8" unicode="&#x1a8;" horiz-adv-x="1416" 
d="M189 1205q56 170 179 262t317 92q148 0 262 -53t179 -147t65 -218q0 -149 -94 -250.5t-282 -147.5l-246 -60q-273 -67 -273 -286q0 -139 115 -228t304 -89q170 0 274.5 78.5t137.5 228.5l117 -30q-40 -188 -177.5 -288.5t-353.5 -100.5q-159 0 -281 55t-191 153t-69 225
q0 149 92 249.5t273 145.5l236 59q151 37 223.5 108.5t72.5 181.5q0 135 -107 219t-277 84q-156 0 -248.5 -73.5t-133.5 -199.5z" />
    <glyph glyph-name="uni01A9" unicode="&#x1a9;" horiz-adv-x="1697" 
d="M1568 120v-120h-1373l13 120h1360zM1509 2033v-120h-1338v120h1338zM1071 999v-31l-847 -968h-80v107l779 877l-779 941v108h81z" />
    <glyph glyph-name="uni01AA" unicode="&#x1aa;" horiz-adv-x="1341" 
d="M803 1679l134 65v-1925q0 -147 43.5 -211.5t134.5 -64.5q20 0 44.5 3t44.5 9v-115q-22 -7 -53.5 -11.5t-59.5 -4.5q-145 0 -216.5 99t-71.5 296v1860zM137 1741q1 112 55 202.5t144.5 144t200.5 53.5q112 0 202.5 -53.5t144 -144t53.5 -202.5q1 -110 -53 -200.5
t-144.5 -144.5t-202.5 -55q-110 0 -201 54t-145 145t-54 201zM537 1468q76 1 138 36t98 97t35 142q-1 119 -79 196.5t-192 77.5q-74 0 -136 -35t-99 -97t-37 -142q0 -121 80 -198.5t192 -76.5z" />
    <glyph glyph-name="uni01AB" unicode="&#x1ab;" horiz-adv-x="997" 
d="M748 88l121 32v-329q0 -177 -85.5 -270.5t-228.5 -93.5q-32 0 -61.5 3.5t-50.5 12.5v105q18 -4 40.5 -7.5t47.5 -3.5q68 0 116.5 26.5t74.5 82t26 145.5v297zM796 1536v-109h-671v109h671zM352 1904h121v-1541q0 -94 36.5 -153.5t96 -88t127.5 -28.5q33 0 57.5 5t46.5 13
l30 -111q-28 -10 -62 -17.5t-80 -7.5q-96 0 -181.5 43t-138.5 125t-53 198v1563z" />
    <glyph glyph-name="uni01AC" unicode="&#x1ac;" horiz-adv-x="1792" 
d="M1632 2048v-116h-655v-1932h-125v1932h-372q-74 0 -118.5 -28.5t-64.5 -83.5t-20 -137v-50h-117v88q1 154 83.5 240.5t233.5 86.5h1155z" />
    <glyph glyph-name="uni01AD" unicode="&#x1ad;" horiz-adv-x="732" 
d="M417 1543h-134v264q0 85 21 148t61.5 104t98 61.5t129.5 20.5q24 0 54 -3t57 -8v-104q-23 4 -47.5 6t-43.5 2q-68 0 -111.5 -22t-64 -71.5t-20.5 -133.5v-264zM721 1520v-111h-677v111h677zM283 1727h134v-1374q0 -131 55 -196t149 -65q29 0 58.5 5t51.5 10v-116
q-22 -7 -54.5 -13t-77.5 -6q-96 0 -167 43t-110 128t-39 210v1374z" />
    <glyph glyph-name="uni01AE" unicode="&#x1ae;" horiz-adv-x="1755" 
d="M940 0v-209q0 -134 60 -191t163 -57h66v-116h-90q-72 0 -131 23.5t-102.5 69.5t-67 113.5t-23.5 155.5v211h125zM160 1932v116h1435v-116h-655v-1932h-125v1932h-655z" />
    <glyph glyph-name="uni01AF" unicode="&#x1af;" horiz-adv-x="2343" 
d="M2063 2193h120q0 -149 -42.5 -250t-135.5 -158t-245 -74v108q117 18 182.5 61t93 120t27.5 193zM1683 2048h125v-1356q0 -209 -97 -372.5t-267.5 -258t-391.5 -94.5q-220 0 -391 94.5t-268.5 258.5t-96.5 372v1356h125v-1349q0 -177 80.5 -315t222.5 -217.5t328 -79.5
t328 79.5t222.5 217.5t80.5 315v1349z" />
    <glyph glyph-name="uni01B0" unicode="&#x1b0;" horiz-adv-x="1589" 
d="M1536 1593h112q0 -134 -34.5 -223t-112.5 -133t-206 -45v97q97 0 149 31t72 98t20 175zM1229 545v991h122v-1536h-122v249h-10q-54 -119 -174.5 -194t-284.5 -75q-151 0 -267 66t-182 187.5t-66 289.5v1013h122v-1008q0 -192 116.5 -310.5t301.5 -118.5q120 0 221 54
t162 154.5t61 237.5z" />
    <glyph glyph-name="uni01B1" unicode="&#x1b1;" horiz-adv-x="2112" 
d="M195 989q0 314 132 548t397 379v16h-529v116h672v-155q-154 -76 -278 -200t-197.5 -298t-74.5 -403q0 -252 93.5 -456.5t260 -324.5t385.5 -119q165 1 300.5 69.5t233 191.5t151 286.5t54.5 352.5q0 227 -73.5 401.5t-198.5 299t-278 200.5v155h672v-116h-529v-16
q266 -144 397.5 -378t131.5 -549q0 -221 -63.5 -407.5t-179.5 -323t-273.5 -211.5t-344.5 -75q-186 0 -343.5 75.5t-273.5 212.5t-180 322.5t-64 406.5z" />
    <glyph glyph-name="uni01B2" unicode="&#x1b2;" horiz-adv-x="1707" 
d="M847 -31q-202 0 -355 78t-239 230t-86 374v1397h137v-1397q0 -279 147.5 -421t395.5 -142q252 0 404 143.5t152 419.5v1038q0 143 -55.5 204.5t-174.5 61.5q-26 0 -52 -3.5t-53 -11.5v116q30 10 64.5 15t70.5 5q159 0 248.5 -98t89.5 -289v-1038q0 -220 -90 -372
t-247 -231t-357 -79z" />
    <glyph glyph-name="uni01B3" unicode="&#x1b3;" horiz-adv-x="1831" 
d="M49 2048h148l645 -988h12l574 869q51 79 123.5 114t147.5 31t129 -43l-51 -95q-57 31 -126.5 17t-122.5 -94l-616 -930v-929h-125v929z" />
    <glyph glyph-name="uni01B4" unicode="&#x1b4;" horiz-adv-x="1614" 
d="M351 -576q-46 0 -91 10t-81 26l36 107q94 -36 170.5 -26t135.5 70t100 176l70 192l-563 1557h131l488 -1379h10l478 1348q42 120 90.5 201.5t113.5 123.5t157 42q49 0 92.5 -12t74.5 -33l-21 -98q-28 15 -63.5 23t-73.5 8q-90 0 -142.5 -62.5t-108.5 -220.5l-626 -1738
q-57 -157 -153 -236t-224 -79z" />
    <glyph glyph-name="uni01B5" unicode="&#x1b5;" horiz-adv-x="1723" 
d="M201 0v103l1171 1829h-1169v116h1318v-103l-1170 -1829h1180v-116h-1330zM468 983v104h800v-104h-800z" />
    <glyph glyph-name="uni01B6" unicode="&#x1b6;" horiz-adv-x="1463" 
d="M201 0v103l904 1306v11h-854v116h1009v-105l-896 -1304v-11h932v-116h-1095zM331 716v104h800v-104h-800z" />
    <glyph glyph-name="uni01B7" unicode="&#x1b7;" horiz-adv-x="1941" 
d="M160 96h127q3 -171 92 -303.5t238.5 -207.5t333.5 -75q196 0 347 91.5t236.5 250.5t85.5 361q0 217 -103 382.5t-284.5 261.5t-418.5 103h-113v112l823 878v-19h-1253v117h1410v-95l-814 -873v-12q260 -11 457.5 -123.5t308.5 -301.5t111 -428q0 -166 -54 -314
t-157 -262.5t-250.5 -180t-333.5 -65.5q-217 0 -394.5 89.5t-284 248t-110.5 365.5z" />
    <glyph glyph-name="uni01B8" unicode="&#x1b8;" horiz-adv-x="1941" 
d="M1781 96q-3 -207 -110 -365.5t-284 -248t-395 -89.5q-186 0 -333 65.5t-250 180t-157.5 262.5t-54.5 314q0 239 111 428t309 301.5t458 123.5v12l-815 873v95h1411v-117h-1254v20l823 -879v-112h-112q-237 -7 -419 -103t-285 -261.5t-103 -382.5q0 -202 85.5 -361
t237 -250.5t347.5 -91.5q184 0 333.5 75t238.5 207.5t92 303.5h126z" />
    <glyph glyph-name="uni01B9" unicode="&#x1b9;" horiz-adv-x="1715" 
d="M1505 1q-4 -160 -89 -282t-227.5 -190t-319.5 -68q-193 0 -337 80.5t-222.5 216.5t-78.5 302q0 178 87 309t241 207.5t353 84.5v11l-620 771v94h1124v-116h-947v-10l600 -744v-110h-57q-221 0 -367 -65t-218 -177.5t-72 -254.5q0 -136 62.5 -245.5t178 -173.5t272.5 -64
q142 0 256.5 53.5t182.5 149t72 221.5h126z" />
    <glyph glyph-name="uni01BA" unicode="&#x1ba;" horiz-adv-x="1427" 
d="M159 1539l1165 -3v-103l-811 -708h-61v102l681 594h-972zM248 -209q0 -141 99.5 -212.5t283.5 -71.5q119 0 215 42.5t155.5 124.5t69.5 201h133q-9 -138 -80 -247.5t-195 -173t-293 -63.5q-163 0 -279.5 47.5t-179 138t-62.5 218.5q0 113 51.5 196.5t159 143t275.5 98.5
q156 38 243 75t122 85t35 118q0 111 -100.5 162.5t-335.5 51.5h-60l10 116h50q192 0 319 -37t189.5 -111t62.5 -185q0 -104 -52.5 -174.5t-164 -121t-288.5 -93.5q-146 -36 -229.5 -82t-118.5 -106.5t-35 -139.5z" />
    <glyph glyph-name="uni01BB" unicode="&#x1bb;" horiz-adv-x="1733" 
d="M244 0v95l663 764q142 164 225 278t119 206t36 192q0 125 -58.5 221.5t-159 150.5t-228.5 54q-134 0 -235 -59t-157.5 -160t-56.5 -227h-121q0 159 74 286t203.5 201t295.5 74q163 0 290 -71t200 -193.5t73 -276.5q0 -113 -38.5 -217.5t-131.5 -233t-257 -316.5
l-556 -641v-11h1075v-116h-1255zM731 983v104h800v-104h-800z" />
    <glyph glyph-name="uni01BC" unicode="&#x1bc;" horiz-adv-x="1607" 
d="M456 2048v-116h-369v116h369zM769 -28q-164 0 -292.5 69.5t-203 191.5t-76.5 279h123q4 -186 129 -305t320 -119q150 0 264.5 72.5t179.5 197.5t64 282q0 166 -70 290t-187 192t-259 69q-112 0 -210 -40.5t-167 -103.5l-141 20l121 981h960v-116h-853l-94 -767h10
q72 64 171.5 103.5t216.5 39.5q172 0 314.5 -84t227 -234t83.5 -349q-1 -192 -82 -343t-223.5 -238.5t-325.5 -87.5z" />
    <glyph glyph-name="uni01BD" unicode="&#x1bd;" horiz-adv-x="1269" 
d="M356 696l-120 11l85 781h814v-121h-698l-54 -496q53 54 142.5 89.5t183.5 36.5q146 3 254 -58.5t168 -175t61 -267.5q1 -155 -59.5 -272t-180 -182.5t-293.5 -65.5q-100 0 -189.5 29t-158.5 85t-108.5 135t-39.5 179l130 19q-4 -148 97 -239t269 -91q192 0 296.5 107.5
t104.5 287.5q0 177 -97 284.5t-267 108.5q-116 2 -205 -50.5t-135 -134.5zM445 1488v-121h-365v121h365z" />
    <glyph glyph-name="uni01BE" unicode="&#x1be;" horiz-adv-x="1453" 
d="M1153 395q0 78 -37 129.5t-96.5 90t-125.5 77t-125.5 90.5t-96.5 129.5t-37 195.5v730h134v-728q0 -102 37.5 -167t97 -109t125.5 -81t125 -80t96.5 -106.5t37.5 -162.5q0 -128 -70.5 -225t-195.5 -151t-289 -54q-178 0 -303.5 69.5t-191.5 181.5t-66 239h135
q1 -108 55 -192.5t150 -133t223 -48.5q125 0 219.5 39t146.5 107.5t52 159.5zM1087 1476v-111h-768v111h768z" />
    <glyph glyph-name="uni01BF" unicode="&#x1bf;" horiz-adv-x="1639" 
d="M349 1291v-1863h-134v2108h120zM315 1129l-64 2q45 103 101.5 183t126.5 134.5t153 82.5t180 28q181 0 309.5 -87.5t197.5 -246t69 -372.5v-64q0 -200 -67.5 -356t-203.5 -277t-342 -215.5t-484 -173.5v116q328 96 541 216t316.5 287t103.5 401v69q0 174 -54.5 305.5
t-158.5 205t-255 73.5q-101 0 -186.5 -38t-156 -108t-126.5 -165z" />
    <glyph glyph-name="uni01C0" unicode="&#x1c0;" horiz-adv-x="599" 
d="M359 2072v-2072h-116v2072h116z" />
    <glyph glyph-name="uni01C1" unicode="&#x1c1;" horiz-adv-x="941" 
d="M262 2072v-2072h-116v2072h116zM636 2072v-2072h-116v2072h116z" />
    <glyph glyph-name="uni01C2" unicode="&#x1c2;" horiz-adv-x="672" 
d="M395 2072v-2072h-116v2072h116zM-66 1339v104h800v-104h-800zM-64 629v104h800v-104h-800z" />
    <glyph glyph-name="uni01C3" unicode="&#x1c3;" horiz-adv-x="752" 
d="M443 2048l-7 -1451h-120l-7 1451h134zM376 -13q-45 0 -76.5 31.5t-31.5 76.5q0 44 32 76t76 32t76 -32t32 -76q0 -30 -14.5 -54.5t-39 -39t-54.5 -14.5z" />
    <glyph glyph-name="uni01C5" unicode="&#x1c5;" horiz-adv-x="3479" 
d="M864 0h-568v2048h612q288 0 493 -122t314.5 -349.5t108.5 -545.5q-1 -325 -114 -555.5t-327 -353t-519 -122.5zM421 116h438q274 0 462 109.5t284.5 314.5t95.5 491q0 282 -93 483.5t-270.5 309.5t-434.5 108h-482v-1816zM2217 0v103l904 1306v11h-854v116h1009v-105
l-896 -1304v-11h932v-116h-1095zM2477 2139l270 -299l269 299h125v-11l-353 -389h-83l-353 389v11h125z" />
    <glyph glyph-name="uni01C6" unicode="&#x1c6;" horiz-adv-x="2929" 
d="M780 -32q-185 0 -323 102t-213.5 281.5t-75.5 412.5q0 231 76.5 410.5t214.5 282t322 102.5q132 0 229.5 -50.5t164 -133.5t101.5 -182h12v855h121v-2048h-118v335h-15q-37 -99 -103 -182.5t-164 -134t-229 -50.5zM791 81q156 0 267.5 89.5t171 244t59.5 350.5
t-59.5 349.5t-171 242t-267.5 88.5q-158 0 -270.5 -89.5t-172 -243.5t-59.5 -347t59.5 -348t172 -245.5t270.5 -90.5zM1668 0v103l904 1306v11h-854v116h1009v-105l-896 -1304v-11h932v-116h-1095zM1928 2139l270 -299l269 299h125v-11l-353 -389h-83l-353 389v11h125z" />
    <glyph glyph-name="uni01C7" unicode="&#x1c7;" horiz-adv-x="3069" 
d="M296 0v2048h125v-1932h1000v-116h-1125zM2648 2048h125v-1491q0 -204 -70.5 -333t-189 -190.5t-265.5 -61.5q-150 0 -268.5 56.5t-187.5 156.5t-68 231h124q-1 -96 51.5 -169.5t143.5 -116t205 -42.5q110 0 201 47t144.5 150t54.5 272v1491z" />
    <glyph glyph-name="uni01C8" unicode="&#x1c8;" horiz-adv-x="2223" 
d="M296 0v2048h125v-1932h1000v-116h-1125zM1843 1536h121v-1723q0 -119 -49 -206.5t-134.5 -135t-197.5 -47.5q-8 0 -17 0.5t-21 2.5l6 113h15h15q112 0 187 72.5t75 200.5v1723zM1903 1808q-41 0 -70 28t-29 68t29 68t70 28q40 0 69 -28t29 -68t-29 -68t-69 -28z" />
    <glyph glyph-name="uni01C9" unicode="&#x1c9;" horiz-adv-x="1215" 
d="M375 2048v-2048h-122v2048h122zM900 1536h121v-1723q0 -119 -49 -206.5t-134.5 -135t-197.5 -47.5q-8 0 -17 0.5t-21 2.5l6 113h15h15q112 0 187 72.5t75 200.5v1723zM960 1808q-41 0 -70 28t-29 68t29 68t70 28q40 0 69 -28t29 -68t-29 -68t-69 -28z" />
    <glyph glyph-name="uni01CA" unicode="&#x1ca;" horiz-adv-x="3643" 
d="M1861 2048v-2048h-122l-1306 1821h-12v-1821h-125v2048h123l1306 -1823h12v1823h124zM3221 2048h125v-1491q0 -204 -70.5 -333t-189 -190.5t-265.5 -61.5q-150 0 -268.5 56.5t-187.5 156.5t-68 231h124q-1 -96 51.5 -169.5t143.5 -116t205 -42.5q110 0 201 47t144.5 150
t54.5 272v1491z" />
    <glyph glyph-name="uni01CB" unicode="&#x1cb;" horiz-adv-x="2775" 
d="M1861 2048v-2048h-122l-1306 1821h-12v-1821h-125v2048h123l1306 -1823h12v1823h124zM2395 1536h121v-1723q0 -119 -49 -206.5t-134.5 -135t-197.5 -47.5q-8 0 -17 0.5t-21 2.5l6 113h15h15q112 0 187 72.5t75 200.5v1723zM2455 1808q-41 0 -70 28t-29 68t29 68t70 28
q40 0 69 -28t29 -68t-29 -68t-69 -28z" />
    <glyph glyph-name="uni01CC" unicode="&#x1cc;" horiz-adv-x="2255" 
d="M375 996v-996h-122v1536h119v-243h12q54 119 173 191t283 72q155 0 272.5 -66t184 -187.5t66.5 -289.5v-1013h-122v1008q0 196 -116.5 315.5t-307.5 119.5q-128 0 -228 -56t-157 -156.5t-57 -234.5zM1875 1536h121v-1723q0 -119 -49 -206.5t-134.5 -135t-197.5 -47.5
q-8 0 -17 0.5t-21 2.5l6 113h15h15q112 0 187 72.5t75 200.5v1723zM1935 1808q-41 0 -70 28t-29 68t29 68t70 28q40 0 69 -28t29 -68t-29 -68t-69 -28z" />
    <glyph glyph-name="uni01CD" unicode="&#x1cd;" horiz-adv-x="1792" 
d="M217 0h-132l739 2048h144l739 -2048h-132l-674 1887h-10zM404 771h984v-116h-984v116zM627 2650l269 -298l269 298h126v-10l-354 -390h-82l-354 390v10h126z" />
    <glyph glyph-name="uni01CE" unicode="&#x1ce;" horiz-adv-x="1545" 
d="M660 -33q-133 0 -243.5 53t-177 155t-66.5 248q0 96 34 169t105 126t182 87.5t265 53.5q117 14 209 27.5t144.5 42.5t52.5 88v64q0 168 -106 267t-292 99q-165 0 -277.5 -72.5t-157.5 -186.5l-115 43q44 110 127.5 183t192 109t227.5 36q103 0 196.5 -29t167 -88
t116.5 -150.5t43 -218.5v-1073h-122v277h-9q-40 -86 -109.5 -156.5t-167 -112t-219.5 -41.5zM672 80q144 0 255.5 70.5t174.5 193.5t63 279v226q-23 -20 -66.5 -35.5t-98 -27t-114 -20t-115.5 -15.5q-168 -20 -273.5 -61.5t-154 -108.5t-48.5 -162q0 -157 108 -248t269 -91z
M511 2138l269 -298l269 298h126v-10l-354 -390h-82l-354 390v10h126z" />
    <glyph glyph-name="uni01CF" unicode="&#x1cf;" horiz-adv-x="717" 
d="M421 2048v-2048h-125v2048h125zM90 2650l269 -298l269 298h126v-10l-354 -390h-82l-354 390v10h126z" />
    <glyph glyph-name="uni01D0" unicode="&#x1d0;" horiz-adv-x="639" 
d="M259 0v1536h121v-1536h-121zM51 2138l269 -298l269 298h126v-10l-354 -390h-82l-354 390v10h126z" />
    <glyph glyph-name="uni01D1" unicode="&#x1d1;" horiz-adv-x="2117" 
d="M1925 1024q0 -317 -110 -553.5t-305.5 -367.5t-450.5 -131q-256 0 -451.5 131.5t-305.5 368t-110 552.5q0 317 110.5 553t305.5 367.5t451 131.5q255 0 450.5 -131t305.5 -367.5t110 -553.5zM1803 1024q0 285 -95.5 494t-263.5 323.5t-385 114.5t-385 -113.5t-263.5 -323
t-95.5 -495.5q0 -283 94.5 -492.5t262.5 -324.5t387 -115q217 0 385 114.5t263.5 323.5t95.5 494zM790 2650l269 -298l269 298h126v-10l-354 -390h-82l-354 390v10h126z" />
    <glyph glyph-name="uni01D2" unicode="&#x1d2;" horiz-adv-x="1648" 
d="M824 -32q-190 0 -338 102.5t-233 282.5t-85 410q0 231 85 410.5t233 282.5t338 103t338 -103t233 -283t85 -410t-85 -410t-233 -282.5t-338 -102.5zM824 81q161 0 281.5 91t187 246t66.5 345t-67 344.5t-187 246t-281 91.5t-281 -91.5t-187 -246t-67 -344.5t66.5 -345
t187 -246t281.5 -91zM555 2138l269 -298l269 298h126v-10l-354 -390h-82l-354 390v10h126z" />
    <glyph glyph-name="uni01D3" unicode="&#x1d3;" horiz-adv-x="2104" 
d="M1683 2048h125v-1356q0 -209 -97 -372.5t-267.5 -258t-391.5 -94.5q-220 0 -391 94.5t-268.5 258.5t-96.5 372v1356h125v-1349q0 -177 80.5 -315t222.5 -217.5t328 -79.5t328 79.5t222.5 217.5t80.5 315v1349zM783 2650l269 -298l269 298h126v-10l-354 -390h-82l-354 390
v10h126z" />
    <glyph glyph-name="uni01D4" unicode="&#x1d4;" horiz-adv-x="1612" 
d="M1237 545v991h122v-1536h-122v249h-10q-54 -119 -174.5 -194t-284.5 -75q-151 0 -267 66t-182 187.5t-66 289.5v1013h122v-1008q0 -192 116.5 -310.5t301.5 -118.5q120 0 221 54t162 154.5t61 237.5zM538 2138l269 -298l269 298h126v-10l-354 -390h-82l-354 390v10h126z
" />
    <glyph glyph-name="uni01D5" unicode="&#x1d5;" horiz-adv-x="2104" 
d="M1683 2048h125v-1356q0 -209 -97 -372.5t-267.5 -258t-391.5 -94.5q-220 0 -391 94.5t-268.5 258.5t-96.5 372v1356h125v-1349q0 -177 80.5 -315t222.5 -217.5t328 -79.5t328 79.5t222.5 217.5t80.5 315v1349zM829 2320q-38 0 -67 29t-29 67q0 40 29 68t67 28
q41 0 68.5 -28t27.5 -68q0 -38 -27.5 -67t-68.5 -29zM1277 2320q-38 0 -67 29t-29 67q0 40 29 68t67 28q41 0 68.5 -28t27.5 -68q0 -38 -27.5 -67t-68.5 -29zM1424 2900v-109h-739v109h739z" />
    <glyph glyph-name="uni01D6" unicode="&#x1d6;" horiz-adv-x="1612" 
d="M1237 545v991h122v-1536h-122v249h-10q-54 -119 -174.5 -194t-284.5 -75q-151 0 -267 66t-182 187.5t-66 289.5v1013h122v-1008q0 -192 116.5 -310.5t301.5 -118.5q120 0 221 54t162 154.5t61 237.5zM584 1808q-38 0 -67 28.5t-29 67.5q0 40 29 68t67 28q40 0 68 -28
t28 -68q0 -39 -28 -67.5t-68 -28.5zM1032 1808q-38 0 -67 28.5t-29 67.5q0 40 29 68t67 28q40 0 68 -28t28 -68q0 -39 -28 -67.5t-68 -28.5zM1179 2388v-110h-739v110h739z" />
    <glyph glyph-name="uni01D7" unicode="&#x1d7;" horiz-adv-x="2104" 
d="M1683 2048h125v-1356q0 -209 -97 -372.5t-267.5 -258t-391.5 -94.5q-220 0 -391 94.5t-268.5 258.5t-96.5 372v1356h125v-1349q0 -177 80.5 -315t222.5 -217.5t328 -79.5t328 79.5t222.5 217.5t80.5 315v1349zM990 2576l254 272h154l-288 -272h-120zM828 2229
q-38 0 -67 29t-29 67q0 41 29 68.5t67 27.5q41 0 68.5 -27.5t27.5 -68.5q0 -38 -27.5 -67t-68.5 -29zM1276 2229q-38 0 -67 29t-29 67q0 41 29 68.5t67 27.5q41 0 68.5 -27.5t27.5 -68.5q0 -38 -27.5 -67t-68.5 -29z" />
    <glyph glyph-name="uni01D8" unicode="&#x1d8;" horiz-adv-x="1612" 
d="M1237 545v991h122v-1536h-122v249h-10q-54 -119 -174.5 -194t-284.5 -75q-151 0 -267 66t-182 187.5t-66 289.5v1013h122v-1008q0 -192 116.5 -310.5t301.5 -118.5q120 0 221 54t162 154.5t61 237.5zM583 1808q-39 0 -67.5 29t-28.5 67q0 40 28.5 68t67.5 28q40 0 68 -28
t28 -68q0 -38 -28 -67t-68 -29zM1031 1808q-39 0 -67.5 29t-28.5 67q0 40 28.5 68t67.5 28q40 0 68 -28t28 -68q0 -38 -28 -67t-68 -29zM748 2133l268 443h145l-301 -443h-112z" />
    <glyph glyph-name="uni01D9" unicode="&#x1d9;" horiz-adv-x="2104" 
d="M1683 2048h125v-1356q0 -209 -97 -372.5t-267.5 -258t-391.5 -94.5q-220 0 -391 94.5t-268.5 258.5t-96.5 372v1356h125v-1349q0 -177 80.5 -315t222.5 -217.5t328 -79.5t328 79.5t222.5 217.5t80.5 315v1349zM683 2395q-18 22 -17 49.5t26 44.5q26 18 52.5 15.5
t43.5 -24.5q17 -21 16.5 -48t-26.5 -44t-52 -15t-43 22zM1313 2394q-17 22 -16 49.5t27 44.5q25 17 51 15t44 -23q17 -20 16.5 -48t-26.5 -45q-26 -18 -52 -15.5t-44 22.5zM781 2871l267 -239l267 239h129v-14l-363 -324h-66l-362 323v15h128z" />
    <glyph glyph-name="uni01DA" unicode="&#x1da;" horiz-adv-x="1612" 
d="M1237 545v991h122v-1536h-122v249h-10q-54 -119 -174.5 -194t-284.5 -75q-151 0 -267 66t-182 187.5t-66 289.5v1013h122v-1008q0 -192 116.5 -310.5t301.5 -118.5q120 0 221 54t162 154.5t61 237.5zM408 1896q0 37 26 65t69 28t69.5 -27.5t26.5 -65.5t-26.5 -65
t-69.5 -27q-42 0 -68.5 27t-26.5 65zM1020 1895q0 38 26.5 66t69.5 28q44 0 70 -28t26 -66t-26 -65t-70 -27q-43 0 -69.5 27t-26.5 65zM540 2508l267 -283l267 283h129v-11l-363 -377h-66l-362 377v11h128z" />
    <glyph glyph-name="uni01DB" unicode="&#x1db;" horiz-adv-x="2104" 
d="M1683 2048h125v-1356q0 -209 -97 -372.5t-267.5 -258t-391.5 -94.5q-220 0 -391 94.5t-268.5 258.5t-96.5 372v1356h125v-1349q0 -177 80.5 -315t222.5 -217.5t328 -79.5t328 79.5t222.5 217.5t80.5 315v1349zM940 2736l177 -285h-101l-214 285h138zM724 2398
q0 39 26 66.5t68 27.5q44 0 70 -27.5t26 -67.5q0 -38 -26 -65t-69 -27q-44 0 -69.5 27.5t-25.5 65.5zM1194 2397q0 39 26.5 66.5t69.5 27.5t69 -27.5t26 -66.5q0 -37 -25.5 -65t-69.5 -28q-43 0 -69.5 27.5t-26.5 65.5z" />
    <glyph glyph-name="uni01DC" unicode="&#x1dc;" horiz-adv-x="1612" 
d="M1237 545v991h122v-1536h-122v249h-10q-54 -119 -174.5 -194t-284.5 -75q-151 0 -267 66t-182 187.5t-66 289.5v1013h122v-1008q0 -192 116.5 -310.5t301.5 -118.5q120 0 221 54t162 154.5t61 237.5zM489 1896q0 37 25.5 65t69.5 28q43 0 69.5 -27.5t26.5 -65.5
t-26.5 -65t-69.5 -27t-69 27t-26 65zM941 1895q0 38 26.5 66t69.5 28t69.5 -28t26.5 -66t-26.5 -65t-69.5 -27t-69.5 27t-26.5 65zM641 2355l248 -358h-121l-291 358h164z" />
    <glyph glyph-name="uni01DD" unicode="&#x1dd;" horiz-adv-x="1629" 
d="M777 1568q209 0 362.5 -103t237.5 -282t84 -408q0 -230 -84.5 -410t-232 -284t-337.5 -104q-130 0 -245 51.5t-204 148.5t-139.5 234t-50.5 308v76h1216v-111h-1093q0 -166 67.5 -300.5t185 -213.5t263.5 -79q152 0 271.5 85.5t189 231t72.5 323.5v50q0 193 -67 345
t-193 240.5t-303 88.5q-124 0 -214 -42.5t-147.5 -103.5t-86.5 -118l-110 45q34 77 108 153.5t186.5 127.5t263.5 51z" />
    <glyph glyph-name="uni01DE" unicode="&#x1de;" horiz-adv-x="1792" 
d="M217 0h-132l739 2048h144l739 -2048h-132l-674 1887h-10zM404 771h984v-116h-984v116zM673 2320q-38 0 -67 29t-29 67q0 40 29 68t67 28q41 0 68.5 -28t27.5 -68q0 -38 -27.5 -67t-68.5 -29zM1121 2320q-38 0 -67 29t-29 67q0 40 29 68t67 28q41 0 68.5 -28t27.5 -68
q0 -38 -27.5 -67t-68.5 -29zM1268 2900v-109h-739v109h739z" />
    <glyph glyph-name="uni01DF" unicode="&#x1df;" horiz-adv-x="1545" 
d="M660 -33q-133 0 -243.5 53t-177 155t-66.5 248q0 96 34 169t105 126t182 87.5t265 53.5q117 14 209 27.5t144.5 42.5t52.5 88v64q0 168 -106 267t-292 99q-165 0 -277.5 -72.5t-157.5 -186.5l-115 43q44 110 127.5 183t192 109t227.5 36q103 0 196.5 -29t167 -88
t116.5 -150.5t43 -218.5v-1073h-122v277h-9q-40 -86 -109.5 -156.5t-167 -112t-219.5 -41.5zM672 80q144 0 255.5 70.5t174.5 193.5t63 279v226q-23 -20 -66.5 -35.5t-98 -27t-114 -20t-115.5 -15.5q-168 -20 -273.5 -61.5t-154 -108.5t-48.5 -162q0 -157 108 -248t269 -91z
M557 1808q-38 0 -67 28.5t-29 67.5q0 40 29 68t67 28q40 0 68 -28t28 -68q0 -39 -28 -67.5t-68 -28.5zM1005 1808q-38 0 -67 28.5t-29 67.5q0 40 29 68t67 28q40 0 68 -28t28 -68q0 -39 -28 -67.5t-68 -28.5zM1152 2388v-110h-739v110h739z" />
    <glyph glyph-name="uni01E0" unicode="&#x1e0;" horiz-adv-x="1792" 
d="M217 0h-132l739 2048h144l739 -2048h-132l-674 1887h-10zM404 771h984v-116h-984v116zM896 2320q-39 0 -68.5 28.5t-29.5 67.5q0 40 29.5 68t68.5 28q41 0 70 -28t29 -68q0 -39 -29 -67.5t-70 -28.5zM1266 2900v-109h-739v109h739z" />
    <glyph glyph-name="uni01E1" unicode="&#x1e1;" horiz-adv-x="1545" 
d="M660 -33q-133 0 -243.5 53t-177 155t-66.5 248q0 96 34 169t105 126t182 87.5t265 53.5q117 14 209 27.5t144.5 42.5t52.5 88v64q0 168 -106 267t-292 99q-165 0 -277.5 -72.5t-157.5 -186.5l-115 43q44 110 127.5 183t192 109t227.5 36q103 0 196.5 -29t167 -88
t116.5 -150.5t43 -218.5v-1073h-122v277h-9q-40 -86 -109.5 -156.5t-167 -112t-219.5 -41.5zM672 80q144 0 255.5 70.5t174.5 193.5t63 279v226q-23 -20 -66.5 -35.5t-98 -27t-114 -20t-115.5 -15.5q-168 -20 -273.5 -61.5t-154 -108.5t-48.5 -162q0 -157 108 -248t269 -91z
M1150 2408v-109h-738v109h738zM781 1828q-40 0 -69.5 28.5t-29.5 67.5q0 40 29.5 68t69.5 28q41 0 70 -28t29 -68q0 -39 -29 -67.5t-70 -28.5z" />
    <glyph glyph-name="uni01E2" unicode="&#x1e2;" horiz-adv-x="2729" 
d="M85 0l1027 2048h1396v-116h-1015v-849h954v-116h-954v-851h1039v-116h-1164v1932h-183l-961 -1932h-139zM497 655v116h936v-116h-936zM2128 2469v-109h-739v109h739z" />
    <glyph glyph-name="uni01E3" unicode="&#x1e3;" horiz-adv-x="2599" 
d="M1821 -32q-239 0 -403 133t-223 346l28 697q75 189 223.5 302t345.5 113q129 0 244 -52t204 -148.5t140 -233.5t51 -308v-76h-1208v111h1085q0 166 -68 300.5t-184.5 213.5t-263.5 79q-152 0 -271.5 -85.5t-189.5 -231t-72 -323.5v-50q0 -193 67 -345t193 -240.5
t302 -88.5q126 0 215.5 42.5t147 103.5t85.5 118l111 -45q-35 -77 -108 -153.5t-186 -127.5t-265 -51zM672 80q144 0 255.5 70.5t174.5 193.5t63 279v226q-23 -20 -66.5 -35.5t-98 -27t-114 -20t-115.5 -15.5q-168 -20 -273.5 -61.5t-154 -108.5t-48.5 -162q0 -157 108 -248
t269 -91zM660 -33q-133 0 -243.5 53t-177 155t-66.5 248q0 96 34.5 169t105 126t181.5 87.5t265 53.5q117 14 209 28t144.5 43t52.5 87v64q0 167 -106 266.5t-292 99.5q-164 0 -277 -72.5t-158 -186.5l-115 43q44 110 127.5 183t192 109t227.5 36q99 0 186.5 -27t157 -79.5
t114 -130t55.5 -179.5l-30 -730h-15q-41 -151 -129.5 -250t-204.5 -147.5t-238 -48.5zM1664 1957v-109h-739v109h739z" />
    <glyph glyph-name="uni01E4" unicode="&#x1e4;" horiz-adv-x="2084" 
d="M2019 581v-109h-920v109h920zM1731 1408q-23 104 -78 201.5t-140.5 176t-200 124.5t-256.5 46q-217 0 -384.5 -113.5t-262 -323t-94.5 -495.5q0 -283 94 -493t263.5 -324.5t394.5 -114.5q201 0 356.5 93t242.5 266t85 414l44 -21h-696v116h774v-116q0 -271 -103.5 -466.5
t-286 -300.5t-416.5 -105q-264 0 -461 131t-305.5 367.5t-108.5 553.5q0 238 62 432t177 332.5t274 213t351 74.5q174 0 313 -57.5t240.5 -154t164.5 -215t85 -241.5h-128z" />
    <glyph glyph-name="uni01E5" unicode="&#x1e5;" horiz-adv-x="1668" 
d="M807 -608q-143 0 -257 37.5t-193.5 106.5t-121.5 164l102 60q34 -74 97 -132t156.5 -91t216.5 -33q222 0 351.5 114.5t129.5 350.5v382h-12q-35 -100 -103.5 -177.5t-167.5 -121.5t-225 -44q-182 0 -320 94t-215 264.5t-77 401.5t75.5 409.5t213.5 280t324 101.5
q133 0 230.5 -50.5t163.5 -133.5t102 -182h14v343h118v-1572q0 -192 -75.5 -319t-211 -190t-315.5 -63zM791 121q154 0 265.5 78.5t172 224t60.5 345.5q0 194 -59 347t-171 241t-268 88q-159 0 -271 -89.5t-171.5 -242.5t-59.5 -344q0 -192 60 -337.5t172 -228t270 -82.5z
M951 719v104h800v-104h-800z" />
    <glyph glyph-name="uni01E6" unicode="&#x1e6;" horiz-adv-x="2084" 
d="M1731 1408q-23 104 -78 201.5t-140.5 176t-200 124.5t-256.5 46q-217 0 -384.5 -113.5t-262 -323t-94.5 -495.5q0 -283 94 -493t263.5 -324.5t394.5 -114.5q201 0 356.5 93t242.5 266t85 414l44 -21h-696v116h774v-116q0 -271 -103.5 -466.5t-286 -300.5t-416.5 -105
q-264 0 -461 131t-305.5 367.5t-108.5 553.5q0 238 62 432t177 332.5t274 213t351 74.5q174 0 313 -57.5t240.5 -154t164.5 -215t85 -241.5h-128zM779 2650l269 -298l269 298h126v-10l-354 -390h-82l-354 390v10h126z" />
    <glyph glyph-name="uni01E7" unicode="&#x1e7;" horiz-adv-x="1668" 
d="M807 -608q-143 0 -257 37.5t-193.5 106.5t-121.5 164l102 60q34 -74 97 -132t156.5 -91t216.5 -33q222 0 351.5 114.5t129.5 350.5v382h-12q-35 -100 -103.5 -177.5t-167.5 -121.5t-225 -44q-182 0 -320 94t-215 264.5t-77 401.5t75.5 409.5t213.5 280t324 101.5
q133 0 230.5 -50.5t163.5 -133.5t102 -182h14v343h118v-1572q0 -192 -75.5 -319t-211 -190t-315.5 -63zM791 121q154 0 265.5 78.5t172 224t60.5 345.5q0 194 -59 347t-171 241t-268 88q-159 0 -271 -89.5t-171.5 -242.5t-59.5 -344q0 -192 60 -337.5t172 -228t270 -82.5z
M564 2138l269 -298l269 298h126v-10l-354 -390h-82l-354 390v10h126z" />
    <glyph glyph-name="uni01E8" unicode="&#x1e8;" horiz-adv-x="1769" 
d="M296 0v2048h125v-1189h14l1080 1189h166l-889 -969l881 -1079h-156l-805 989l-291 -322v-667h-125zM624 2650l269 -298l269 298h126v-10l-354 -390h-82l-354 390v10h126z" />
    <glyph glyph-name="uni01E9" unicode="&#x1e9;" horiz-adv-x="1425" 
d="M359 600l-2 175h32l768 761h159l-705 -700l-12 -5zM253 0v2048h122v-2048h-122zM1192 0l-648 819l88 81l716 -900h-156zM46 2650l269 -298l269 298h126v-10l-354 -390h-82l-354 390v10h126z" />
    <glyph glyph-name="uni01EA" unicode="&#x1ea;" horiz-adv-x="2117" 
d="M1925 1024q0 -317 -110 -553.5t-305.5 -367.5t-450.5 -131q-256 0 -451.5 131.5t-305.5 368t-110 552.5q0 317 110.5 553t305.5 367.5t451 131.5q255 0 450.5 -131t305.5 -367.5t110 -553.5zM1803 1024q0 285 -95.5 494t-263.5 323.5t-385 114.5t-385 -113.5t-263.5 -323
t-95.5 -495.5q0 -283 94.5 -492.5t262.5 -324.5t387 -115q217 0 385 114.5t263.5 323.5t95.5 494zM1061 -608q-109 0 -180.5 62t-71.5 182q0 73 30.5 139t90.5 128t147 122l79 -28q-99 -90 -161.5 -174t-62.5 -176q0 -74 39.5 -110t109.5 -36q45 0 78.5 13t64.5 34l31 -93
q-40 -28 -87 -45.5t-107 -17.5z" />
    <glyph glyph-name="uni01EB" unicode="&#x1eb;" horiz-adv-x="1648" 
d="M824 -32q-190 0 -338 102.5t-233 282.5t-85 410q0 231 85 410.5t233 282.5t338 103t338 -103t233 -283t85 -410t-85 -410t-233 -282.5t-338 -102.5zM824 81q161 0 281.5 91t187 246t66.5 345t-67 344.5t-187 246t-281 91.5t-281 -91.5t-187 -246t-67 -344.5t66.5 -345
t187 -246t281.5 -91zM833 -605q-109 0 -180.5 62t-71.5 182q0 73 30.5 139t90.5 127.5t147 122.5l79 -28q-99 -91 -161.5 -174.5t-62.5 -176.5q0 -73 39.5 -109t109.5 -36q45 0 78.5 12.5t64.5 34.5l31 -94q-40 -27 -87 -44.5t-107 -17.5z" />
    <glyph glyph-name="uni01EC" unicode="&#x1ec;" horiz-adv-x="2117" 
d="M1925 1024q0 -317 -110 -553.5t-305.5 -367.5t-450.5 -131q-256 0 -451.5 131.5t-305.5 368t-110 552.5q0 317 110.5 553t305.5 367.5t451 131.5q255 0 450.5 -131t305.5 -367.5t110 -553.5zM1803 1024q0 285 -95.5 494t-263.5 323.5t-385 114.5t-385 -113.5t-263.5 -323
t-95.5 -495.5q0 -283 94.5 -492.5t262.5 -324.5t387 -115q217 0 385 114.5t263.5 323.5t95.5 494zM1061 -608q-109 0 -180.5 62t-71.5 182q0 73 30.5 139t90.5 128t147 122l79 -28q-99 -90 -161.5 -174t-62.5 -176q0 -74 39.5 -110t109.5 -36q45 0 78.5 13t64.5 34l31 -93
q-40 -28 -87 -45.5t-107 -17.5zM1428 2469v-109h-739v109h739z" />
    <glyph glyph-name="uni01ED" unicode="&#x1ed;" horiz-adv-x="1648" 
d="M824 -32q-190 0 -338 102.5t-233 282.5t-85 410q0 231 85 410.5t233 282.5t338 103t338 -103t233 -283t85 -410t-85 -410t-233 -282.5t-338 -102.5zM824 81q161 0 281.5 91t187 246t66.5 345t-67 344.5t-187 246t-281 91.5t-281 -91.5t-187 -246t-67 -344.5t66.5 -345
t187 -246t281.5 -91zM833 -605q-109 0 -180.5 62t-71.5 182q0 73 30.5 139t90.5 127.5t147 122.5l79 -28q-99 -91 -161.5 -174.5t-62.5 -176.5q0 -73 39.5 -109t109.5 -36q45 0 78.5 12.5t64.5 34.5l31 -94q-40 -27 -87 -44.5t-107 -17.5zM1194 1957v-109h-739v109h739z" />
    <glyph glyph-name="uni01EE" unicode="&#x1ee;" horiz-adv-x="1941" 
d="M160 96h127q3 -171 92 -303.5t238.5 -207.5t333.5 -75q196 0 347 91.5t236.5 250.5t85.5 361q0 217 -103 382.5t-284.5 261.5t-418.5 103h-113v112l823 878v-19h-1253v117h1410v-95l-814 -873v-12q260 -11 457.5 -123.5t308.5 -301.5t111 -428q0 -166 -54 -314
t-157 -262.5t-250.5 -180t-333.5 -65.5q-217 0 -394.5 89.5t-284 248t-110.5 365.5zM702 2650l269 -298l269 298h126v-10l-354 -390h-82l-354 390v10h126z" />
    <glyph glyph-name="uni01EF" unicode="&#x1ef;" horiz-adv-x="1715" 
d="M209 0h127q4 -127 72 -222.5t182.5 -148.5t256.5 -53q158 0 273 64t177.5 173t62.5 246q0 142 -72 254t-218 177.5t-367 65.5h-58v109l600 744v11h-946v116h1124v-95l-620 -770v-11q150 -7 274.5 -51.5t215.5 -123t141 -186.5t50 -240q0 -167 -79 -302.5t-222 -216
t-338 -80.5q-175 0 -318 68t-228.5 189.5t-89.5 282.5zM588 2138l269 -298l269 298h126v-10l-354 -390h-82l-354 390v10h126z" />
    <glyph glyph-name="uni01F0" unicode="&#x1f0;" horiz-adv-x="639" 
d="M259 1536h121v-1723q0 -119 -49 -206.5t-134.5 -135t-197.5 -47.5q-8 0 -17 0.5t-21 2.5l6 113h15h15q112 0 187 72.5t75 200.5v1723zM50 2138l269 -298l269 298h126v-10l-354 -390h-82l-354 390v10h126z" />
    <glyph glyph-name="uni01F1" unicode="&#x1f1;" horiz-adv-x="3739" 
d="M864 0h-568v2048h612q288 0 493 -122t314.5 -349.5t108.5 -545.5q-1 -325 -114 -555.5t-327 -353t-519 -122.5zM421 116h438q274 0 462 109.5t284.5 314.5t95.5 491q0 282 -93 483.5t-270.5 309.5t-434.5 108h-482v-1816zM2217 0v103l1171 1829h-1169v116h1318v-103
l-1170 -1829h1180v-116h-1330z" />
    <glyph glyph-name="uni01F2" unicode="&#x1f2;" horiz-adv-x="3479" 
d="M864 0h-568v2048h612q288 0 493 -122t314.5 -349.5t108.5 -545.5q-1 -325 -114 -555.5t-327 -353t-519 -122.5zM421 116h438q274 0 462 109.5t284.5 314.5t95.5 491q0 282 -93 483.5t-270.5 309.5t-434.5 108h-482v-1816zM2217 0v103l904 1306v11h-854v116h1009v-105
l-896 -1304v-11h932v-116h-1095z" />
    <glyph glyph-name="uni01F3" unicode="&#x1f3;" horiz-adv-x="2929" 
d="M780 -32q-185 0 -323 102t-213.5 281.5t-75.5 412.5q0 231 76.5 410.5t214.5 282t322 102.5q132 0 229.5 -50.5t164 -133.5t101.5 -182h12v855h121v-2048h-118v335h-15q-37 -99 -103 -182.5t-164 -134t-229 -50.5zM791 81q156 0 267.5 89.5t171 244t59.5 350.5
t-59.5 349.5t-171 242t-267.5 88.5q-158 0 -270.5 -89.5t-172 -243.5t-59.5 -347t59.5 -348t172 -245.5t270.5 -90.5zM1668 0v103l904 1306v11h-854v116h1009v-105l-896 -1304v-11h932v-116h-1095z" />
    <glyph glyph-name="uni01F4" unicode="&#x1f4;" horiz-adv-x="2084" 
d="M1731 1408q-23 104 -78 201.5t-140.5 176t-200 124.5t-256.5 46q-217 0 -384.5 -113.5t-262 -323t-94.5 -495.5q0 -283 94 -493t263.5 -324.5t394.5 -114.5q201 0 356.5 93t242.5 266t85 414l44 -21h-696v116h774v-116q0 -271 -103.5 -466.5t-286 -300.5t-416.5 -105
q-264 0 -461 131t-305.5 367.5t-108.5 553.5q0 238 62 432t177 332.5t274 213t351 74.5q174 0 313 -57.5t240.5 -154t164.5 -215t85 -241.5h-128zM989 2267l268 442h145l-301 -442h-112z" />
    <glyph glyph-name="uni01F5" unicode="&#x1f5;" horiz-adv-x="1668" 
d="M807 -608q-143 0 -257 37.5t-193.5 106.5t-121.5 164l102 60q34 -74 97 -132t156.5 -91t216.5 -33q222 0 351.5 114.5t129.5 350.5v382h-12q-35 -100 -103.5 -177.5t-167.5 -121.5t-225 -44q-182 0 -320 94t-215 264.5t-77 401.5t75.5 409.5t213.5 280t324 101.5
q133 0 230.5 -50.5t163.5 -133.5t102 -182h14v343h118v-1572q0 -192 -75.5 -319t-211 -190t-315.5 -63zM791 121q154 0 265.5 78.5t172 224t60.5 345.5q0 194 -59 347t-171 241t-268 88q-159 0 -271 -89.5t-171.5 -242.5t-59.5 -344q0 -192 60 -337.5t172 -228t270 -82.5z
M775 1755l268 442h145l-301 -442h-112z" />
    <glyph glyph-name="uni01F6" unicode="&#x1f6;" horiz-adv-x="3125" 
d="M2271 -31q-182 0 -321 70.5t-217 215t-78 366.5v346h-1234v-967h-125v2048h125v-965h1234v965h125v-1427q0 -271 128.5 -401.5t362.5 -131.5q235 -1 355.5 130.5t120.5 402.5v942h125v-942q0 -230 -77.5 -374t-213 -211t-310.5 -67z" />
    <glyph glyph-name="uni01F7" unicode="&#x1f7;" horiz-adv-x="1491" 
d="M241 2048v-2624h-138v2624h138zM161 -208v119q272 58 475 173t339 278t204 366t68 436v45q0 195 -37.5 336.5t-111 232.5t-183 134.5t-254.5 43.5q-112 0 -198.5 -28t-151 -80.5t-112.5 -126.5l-20 219q93 66 214.5 101t265.5 35q234 0 395.5 -94t246 -286.5t84.5 -490.5
v-38q0 -272 -84.5 -500.5t-244.5 -406t-386 -296.5t-509 -172z" />
    <glyph glyph-name="uni01F8" unicode="&#x1f8;" horiz-adv-x="2157" 
d="M1861 2048v-2048h-122l-1306 1821h-12v-1821h-125v2048h123l1306 -1823h12v1823h124zM1025 2267l-301 442h145l268 -442h-112z" />
    <glyph glyph-name="uni01F9" unicode="&#x1f9;" horiz-adv-x="1616" 
d="M375 996v-996h-122v1536h119v-243h12q54 119 173 191t283 72q155 0 272.5 -66t184 -187.5t66.5 -289.5v-1013h-122v1008q0 196 -116.5 315.5t-307.5 119.5q-128 0 -228 -56t-157 -156.5t-57 -234.5zM757 1755l-301 442h145l268 -442h-112z" />
    <glyph glyph-name="uni01FA" unicode="&#x1fa;" horiz-adv-x="1792" 
d="M217 0h-132l739 2048h144l739 -2048h-132l-674 1887h-10zM404 771h984v-116h-984v116zM837 2713l173 211h138l-204 -211h-107zM896 2162q-104 0 -176.5 69t-72.5 167q0 66 33.5 119.5t90 85.5t125.5 32q103 0 175.5 -69t72.5 -168q0 -65 -33 -118.5t-89.5 -85.5
t-125.5 -32zM896 2248q66 0 111.5 43.5t45.5 106.5t-45.5 106.5t-112.5 43.5q-66 0 -111.5 -43.5t-45.5 -106.5t46 -106.5t112 -43.5z" />
    <glyph glyph-name="uni01FB" unicode="&#x1fb;" horiz-adv-x="1545" 
d="M660 -33q-133 0 -243.5 53t-177 155t-66.5 248q0 96 34 169t105 126t182 87.5t265 53.5q117 14 209 27.5t144.5 42.5t52.5 88v64q0 168 -106 267t-292 99q-165 0 -277.5 -72.5t-157.5 -186.5l-115 43q44 110 127.5 183t192 109t227.5 36q103 0 196.5 -29t167 -88
t116.5 -150.5t43 -218.5v-1073h-122v277h-9q-40 -86 -109.5 -156.5t-167 -112t-219.5 -41.5zM672 80q144 0 255.5 70.5t174.5 193.5t63 279v226q-23 -20 -66.5 -35.5t-98 -27t-114 -20t-115.5 -15.5q-168 -20 -273.5 -61.5t-154 -108.5t-48.5 -162q0 -157 108 -248t269 -91z
M721 2201l173 211h138l-204 -211h-107zM780 1650q-104 0 -176.5 69t-72.5 167q0 66 33.5 119.5t90 85.5t125.5 32q103 0 175.5 -69t72.5 -168q0 -65 -33 -118.5t-89.5 -85.5t-125.5 -32zM780 1736q66 0 111.5 43.5t45.5 106.5t-45.5 106.5t-112.5 43.5q-66 0 -111.5 -43.5
t-45.5 -106.5t46 -106.5t112 -43.5z" />
    <glyph glyph-name="uni01FC" unicode="&#x1fc;" horiz-adv-x="2729" 
d="M85 0l1027 2048h1396v-116h-1015v-849h954v-116h-954v-851h1039v-116h-1164v1932h-183l-961 -1932h-139zM497 655v116h936v-116h-936zM1700 2267l268 442h145l-301 -442h-112z" />
    <glyph glyph-name="uni01FD" unicode="&#x1fd;" horiz-adv-x="2599" 
d="M1821 -32q-239 0 -403 133t-223 346l28 697q75 189 223.5 302t345.5 113q129 0 244 -52t204 -148.5t140 -233.5t51 -308v-76h-1208v111h1085q0 166 -68 300.5t-184.5 213.5t-263.5 79q-152 0 -271.5 -85.5t-189.5 -231t-72 -323.5v-50q0 -193 67 -345t193 -240.5
t302 -88.5q126 0 215.5 42.5t147 103.5t85.5 118l111 -45q-35 -77 -108 -153.5t-186 -127.5t-265 -51zM672 80q144 0 255.5 70.5t174.5 193.5t63 279v226q-23 -20 -66.5 -35.5t-98 -27t-114 -20t-115.5 -15.5q-168 -20 -273.5 -61.5t-154 -108.5t-48.5 -162q0 -157 108 -248
t269 -91zM660 -33q-133 0 -243.5 53t-177 155t-66.5 248q0 96 34.5 169t105 126t181.5 87.5t265 53.5q117 14 209 28t144.5 43t52.5 87v64q0 167 -106 266.5t-292 99.5q-164 0 -277 -72.5t-158 -186.5l-115 43q44 110 127.5 183t192 109t227.5 36q99 0 186.5 -27t157 -79.5
t114 -130t55.5 -179.5l-30 -730h-15q-41 -151 -129.5 -250t-204.5 -147.5t-238 -48.5zM1236 1755l268 442h145l-301 -442h-112z" />
    <glyph glyph-name="uni01FE" unicode="&#x1fe;" horiz-adv-x="2117" 
d="M403 -60l-86 59l1395 2108l85 -59zM1925 1024q0 -317 -110 -553.5t-305.5 -367.5t-450.5 -131q-256 0 -451.5 131.5t-305.5 368t-110 552.5q0 317 110.5 553t305.5 367.5t451 131.5q255 0 450.5 -131t305.5 -367.5t110 -553.5zM1803 1024q0 285 -95.5 494t-263.5 323.5
t-385 114.5t-385 -113.5t-263.5 -323t-95.5 -495.5q0 -283 94.5 -492.5t262.5 -324.5t387 -115q217 0 385 114.5t263.5 323.5t95.5 494zM1000 2267l268 442h145l-301 -442h-112z" />
    <glyph glyph-name="uni01FF" unicode="&#x1ff;" horiz-adv-x="1648" 
d="M335 -55l-88 59l1066 1583l88 -59zM824 -29q-190 0 -338 102.5t-233 282t-85 409.5q0 232 85 411.5t233 282t338 102.5t338 -103t233 -282.5t85 -410.5q0 -230 -85 -409.5t-233 -282t-338 -102.5zM824 84q161 0 281.5 91t187 245.5t66.5 344.5t-67 345t-187 246.5
t-281 91.5t-281 -91.5t-187 -246.5t-67 -345t66.5 -344.5t187 -245.5t281.5 -91zM765 1758l268 442h145l-301 -442h-112z" />
    <glyph glyph-name="uni0200" unicode="&#x200;" horiz-adv-x="1792" 
d="M217 0h-132l739 2048h144l739 -2048h-132l-674 1887h-10zM404 771h984v-116h-984v116zM710 2267l-321 442h153l280 -442h-112zM998 2267l-251 442h152l210 -442h-111z" />
    <glyph glyph-name="uni0201" unicode="&#x201;" horiz-adv-x="1545" 
d="M660 -33q-133 0 -243.5 53t-177 155t-66.5 248q0 96 34 169t105 126t182 87.5t265 53.5q117 14 209 27.5t144.5 42.5t52.5 88v64q0 168 -106 267t-292 99q-165 0 -277.5 -72.5t-157.5 -186.5l-115 43q44 110 127.5 183t192 109t227.5 36q103 0 196.5 -29t167 -88
t116.5 -150.5t43 -218.5v-1073h-122v277h-9q-40 -86 -109.5 -156.5t-167 -112t-219.5 -41.5zM672 80q144 0 255.5 70.5t174.5 193.5t63 279v226q-23 -20 -66.5 -35.5t-98 -27t-114 -20t-115.5 -15.5q-168 -20 -273.5 -61.5t-154 -108.5t-48.5 -162q0 -157 108 -248t269 -91z
M594 1755l-321 442h153l280 -442h-112zM882 1755l-251 442h152l210 -442h-111z" />
    <glyph glyph-name="uni0202" unicode="&#x202;" horiz-adv-x="1792" 
d="M217 0h-132l739 2048h144l739 -2048h-132l-674 1887h-10zM404 771h984v-116h-984v116zM612 2374q0 124 77 200t211 76t210.5 -76t76.5 -200h-116q0 80 -42.5 128t-128.5 48q-88 0 -130 -48.5t-42 -127.5h-116z" />
    <glyph glyph-name="uni0203" unicode="&#x203;" horiz-adv-x="1545" 
d="M660 -33q-133 0 -243.5 53t-177 155t-66.5 248q0 96 34 169t105 126t182 87.5t265 53.5q117 14 209 27.5t144.5 42.5t52.5 88v64q0 168 -106 267t-292 99q-165 0 -277.5 -72.5t-157.5 -186.5l-115 43q44 110 127.5 183t192 109t227.5 36q103 0 196.5 -29t167 -88
t116.5 -150.5t43 -218.5v-1073h-122v277h-9q-40 -86 -109.5 -156.5t-167 -112t-219.5 -41.5zM672 80q144 0 255.5 70.5t174.5 193.5t63 279v226q-23 -20 -66.5 -35.5t-98 -27t-114 -20t-115.5 -15.5q-168 -20 -273.5 -61.5t-154 -108.5t-48.5 -162q0 -157 108 -248t269 -91z
M496 1862q0 124 77 200t211 76t210.5 -76t76.5 -200h-116q0 80 -42.5 128t-128.5 48q-88 0 -130 -48.5t-42 -127.5h-116z" />
    <glyph glyph-name="uni0204" unicode="&#x204;" horiz-adv-x="1657" 
d="M296 0v2048h1140v-116h-1015v-849h954v-116h-954v-851h1039v-116h-1164zM683 2267l-321 442h153l280 -442h-112zM971 2267l-251 442h152l210 -442h-111z" />
    <glyph glyph-name="uni0205" unicode="&#x205;" horiz-adv-x="1629" 
d="M852 -32q-208 0 -362 103t-238 282t-84 408q0 230 84.5 410t232.5 284t338 104q129 0 244.5 -51.5t204 -148.5t139 -234t50.5 -308v-76h-1216v111h1094q0 167 -68 301t-185 213t-263 79q-153 0 -272.5 -85.5t-189 -230.5t-72.5 -324v-50q0 -192 67.5 -344.5t193.5 -241
t302 -88.5q126 0 215.5 42.5t146.5 103.5t86 118l111 -45q-35 -77 -108.5 -153.5t-186 -127.5t-264.5 -51zM630 1755l-321 442h153l280 -442h-112zM918 1755l-251 442h152l210 -442h-111z" />
    <glyph glyph-name="uni0206" unicode="&#x206;" horiz-adv-x="1657" 
d="M296 0v2048h1140v-116h-1015v-849h954v-116h-954v-851h1039v-116h-1164zM585 2374q0 124 77 200t211 76t210.5 -76t76.5 -200h-116q0 80 -42.5 128t-128.5 48q-88 0 -130 -48.5t-42 -127.5h-116z" />
    <glyph glyph-name="uni0207" unicode="&#x207;" horiz-adv-x="1629" 
d="M852 -32q-208 0 -362 103t-238 282t-84 408q0 230 84.5 410t232.5 284t338 104q129 0 244.5 -51.5t204 -148.5t139 -234t50.5 -308v-76h-1216v111h1094q0 167 -68 301t-185 213t-263 79q-153 0 -272.5 -85.5t-189 -230.5t-72.5 -324v-50q0 -192 67.5 -344.5t193.5 -241
t302 -88.5q126 0 215.5 42.5t146.5 103.5t86 118l111 -45q-35 -77 -108.5 -153.5t-186 -127.5t-264.5 -51zM532 1862q0 124 77 200t211 76t210.5 -76t76.5 -200h-116q0 80 -42.5 128t-128.5 48q-88 0 -130 -48.5t-42 -127.5h-116z" />
    <glyph glyph-name="uni0208" unicode="&#x208;" horiz-adv-x="717" 
d="M421 2048v-2048h-125v2048h125zM173 2267l-321 442h153l280 -442h-112zM461 2267l-251 442h152l210 -442h-111z" />
    <glyph glyph-name="uni0209" unicode="&#x209;" horiz-adv-x="639" 
d="M259 0v1536h121v-1536h-121zM134 1755l-321 442h153l280 -442h-112zM422 1755l-251 442h152l210 -442h-111z" />
    <glyph glyph-name="uni020A" unicode="&#x20a;" horiz-adv-x="717" 
d="M421 2048v-2048h-125v2048h125zM74 2374q0 124 77 200t211 76t210.5 -76t76.5 -200h-116q0 80 -42.5 128t-128.5 48q-88 0 -130 -48.5t-42 -127.5h-116z" />
    <glyph glyph-name="uni020B" unicode="&#x20b;" horiz-adv-x="639" 
d="M259 0v1536h121v-1536h-121zM36 1862q0 124 77 200t211 76t210.5 -76t76.5 -200h-116q0 80 -42.5 128t-128.5 48q-88 0 -130 -48.5t-42 -127.5h-116z" />
    <glyph glyph-name="uni020C" unicode="&#x20c;" horiz-adv-x="2117" 
d="M1925 1024q0 -317 -110 -553.5t-305.5 -367.5t-450.5 -131q-256 0 -451.5 131.5t-305.5 368t-110 552.5q0 317 110.5 553t305.5 367.5t451 131.5q255 0 450.5 -131t305.5 -367.5t110 -553.5zM1803 1024q0 285 -95.5 494t-263.5 323.5t-385 114.5t-385 -113.5t-263.5 -323
t-95.5 -495.5q0 -283 94.5 -492.5t262.5 -324.5t387 -115q217 0 385 114.5t263.5 323.5t95.5 494zM873 2267l-321 442h153l280 -442h-112zM1161 2267l-251 442h152l210 -442h-111z" />
    <glyph glyph-name="uni020D" unicode="&#x20d;" horiz-adv-x="1648" 
d="M824 -32q-190 0 -338 102.5t-233 282.5t-85 410q0 231 85 410.5t233 282.5t338 103t338 -103t233 -283t85 -410t-85 -410t-233 -282.5t-338 -102.5zM824 81q161 0 281.5 91t187 246t66.5 345t-67 344.5t-187 246t-281 91.5t-281 -91.5t-187 -246t-67 -344.5t66.5 -345
t187 -246t281.5 -91zM638 1755l-321 442h153l280 -442h-112zM926 1755l-251 442h152l210 -442h-111z" />
    <glyph glyph-name="uni020E" unicode="&#x20e;" horiz-adv-x="2117" 
d="M1925 1024q0 -317 -110 -553.5t-305.5 -367.5t-450.5 -131q-256 0 -451.5 131.5t-305.5 368t-110 552.5q0 317 110.5 553t305.5 367.5t451 131.5q255 0 450.5 -131t305.5 -367.5t110 -553.5zM1803 1024q0 285 -95.5 494t-263.5 323.5t-385 114.5t-385 -113.5t-263.5 -323
t-95.5 -495.5q0 -283 94.5 -492.5t262.5 -324.5t387 -115q217 0 385 114.5t263.5 323.5t95.5 494zM774 2374q0 124 77 200t211 76t210.5 -76t76.5 -200h-116q0 80 -42.5 128t-128.5 48q-88 0 -130 -48.5t-42 -127.5h-116z" />
    <glyph glyph-name="uni020F" unicode="&#x20f;" horiz-adv-x="1648" 
d="M824 -32q-190 0 -338 102.5t-233 282.5t-85 410q0 231 85 410.5t233 282.5t338 103t338 -103t233 -283t85 -410t-85 -410t-233 -282.5t-338 -102.5zM824 81q161 0 281.5 91t187 246t66.5 345t-67 344.5t-187 246t-281 91.5t-281 -91.5t-187 -246t-67 -344.5t66.5 -345
t187 -246t281.5 -91zM540 1862q0 124 77 200t211 76t210.5 -76t76.5 -200h-116q0 80 -42.5 128t-128.5 48q-88 0 -130 -48.5t-42 -127.5h-116z" />
    <glyph glyph-name="uni0210" unicode="&#x210;" horiz-adv-x="1755" 
d="M296 0v2048h631q194 0 334 -76t215 -210.5t75 -312.5q0 -176 -75 -309.5t-214.5 -208.5t-333.5 -75h-565v117h562q158 0 270 59t172 165.5t60 251.5q0 146 -60 254.5t-172.5 168.5t-270.5 60h-503v-1932h-125zM1137 928l504 -928h-144l-501 928h141zM683 2267l-321 442
h153l280 -442h-112zM971 2267l-251 442h152l210 -442h-111z" />
    <glyph glyph-name="uni0211" unicode="&#x211;" horiz-adv-x="960" 
d="M253 0v1536h119v-240h11q50 118 169 189.5t271 71.5h32t30 -1v-123q-12 1 -28.5 3.5t-40.5 2.5q-128 0 -227.5 -55t-156.5 -151.5t-57 -220.5v-1012h-122zM399 1755l-321 442h153l280 -442h-112zM687 1755l-251 442h152l210 -442h-111z" />
    <glyph glyph-name="uni0212" unicode="&#x212;" horiz-adv-x="1755" 
d="M296 0v2048h631q194 0 334 -76t215 -210.5t75 -312.5q0 -176 -75 -309.5t-214.5 -208.5t-333.5 -75h-565v117h562q158 0 270 59t172 165.5t60 251.5q0 146 -60 254.5t-172.5 168.5t-270.5 60h-503v-1932h-125zM1137 928l504 -928h-144l-501 928h141zM585 2374
q0 124 77 200t211 76t210.5 -76t76.5 -200h-116q0 80 -42.5 128t-128.5 48q-88 0 -130 -48.5t-42 -127.5h-116z" />
    <glyph glyph-name="uni0213" unicode="&#x213;" horiz-adv-x="960" 
d="M253 0v1536h119v-240h11q50 118 169 189.5t271 71.5h32t30 -1v-123q-12 1 -28.5 3.5t-40.5 2.5q-128 0 -227.5 -55t-156.5 -151.5t-57 -220.5v-1012h-122zM301 1862q0 124 77 200t211 76t210.5 -76t76.5 -200h-116q0 80 -42.5 128t-128.5 48q-88 0 -130 -48.5t-42 -127.5
h-116z" />
    <glyph glyph-name="uni0214" unicode="&#x214;" horiz-adv-x="2104" 
d="M1683 2048h125v-1356q0 -209 -97 -372.5t-267.5 -258t-391.5 -94.5q-220 0 -391 94.5t-268.5 258.5t-96.5 372v1356h125v-1349q0 -177 80.5 -315t222.5 -217.5t328 -79.5t328 79.5t222.5 217.5t80.5 315v1349zM866 2267l-321 442h153l280 -442h-112zM1154 2267l-251 442
h152l210 -442h-111z" />
    <glyph glyph-name="uni0215" unicode="&#x215;" horiz-adv-x="1612" 
d="M1237 545v991h122v-1536h-122v249h-10q-54 -119 -174.5 -194t-284.5 -75q-151 0 -267 66t-182 187.5t-66 289.5v1013h122v-1008q0 -192 116.5 -310.5t301.5 -118.5q120 0 221 54t162 154.5t61 237.5zM621 1755l-321 442h153l280 -442h-112zM909 1755l-251 442h152
l210 -442h-111z" />
    <glyph glyph-name="uni0216" unicode="&#x216;" horiz-adv-x="2104" 
d="M1683 2048h125v-1356q0 -209 -97 -372.5t-267.5 -258t-391.5 -94.5q-220 0 -391 94.5t-268.5 258.5t-96.5 372v1356h125v-1349q0 -177 80.5 -315t222.5 -217.5t328 -79.5t328 79.5t222.5 217.5t80.5 315v1349zM768 2374q0 124 77 200t211 76t210.5 -76t76.5 -200h-116
q0 80 -42.5 128t-128.5 48q-88 0 -130 -48.5t-42 -127.5h-116z" />
    <glyph glyph-name="uni0217" unicode="&#x217;" horiz-adv-x="1612" 
d="M1237 545v991h122v-1536h-122v249h-10q-54 -119 -174.5 -194t-284.5 -75q-151 0 -267 66t-182 187.5t-66 289.5v1013h122v-1008q0 -192 116.5 -310.5t301.5 -118.5q120 0 221 54t162 154.5t61 237.5zM522 1862q0 124 77 200t211 76t210.5 -76t76.5 -200h-116
q0 80 -42.5 128t-128.5 48q-88 0 -130 -48.5t-42 -127.5h-116z" />
    <glyph glyph-name="uni0218" unicode="&#x218;" horiz-adv-x="1748" 
d="M1400 1536q-16 191 -155.5 309t-360.5 118q-149 0 -265 -55t-182 -150t-66 -218q0 -79 30.5 -142.5t86.5 -113t133 -86.5t170 -65l224 -66q115 -35 212.5 -81t170 -109.5t113 -148.5t40.5 -196q0 -162 -83.5 -290t-237 -201.5t-361.5 -73.5q-198 0 -344.5 67
t-231.5 186.5t-96 275.5h128q10 -127 81.5 -219.5t190.5 -142.5t272 -50q165 0 291 56.5t197 157.5t71 235q0 108 -51 185t-150.5 133t-246.5 100l-239 72q-240 73 -366.5 199t-126.5 314q0 158 84 280.5t228.5 192.5t326.5 70q183 0 323 -70.5t222 -193t91 -279.5h-123z
M685 -713l125 518h127l-156 -518h-96z" />
    <glyph glyph-name="uni0219" unicode="&#x219;" horiz-adv-x="1416" 
d="M1229 1205l-113 -30q-27 84 -77 145t-125.5 94.5t-180.5 33.5q-169 0 -276.5 -84t-107.5 -219q0 -110 73 -181.5t223 -108.5l236 -59q182 -45 274 -145.5t92 -249.5q0 -127 -69 -225t-190.5 -153t-282.5 -55q-215 0 -353 100.5t-177 288.5l117 30q33 -150 137.5 -228.5
t274.5 -78.5q188 0 303.5 89t115.5 228q0 106 -68 179t-206 107l-245 60q-188 46 -282 147.5t-94 250.5q0 124 65 218t179 147t261 53q195 0 318 -92t178 -262zM532 -680l125 518h127l-156 -518h-96z" />
    <glyph glyph-name="uni021A" unicode="&#x21a;" horiz-adv-x="1755" 
d="M160 1932v116h1435v-116h-655v-1932h-125v1932h-655zM686 -680l125 518h127l-156 -518h-96z" />
    <glyph glyph-name="uni021B" unicode="&#x21b;" horiz-adv-x="995" 
d="M796 1536v-109h-671v109h671zM352 1904h121v-1541q0 -94 36.5 -153.5t96 -88t127.5 -28.5q33 0 57.5 5t46.5 13l30 -111q-28 -10 -62 -17.5t-80 -7.5q-96 0 -181.5 43t-138.5 125t-53 198v1563zM400 -680l125 518h127l-156 -518h-96z" />
    <glyph glyph-name="uni021C" unicode="&#x21c;" horiz-adv-x="1701" 
d="M288 496v112q243 72 439.5 167.5t336.5 212t214.5 250.5t73.5 283q-1 200 -136.5 317.5t-361.5 117.5q-158 0 -279.5 -55.5t-189.5 -152.5t-68 -219h-137q1 160 87.5 283.5t238 193.5t348.5 70q187 0 330 -67.5t224.5 -190.5t80.5 -291q0 -172 -89 -329.5t-250.5 -292
t-381 -239t-480.5 -170.5zM1124 956l73 85q106 -52 178.5 -133.5t110 -197t37.5 -269.5q0 -204 -73 -359.5t-224 -275.5t-384 -218t-554 -188v120q296 85 504.5 174t339 195t191.5 242t61 314q0 197 -65.5 324t-194.5 187z" />
    <glyph glyph-name="uni021D" unicode="&#x21d;" horiz-adv-x="1451" 
d="M277 339v110q244 39 430 133t290.5 230.5t102.5 301.5q-2 149 -93.5 239t-264.5 90q-117 0 -211 -44t-149 -124.5t-54 -191.5h-133q0 146 71.5 252.5t196 165t282.5 58.5q228 0 359 -122t131 -322q0 -193 -124 -355t-340 -272t-494 -149zM931 661l81 76q124 -80 187 -209
t64 -316q1 -363 -241 -565t-745 -247v116q295 32 483 117.5t278 229.5t90 352q0 159 -51 271.5t-146 174.5z" />
    <glyph glyph-name="uni021E" unicode="&#x21e;" horiz-adv-x="2076" 
d="M296 0v2048h125v-965h1234v965h125v-2048h-125v967h-1234v-967h-125zM772 2652l269 -298l269 298h126v-10l-354 -390h-82l-354 390v10h126z" />
    <glyph glyph-name="uni021F" unicode="&#x21f;" horiz-adv-x="1621" 
d="M375 996v-996h-122v2048h122v-755h12q54 120 172.5 191.5t284.5 71.5q155 0 273 -65.5t184.5 -187t66.5 -290.5v-1013h-121v1008q0 197 -117 316t-309 119q-129 0 -230 -56t-158.5 -156.5t-57.5 -234.5zM46 2650l269 -298l269 298h126v-10l-354 -390h-82l-354 390v10h126
z" />
    <glyph glyph-name="uni0220" unicode="&#x220;" horiz-adv-x="1565" 
d="M1425 -575h-134v1912q0 232 -63.5 368t-188.5 194t-308 58q-148 0 -268 -34t-215 -99l-20 112q63 43 140.5 74.5t169.5 48.5t197 17q208 0 363 -74t241 -236.5t86 -430.5v-1910zM281 2048v-2048h-133v2048h133z" />
    <glyph glyph-name="uni0221" unicode="&#x221;" horiz-adv-x="2025" 
d="M1285 167h122v-368q0 -114 74.5 -185t182.5 -71q104 0 173.5 63.5t69.5 154.5q0 90 -67.5 152.5t-170.5 65.5q-102 4 -191.5 -66t-196.5 -230l-184 -220l-86 73l164 203q129 189 247 270.5t246 81.5q154 0 258.5 -94t104.5 -236q0 -93 -47.5 -167.5t-130 -118
t-189.5 -43.5q-118 0 -202.5 52t-130.5 137.5t-46 183.5v362zM777 -32q-185 0 -322.5 102t-213.5 281.5t-76 412.5q0 231 76.5 410.5t214.5 282t323 102.5q131 0 229 -50.5t164 -133.5t101 -182h12v855h122v-2048h-119v335h-15q-36 -99 -102 -182.5t-164 -134t-230 -50.5z
M788 81q156 0 267.5 89.5t171.5 244t60 350.5t-60 349.5t-171.5 242t-267.5 88.5q-158 0 -270 -89.5t-171.5 -243.5t-59.5 -347t59.5 -348t171.5 -245.5t270 -90.5z" />
    <glyph glyph-name="uni0222" unicode="&#x222;" horiz-adv-x="1653" 
d="M805 1165h43q225 0 385 -68t245 -200t85 -325q0 -200 -89 -333.5t-251 -200t-384 -66.5h-23q-223 0 -386 67t-251 200t-88 332q0 194 85 326.5t244.5 200t384.5 67.5zM848 1051h-43q-286 0 -431.5 -121.5t-145.5 -358.5q0 -241 152 -359.5t435 -118.5h24q282 0 434 118
t152 361q0 235 -146 357t-431 122zM801 1172h52q170 0 294.5 41t192 132t67.5 240q0 168 -83.5 262.5t-222.5 120.5v116q127 -15 227 -75t158 -166t58 -258q0 -184 -87 -300.5t-242.5 -172t-362.5 -55.5h-51q-154 0 -281 30.5t-219 94.5t-142 164.5t-50 238.5
q0 147 54.5 250t149 163.5t214.5 77.5v-117q-129 -30 -204.5 -122t-75.5 -252q0 -150 67.5 -240.5t192 -131.5t294.5 -41z" />
    <glyph glyph-name="uni0223" unicode="&#x223;" horiz-adv-x="1703" 
d="M805 1163h92q222 0 382 -66.5t246 -196.5t86 -323q0 -196 -89 -331t-251 -204.5t-383 -69.5h-72q-221 0 -384 69t-251.5 204t-88.5 331q0 193 85.5 324t245.5 197t382 66zM897 1051h-92q-280 0 -429 -119t-149 -356q0 -239 154.5 -363.5t433.5 -124.5h73q278 0 433 125
t155 364q0 235 -150 354.5t-429 119.5zM916 1167q169 0 293.5 48.5t193 147.5t68.5 250q0 176 -79 278.5t-228 136.5v112q134 -15 233 -81.5t153.5 -179t54.5 -266.5q0 -186 -86.5 -310t-242 -185.5t-361.5 -61.5h-127q-206 0 -361.5 61.5t-242.5 185.5t-87 310
q0 151 51.5 260.5t145 175t219.5 83.5v-113q-137 -38 -209 -137t-72 -269q0 -152 68 -251t193 -147t295 -48h128z" />
    <glyph glyph-name="uni0224" unicode="&#x224;" horiz-adv-x="1681" 
d="M176 1932v116h1319v-103l-1171 -1829h872q150 0 233.5 -86.5t83.5 -233.5v-68h-117v29q0 79 -19.5 133t-64 82t-119.5 28h-1018v103l1170 1829h-1169z" />
    <glyph glyph-name="uni0225" unicode="&#x225;" horiz-adv-x="1461" 
d="M1245 -277v29q0 81 -19 136t-64 83.5t-123 28.5h-836v109l904 1311h-870v116h1022v-105l-904 -1315h686q153 0 235.5 -88t82.5 -232v-73h-114z" />
    <glyph glyph-name="uni0226" unicode="&#x226;" horiz-adv-x="1792" 
d="M217 0h-132l739 2048h144l739 -2048h-132l-674 1887h-10zM404 771h984v-116h-984v116zM896 2320q-41 0 -70 28t-29 68t29 68t70 28q40 0 69 -28t29 -68t-29 -68t-69 -28z" />
    <glyph glyph-name="uni0227" unicode="&#x227;" horiz-adv-x="1545" 
d="M660 -33q-133 0 -243.5 53t-177 155t-66.5 248q0 96 34 169t105 126t182 87.5t265 53.5q117 14 209 27.5t144.5 42.5t52.5 88v64q0 168 -106 267t-292 99q-165 0 -277.5 -72.5t-157.5 -186.5l-115 43q44 110 127.5 183t192 109t227.5 36q103 0 196.5 -29t167 -88
t116.5 -150.5t43 -218.5v-1073h-122v277h-9q-40 -86 -109.5 -156.5t-167 -112t-219.5 -41.5zM672 80q144 0 255.5 70.5t174.5 193.5t63 279v226q-23 -20 -66.5 -35.5t-98 -27t-114 -20t-115.5 -15.5q-168 -20 -273.5 -61.5t-154 -108.5t-48.5 -162q0 -157 108 -248t269 -91z
M780 1808q-41 0 -70 28t-29 68t29 68t70 28q40 0 69 -28t29 -68t-29 -68t-69 -28z" />
    <glyph glyph-name="uni0228" unicode="&#x228;" horiz-adv-x="1657" 
d="M296 0v2048h1140v-116h-1015v-849h954v-116h-954v-851h1039v-116h-1164zM779 8h108l-15 -80q94 -15 151 -73.5t57 -159.5q0 -114 -81.5 -175t-238.5 -64l-4 95q106 2 158 35.5t53 105.5q-1 80 -55 118t-165 39z" />
    <glyph glyph-name="uni0229" unicode="&#x229;" horiz-adv-x="1629" 
d="M852 -32q-208 0 -362 103t-238 282t-84 408q0 230 84.5 410t232.5 284t338 104q129 0 244.5 -51.5t204 -148.5t139 -234t50.5 -308v-76h-1216v111h1094q0 167 -68 301t-185 213t-263 79q-153 0 -272.5 -85.5t-189 -230.5t-72.5 -324v-50q0 -192 67.5 -344.5t193.5 -241
t302 -88.5q126 0 215.5 42.5t146.5 103.5t86 118l111 -45q-35 -77 -108.5 -153.5t-186 -127.5t-264.5 -51zM764 8h108l-15 -80q94 -15 151 -73.5t57 -159.5q0 -114 -81.5 -175t-238.5 -64l-4 95q106 2 158 35.5t53 105.5q-1 80 -55 118t-165 39z" />
    <glyph glyph-name="uni022A" unicode="&#x22a;" horiz-adv-x="2117" 
d="M1925 1024q0 -317 -110 -553.5t-305.5 -367.5t-450.5 -131q-256 0 -451.5 131.5t-305.5 368t-110 552.5q0 317 110.5 553t305.5 367.5t451 131.5q255 0 450.5 -131t305.5 -367.5t110 -553.5zM1803 1024q0 285 -95.5 494t-263.5 323.5t-385 114.5t-385 -113.5t-263.5 -323
t-95.5 -495.5q0 -283 94.5 -492.5t262.5 -324.5t387 -115q217 0 385 114.5t263.5 323.5t95.5 494zM836 2320q-38 0 -67 29t-29 67q0 40 29 68t67 28q41 0 68.5 -28t27.5 -68q0 -38 -27.5 -67t-68.5 -29zM1284 2320q-38 0 -67 29t-29 67q0 40 29 68t67 28q41 0 68.5 -28
t27.5 -68q0 -38 -27.5 -67t-68.5 -29zM1431 2900v-109h-739v109h739z" />
    <glyph glyph-name="uni022B" unicode="&#x22b;" horiz-adv-x="1648" 
d="M824 -32q-190 0 -338 102.5t-233 282.5t-85 410q0 231 85 410.5t233 282.5t338 103t338 -103t233 -283t85 -410t-85 -410t-233 -282.5t-338 -102.5zM824 81q161 0 281.5 91t187 246t66.5 345t-67 344.5t-187 246t-281 91.5t-281 -91.5t-187 -246t-67 -344.5t66.5 -345
t187 -246t281.5 -91zM601 1808q-38 0 -67 28.5t-29 67.5q0 40 29 68t67 28q40 0 68 -28t28 -68q0 -39 -28 -67.5t-68 -28.5zM1049 1808q-38 0 -67 28.5t-29 67.5q0 40 29 68t67 28q40 0 68 -28t28 -68q0 -39 -28 -67.5t-68 -28.5zM1196 2388v-110h-739v110h739z" />
    <glyph glyph-name="uni022C" unicode="&#x22c;" horiz-adv-x="2117" 
d="M1925 1024q0 -317 -110 -553.5t-305.5 -367.5t-450.5 -131q-256 0 -451.5 131.5t-305.5 368t-110 552.5q0 317 110.5 553t305.5 367.5t451 131.5q255 0 450.5 -131t305.5 -367.5t110 -553.5zM1803 1024q0 285 -95.5 494t-263.5 323.5t-385 114.5t-385 -113.5t-263.5 -323
t-95.5 -495.5q0 -283 94.5 -492.5t262.5 -324.5t387 -115q217 0 385 114.5t263.5 323.5t95.5 494zM1324 2531l79 -16q-7 -86 -60.5 -149t-134.5 -63q-68 0 -112.5 32.5t-85 65t-95.5 32.5q-49 0 -80.5 -40t-38.5 -92l-79 16q7 86 61 150t138 64q67 0 111.5 -33t85 -65
t94.5 -32q47 1 78.5 39.5t38.5 90.5zM1423 2781v-112h-740v112h740z" />
    <glyph glyph-name="uni022D" unicode="&#x22d;" horiz-adv-x="1648" 
d="M824 -32q-190 0 -338 102.5t-233 282.5t-85 410q0 231 85 410.5t233 282.5t338 103t338 -103t233 -283t85 -410t-85 -410t-233 -282.5t-338 -102.5zM824 81q161 0 281.5 91t187 246t66.5 345t-67 344.5t-187 246t-281 91.5t-281 -91.5t-187 -246t-67 -344.5t66.5 -345
t187 -246t281.5 -91zM1114 2073l100 -11q-4 -76 -34.5 -133t-80.5 -89t-115 -32q-57 0 -97 22.5t-73.5 52.5t-68.5 53.5t-82 23.5q-59 0 -94 -45t-42 -110l-99 8q5 76 34.5 134t80.5 90.5t119 32.5q55 0 94.5 -23t73 -53t68 -53t80.5 -23q59 1 94 45t42 110zM1191 2325v-112
h-740v112h740z" />
    <glyph glyph-name="uni022E" unicode="&#x22e;" horiz-adv-x="2117" 
d="M1925 1024q0 -317 -110 -553.5t-305.5 -367.5t-450.5 -131q-256 0 -451.5 131.5t-305.5 368t-110 552.5q0 317 110.5 553t305.5 367.5t451 131.5q255 0 450.5 -131t305.5 -367.5t110 -553.5zM1803 1024q0 285 -95.5 494t-263.5 323.5t-385 114.5t-385 -113.5t-263.5 -323
t-95.5 -495.5q0 -283 94.5 -492.5t262.5 -324.5t387 -115q217 0 385 114.5t263.5 323.5t95.5 494zM1059 2320q-41 0 -70 28t-29 68t29 68t70 28q40 0 69 -28t29 -68t-29 -68t-69 -28z" />
    <glyph glyph-name="uni022F" unicode="&#x22f;" horiz-adv-x="1648" 
d="M824 -32q-190 0 -338 102.5t-233 282.5t-85 410q0 231 85 410.5t233 282.5t338 103t338 -103t233 -283t85 -410t-85 -410t-233 -282.5t-338 -102.5zM824 81q161 0 281.5 91t187 246t66.5 345t-67 344.5t-187 246t-281 91.5t-281 -91.5t-187 -246t-67 -344.5t66.5 -345
t187 -246t281.5 -91zM824 1808q-41 0 -70 28t-29 68t29 68t70 28q40 0 69 -28t29 -68t-29 -68t-69 -28z" />
    <glyph glyph-name="uni0230" unicode="&#x230;" horiz-adv-x="2117" 
d="M1925 1024q0 -317 -110 -553.5t-305.5 -367.5t-450.5 -131q-256 0 -451.5 131.5t-305.5 368t-110 552.5q0 317 110.5 553t305.5 367.5t451 131.5q255 0 450.5 -131t305.5 -367.5t110 -553.5zM1803 1024q0 285 -95.5 494t-263.5 323.5t-385 114.5t-385 -113.5t-263.5 -323
t-95.5 -495.5q0 -283 94.5 -492.5t262.5 -324.5t387 -115q217 0 385 114.5t263.5 323.5t95.5 494zM1058 2320q-39 0 -68.5 28.5t-29.5 67.5q0 40 29.5 68t68.5 28q41 0 70 -28t29 -68q0 -39 -29 -67.5t-70 -28.5zM1428 2900v-109h-739v109h739z" />
    <glyph glyph-name="uni0231" unicode="&#x231;" horiz-adv-x="1648" 
d="M824 -32q-190 0 -338 102.5t-233 282.5t-85 410q0 231 85 410.5t233 282.5t338 103t338 -103t233 -283t85 -410t-85 -410t-233 -282.5t-338 -102.5zM824 81q161 0 281.5 91t187 246t66.5 345t-67 344.5t-187 246t-281 91.5t-281 -91.5t-187 -246t-67 -344.5t66.5 -345
t187 -246t281.5 -91zM1194 2408v-109h-738v109h738zM825 1828q-40 0 -69.5 28.5t-29.5 67.5q0 40 29.5 68t69.5 28q41 0 70 -28t29 -68q0 -39 -29 -67.5t-70 -28.5z" />
    <glyph glyph-name="uni0232" unicode="&#x232;" horiz-adv-x="1776" 
d="M88 2048h148l645 -988h14l645 988h148l-737 -1119v-929h-126v929zM1258 2469v-109h-739v109h739z" />
    <glyph glyph-name="uni0233" unicode="&#x233;" horiz-adv-x="1504" 
d="M351 -576q-46 0 -91 10t-81 26l36 107q94 -36 170.5 -26t135.5 70t100 176l70 192l-563 1557h131l488 -1379h10l488 1379h131l-648 -1797q-37 -104 -93 -174t-127.5 -105.5t-156.5 -35.5zM1122 1957v-109h-739v109h739z" />
    <glyph glyph-name="uni0234" unicode="&#x234;" horiz-adv-x="815" 
d="M259 167h121v-382q0 -103 75 -172.5t182 -69.5q104 0 173.5 63.5t69.5 154.5q0 93 -71 154.5t-178 61.5q-110 0 -203 -78t-205 -246l-152 -190l-87 73l164 203q65 94 126.5 161t121.5 109.5t121 62t124 19.5q104 0 186 -43t129.5 -117.5t47.5 -169.5q0 -93 -47.5 -167.5
t-130 -118t-189.5 -43.5q-88 0 -158 30t-119.5 82.5t-75 119.5t-25.5 141v362zM380 2048v-2048h-121v2048h121z" />
    <glyph glyph-name="uni0235" unicode="&#x235;" horiz-adv-x="2120" 
d="M1241 251h122v-242q0 -103 74.5 -172.5t182.5 -69.5q104 0 173.5 63.5t69.5 154.5q0 93 -71 154.5t-179 61.5q-54 0 -104 -19.5t-98.5 -58.5t-98.5 -100.5t-107 -145.5l-152 -190l-86 73l164 203q64 94 125.5 161t121.5 109.5t121 62t125 19.5q103 0 185 -43t130 -117.5
t48 -169.5q0 -93 -47.5 -167.5t-130 -118t-189.5 -43.5q-88 0 -158 30t-119.5 82.5t-75.5 119.5t-26 141v222zM375 996v-996h-122v1536h119v-243h12q54 119 173 191t283 72q155 0 272.5 -66t184 -187.5t66.5 -289.5v-1013h-122v1008q0 196 -116.5 315.5t-307.5 119.5
q-128 0 -228 -56t-157 -156.5t-57 -234.5z" />
    <glyph glyph-name="uni0236" unicode="&#x236;" horiz-adv-x="1276" 
d="M395 1904h121v-1580q0 -103 74 -173t183 -70q103 0 174.5 62t71.5 157q0 89 -68 152.5t-184 63.5q-58 0 -116 -26.5t-122 -85t-141 -156t-175 -239.5l-88 74q137 199 242 319t202.5 173.5t207.5 53.5q164 0 265 -94t101 -231q0 -71 -27.5 -131.5t-77 -106t-117 -70.5
t-148.5 -25q-88 0 -158 30t-119.5 82.5t-75 119.5t-25.5 141v1560zM839 1536v-109h-671v109h671z" />
    <glyph glyph-name="uni0237" unicode="&#x237;" horiz-adv-x="639" 
d="M259 1536h121v-1723q0 -119 -49 -206.5t-134.5 -135t-197.5 -47.5q-8 0 -17 0.5t-21 2.5l6 113h15h15q112 0 187 72.5t75 200.5v1723z" />
    <glyph glyph-name="uni0238" unicode="&#x238;" horiz-adv-x="2449" 
d="M2329 768v-13q0 -238 -71 -414t-200 -274t-301 -98q-96 0 -180 31.5t-154 90.5t-123.5 143.5t-90.5 190.5v678q48 142 127.5 244t186.5 157t236 55q171 0 299.5 -97t199.5 -274.5t71 -419.5zM2195 755v13q0 201 -52 352t-152.5 235.5t-245.5 84.5q-156 0 -284 -96.5
t-194 -244.5v-670q48 -100 120 -176.5t163 -120.5t196 -44q143 0 243 83.5t153 233.5t53 350zM1157 276v1772h135v-2048h-120zM120 755v13q0 242 71 419.5t199.5 274.5t300.5 97q129 0 236 -55t186.5 -157t126.5 -244v-678q-36 -106 -90 -190.5t-124 -143.5t-153.5 -90.5
t-179.5 -31.5q-172 0 -301 98t-200.5 274t-71.5 414zM255 768v-13q0 -200 52.5 -350t153 -233.5t242.5 -83.5q106 0 197 44t163 120.5t120 176.5v670q-44 99 -116.5 176t-165 121t-197.5 44q-144 0 -244.5 -84.5t-152.5 -235.5t-52 -352z" />
    <glyph glyph-name="uni0239" unicode="&#x239;" horiz-adv-x="2449" 
d="M1160 -572v1835l15 273h105l15 -275v-1833h-135zM120 755v13q0 242 71 419.5t199.5 274.5t300.5 97q129 0 236 -55t186.5 -157t126.5 -244v-678q-36 -106 -90 -190.5t-124 -143.5t-153.5 -90.5t-179.5 -31.5q-172 0 -301 98t-200.5 274t-71.5 414zM255 768v-13
q0 -200 52.5 -350t153 -233.5t242.5 -83.5q106 0 197 44t163 120.5t120 176.5v670q-44 99 -116.5 176t-165 121t-197.5 44q-144 0 -244.5 -84.5t-152.5 -235.5t-52 -352zM2329 768v-13q0 -238 -71 -414t-200 -274t-301 -98q-96 0 -180 31.5t-154 90.5t-123.5 143.5
t-90.5 190.5v678q48 142 127.5 244t186.5 157t236 55q171 0 299.5 -97t199.5 -274.5t71 -419.5zM2195 755v13q0 201 -52 352t-152.5 235.5t-245.5 84.5q-156 0 -284 -96.5t-194 -244.5v-670q48 -100 120 -176.5t163 -120.5t196 -44q143 0 243 83.5t153 233.5t53 350z" />
    <glyph glyph-name="uni023A" unicode="&#x23a;" horiz-adv-x="1792" 
d="M1431 2308l-912 -2568h-122l912 2568h122zM217 0h-132l739 2048h144l739 -2048h-132l-674 1887h-10zM404 771h984v-116h-984v116z" />
    <glyph glyph-name="uni023B" unicode="&#x23b;" horiz-adv-x="2040" 
d="M491 -260l968 2568h121l-968 -2568h-121zM1856 1408h-128q-20 104 -75 201.5t-141.5 176t-200.5 124.5t-252 46q-202 0 -371.5 -107.5t-271 -315.5t-101.5 -509q0 -303 101.5 -511t271 -314.5t371.5 -106.5q138 0 252 45.5t200.5 124t141.5 176.5t75 202h128
q-22 -124 -84.5 -243t-164 -215.5t-239 -153t-309.5 -56.5q-256 0 -451 130.5t-305.5 367.5t-110.5 554t110.5 554t305.5 367.5t451 130.5q172 0 309.5 -56.5t239 -152t164 -214.5t84.5 -245z" />
    <glyph glyph-name="uni023C" unicode="&#x23c;" horiz-adv-x="1515" 
d="M1412 2048l-1147 -2624h-114l1153 2624h108zM829 -32q-196 0 -345 103.5t-232.5 283.5t-83.5 408t84 408t233 284t343 104q146 0 266.5 -60t200 -167t101.5 -248h-124q-30 156 -149.5 258.5t-293.5 102.5q-156 0 -278 -87.5t-192 -241t-70 -351.5q0 -195 68 -349.5
t190 -244.5t282 -90q113 0 206.5 45t156.5 128t83 194h124q-22 -142 -100 -250t-199 -169t-271 -61z" />
    <glyph glyph-name="uni023D" unicode="&#x23d;" horiz-adv-x="1584" 
d="M296 0v2048h125v-1932h1000v-116h-1125zM-41 1004v104h800v-104h-800z" />
    <glyph glyph-name="uni023E" unicode="&#x23e;" horiz-adv-x="1755" 
d="M355 -260l965 2568h117l-965 -2568h-117zM160 1932v116h1435v-116h-655v-1932h-125v1932h-655z" />
    <glyph glyph-name="uni023F" unicode="&#x23f;" horiz-adv-x="1395" 
d="M328 272q139 -242 221 -389.5t131.5 -222.5t85.5 -101t82 -26q44 0 89 23.5t94 62.5l50 -91q-59 -48 -117 -76t-115 -28q-62 0 -112.5 25t-95 75t-88.5 124l-325 565zM1229 1205l-113 -30q-27 84 -77 145t-125.5 94.5t-180.5 33.5q-169 0 -276.5 -84t-107.5 -219
q0 -110 73 -181.5t223 -108.5l236 -59q182 -45 274 -145.5t92 -249.5q0 -127 -69 -225t-190.5 -153t-282.5 -55q-215 0 -353 100.5t-177 288.5l117 30q33 -150 137.5 -228.5t274.5 -78.5q188 0 303.5 89t115.5 228q0 106 -68 179t-206 107l-245 60q-188 46 -282 147.5
t-94 250.5q0 124 65 218t179 147t261 53q195 0 318 -92t178 -262z" />
    <glyph glyph-name="uni0240" unicode="&#x240;" horiz-adv-x="1460" 
d="M336 116h59q136 0 234.5 -41.5t171 -107t129 -139t106.5 -139t104 -107t123 -41.5q21 0 42 4.5t43.5 13t47.5 21.5l31 -91q-36 -25 -82 -44.5t-98 -19.5q-82 0 -144.5 41.5t-116.5 107t-110 139t-123 139t-156.5 107t-211.5 41.5h-52zM355 116v-116h-152v109l904 1311
h-870v116h1022v-105z" />
    <glyph glyph-name="uni0241" unicode="&#x241;" horiz-adv-x="1453" 
d="M656 571h28q177 -1 289 66.5t166 191t54 291.5v289q0 122 -28.5 221.5t-86 171.5t-145.5 111t-209 39q-207 0 -333 -109.5t-136 -294.5h-132q8 158 85 276.5t209 185t307 66.5q196 0 331.5 -84t205.5 -234.5t70 -348.5v-289q0 -202 -73 -353t-215 -234.5t-351 -83.5h-36
v122zM763 571v-571h-139v571h139z" />
    <glyph glyph-name="uni0242" unicode="&#x242;" horiz-adv-x="1425" 
d="M203 975q3 191 68 321t181 196.5t271 66.5q157 0 269.5 -66t172 -191.5t59.5 -302.5q0 -161 -53 -281.5t-160 -187.5t-268 -66h-38v99h28q181 -1 269.5 114.5t88.5 316.5q0 207 -93 328t-276 121q-177 0 -279 -119.5t-106 -348.5h-134zM675 563h134v-563h-134v563z" />
    <glyph glyph-name="uni0243" unicode="&#x243;" horiz-adv-x="1955" 
d="M439 0v2048h665q186 0 314 -66t194.5 -185t66.5 -277q0 -124 -40 -220t-111.5 -158.5t-167.5 -86.5v-12q106 -8 197 -73.5t146.5 -177.5t55.5 -261q0 -157 -67.5 -276.5t-201.5 -187t-332 -67.5h-719zM564 116h594q231 0 355.5 116t124.5 299q0 129 -60.5 231
t-167.5 161.5t-248 59.5h-598v-867zM564 1097h583q131 0 222.5 57t140 153t48.5 213q0 190 -118 301t-336 111h-540v-835zM107 540v104h800v-104h-800z" />
    <glyph glyph-name="uni0244" unicode="&#x244;" horiz-adv-x="2053" 
d="M2059 1199v-98h-2064v98h2064zM1648 2048h125v-1356q0 -209 -97 -372.5t-267.5 -258t-391.5 -94.5q-219 0 -390 94.5t-268.5 258.5t-97.5 372v1356h126v-1349q0 -177 80 -315t222.5 -217.5t327.5 -79.5q186 0 328.5 79.5t222.5 217.5t80 315v1349z" />
    <glyph glyph-name="uni0245" unicode="&#x245;" horiz-adv-x="1933" 
d="M1624 0l-671 1911l-37 137h121l736 -2048h-149zM979 1912l-668 -1912h-150l735 2048h117z" />
    <glyph glyph-name="uni0246" unicode="&#x246;" horiz-adv-x="1657" 
d="M1340 2308l-741 -2568h-116l741 2568h116zM296 0v2048h1140v-116h-1015v-849h954v-116h-954v-851h1039v-116h-1164z" />
    <glyph glyph-name="uni0247" unicode="&#x247;" horiz-adv-x="1605" 
d="M1412 2048l-1147 -2624h-114l1153 2624h108zM852 -32q-208 0 -362 103t-238 282t-84 408q0 230 84.5 410t232.5 284t338 104q129 0 244.5 -51.5t204 -148.5t139 -234t50.5 -308v-76h-1216v111h1094q0 167 -68 301t-185 213t-263 79q-153 0 -272.5 -85.5t-189 -230.5
t-72.5 -324v-50q0 -192 67.5 -344.5t193.5 -241t302 -88.5q126 0 215.5 42.5t146.5 103.5t86 118l111 -45q-35 -77 -108.5 -153.5t-186 -127.5t-264.5 -51z" />
    <glyph glyph-name="uni0248" unicode="&#x248;" horiz-adv-x="1485" 
d="M1064 2048h125v-1491q0 -204 -70.5 -333t-189 -190.5t-265.5 -61.5q-150 0 -268.5 56.5t-187.5 156.5t-68 231h124q-1 -96 51.5 -169.5t143.5 -116t205 -42.5q110 0 201 47t144.5 150t54.5 272v1491zM727 1164v104h800v-104h-800z" />
    <glyph glyph-name="uni0249" unicode="&#x249;" horiz-adv-x="639" 
d="M259 1536h121v-1723q0 -119 -49 -206.5t-134.5 -135t-197.5 -47.5q-8 0 -17 0.5t-21 2.5l6 113h15h15q112 0 187 72.5t75 200.5v1723zM-81 821v104h800v-104h-800zM319 1808q-41 0 -70 28t-29 68t29 68t70 28q40 0 69 -28t29 -68t-29 -68t-69 -28z" />
    <glyph glyph-name="uni024A" unicode="&#x24a;" horiz-adv-x="2135" 
d="M1816 2048v-2287q0 -124 49.5 -174t151.5 -50q23 0 47 2t44 5v-109q-24 -5 -53.5 -6.5t-57.5 -1.5q-72 0 -128 20t-95 62t-59 104.5t-20 147.5v696h-10q-84 -237 -250.5 -361.5t-394.5 -124.5q-188 0 -343.5 76.5t-268.5 217t-174.5 334t-61.5 428.5q0 232 61.5 424.5
t175.5 332t270.5 216t347.5 76.5q227 0 391 -123.5t247 -361.5h12v457h119zM1047 92q214 0 359.5 115.5t220 325t73.5 492.5q0 280 -76.5 490t-222 327t-353.5 117q-219 0 -384 -119t-256.5 -329t-91.5 -486q0 -280 92.5 -490t257.5 -326.5t381 -116.5z" />
    <glyph glyph-name="uni024B" unicode="&#x24b;" horiz-adv-x="1705" 
d="M1591 -573q-72 0 -128.5 20t-95.5 62t-59 104.5t-20 147.5v231h121v-231q0 -82 22 -131.5t67 -71t113 -21.5q20 0 44 2t46 5v-109q-25 -5 -54.5 -6.5t-55.5 -1.5zM780 -32q-184 0 -321.5 102.5t-214 282t-76.5 411.5t76 411.5t214 281.5t323 102q100 0 179.5 -29
t140.5 -79.5t104.5 -117t70.5 -140.5h64l5 -858h-69q-35 -100 -102 -183.5t-165 -133.5t-229 -50zM1409 -139h-121v516l40 386l-37 416v357h118v-1675zM791 81q155 0 266.5 89.5t171.5 244t60 350.5t-59 349.5t-171 242t-268 88.5q-159 0 -271 -89.5t-171.5 -243.5
t-59.5 -347t60 -348t172 -245.5t270 -90.5z" />
    <glyph glyph-name="uni024C" unicode="&#x24c;" horiz-adv-x="1771" 
d="M367 856h-327v117h327v-117zM307 0v2048h630q195 0 334.5 -76t214.5 -210.5t75 -312.5q0 -176 -75 -309.5t-214 -208.5t-333 -75h-566v117h563q157 0 269.5 59t172 165.5t59.5 251.5q0 146 -60 254.5t-172 168.5t-270 60h-503v-1932h-125zM1148 928l504 -928h-144
l-501 928h141z" />
    <glyph glyph-name="uni024D" unicode="&#x24d;" horiz-adv-x="960" 
d="M253 0v1536h119v-240h11q50 118 169 189.5t271 71.5h32t30 -1v-123q-12 1 -28.5 3.5t-40.5 2.5q-128 0 -227.5 -55t-156.5 -151.5t-57 -220.5v-1012h-122zM-85 684v104h800v-104h-800z" />
    <glyph glyph-name="uni024E" unicode="&#x24e;" horiz-adv-x="1771" 
d="M1776 1619v-98h-1779v98h1779zM88 2048h148l645 -988h14l645 988h148l-737 -1119v-929h-126v929z" />
    <glyph glyph-name="uni024F" unicode="&#x24f;" horiz-adv-x="1503" 
d="M1348 1107v-104h-1203v104h1203zM340 -576q-46 0 -91 10t-81 26l36 107q95 -36 171 -26t135 70t101 176l69 192l-563 1557h131l488 -1379h11l488 1379h130l-648 -1797q-37 -104 -92.5 -174t-127 -105.5t-157.5 -35.5z" />
    <glyph glyph-name="uni0250" unicode="&#x250;" horiz-adv-x="1545" 
d="M885 1569q133 0 243.5 -53t177 -155t66.5 -248q0 -96 -34 -169t-105 -126t-182 -87.5t-264 -53.5q-118 -14 -209.5 -27.5t-144.5 -42.5t-53 -88v-64q0 -168 106 -267t293 -99q164 0 276.5 72.5t157.5 186.5l115 -43q-44 -110 -127.5 -183t-192 -109t-227.5 -36
q-102 0 -196 29t-167.5 88t-116 151t-42.5 218v1073h121v-277h9q40 86 110 156.5t167 112t219 41.5zM873 1456q-144 0 -255.5 -70.5t-174.5 -193.5t-63 -279v-226q24 20 67 35.5t98 27t114 20.5t116 15q168 20 273 61.5t154 108.5t49 162q0 157 -108.5 248t-269.5 91z" />
    <glyph glyph-name="uni0251" unicode="&#x251;" horiz-adv-x="1784" 
d="M807 -32q-196 1 -340 102t-223 280.5t-79 414.5q0 232 83 410t229 279.5t335 101.5q157 0 275 -66t195 -189t111 -296h42l30 -233l155 -772h-116l-159 825q-23 133 -66 245.5t-107.5 196t-153.5 130t-206 46.5q-154 0 -272.5 -87t-185.5 -240t-67 -352q0 -200 64 -354
t181 -241.5t275 -87.5q103 0 191 40.5t157 120t117.5 195t71.5 266.5l140 833h116l-135 -772l-28 -237h-37q-41 -202 -128.5 -325t-207.5 -178.5t-257 -55.5z" />
    <glyph glyph-name="uni0252" unicode="&#x252;" horiz-adv-x="1711" 
d="M1551 805v-58q0 -230 -71.5 -405.5t-206.5 -274t-328 -98.5q-116 0 -208 37.5t-159 106.5t-110.5 166.5t-64.5 217.5l2 487q26 175 98.5 304t191.5 200t280 71q184 0 312.5 -94.5t196 -264t67.5 -395.5zM1416 748v57q1 189 -51 332.5t-156 224.5t-264 81q-135 0 -231 -64
t-158.5 -179t-98.5 -272l2 -372q30 -139 88 -245t150 -166t224 -60q164 0 274.5 85.5t165.5 235t55 342.5zM473 0h-113v1263q0 94 -29.5 133t-81.5 39q-16 0 -32 -4t-29 -10l-24 103q27 19 56 27t63 8q99 0 155.5 -73.5t56.5 -222.5v-944z" />
    <glyph glyph-name="uni0253" unicode="&#x253;" horiz-adv-x="1695" 
d="M915 -32q-132 0 -229.5 50.5t-164 134t-102.5 182.5h-15v-335h-119v1741q0 85 20.5 148t59.5 104.5t95 62t128 20.5q26 0 55.5 -1.5t55.5 -6.5v-109q-22 3 -46.5 4.5t-44.5 1.5q-68 0 -112.5 -21t-66.5 -70t-22 -133v-548h12q35 99 101 182t164 133.5t229 50.5
q185 0 323 -102.5t214.5 -282t76.5 -410.5q0 -233 -76 -412.5t-213.5 -281.5t-322.5 -102zM904 81q158 0 270 90.5t171.5 245.5t59.5 348t-59.5 347t-171.5 243.5t-270 89.5q-156 0 -267.5 -88.5t-171.5 -242t-60 -349.5t60 -350.5t171.5 -244t267.5 -89.5z" />
    <glyph glyph-name="uni0254" unicode="&#x254;" horiz-adv-x="1455" 
d="M123 440h130q20 -101 86 -180.5t163 -125.5t210 -46q155 0 263.5 84.5t165 228.5t56.5 320v58q0 199 -57 348.5t-168 232.5t-273 83q-184 0 -297 -110.5t-149 -324.5h-130q24 176 99.5 299t196.5 187.5t280 64.5q199 0 340 -97.5t216.5 -272t75.5 -409.5v-59
q0 -212 -75.5 -382t-214.5 -268.5t-328 -98.5q-151 0 -277 62.5t-208.5 168.5t-104.5 237z" />
    <glyph glyph-name="uni0255" unicode="&#x255;" horiz-adv-x="1553" 
d="M832 -32q-199 0 -349.5 102.5t-235 282.5t-84.5 412q0 229 84.5 408.5t233.5 282.5t342 103q146 0 266.5 -60.5t200 -167.5t101.5 -247h-124q-30 157 -149 259t-294 102q-157 0 -279 -87t-191.5 -240.5t-69.5 -352.5q0 -201 69.5 -355.5t193 -241.5t285.5 -87v-113z
M132 -39l-93 70q49 72 116 162.5t149.5 181.5t180.5 167.5t210 123t237 46.5q121 0 209 -46.5t136 -125.5t48 -177q0 -117 -65 -206t-176.5 -139t-251.5 -50v113q159 0 265 79.5t106 199.5q0 104 -79.5 172t-192.5 68q-101 0 -198 -44.5t-187 -117.5t-167.5 -158.5
t-140.5 -169.5t-106 -149z" />
    <glyph glyph-name="uni0256" unicode="&#x256;" horiz-adv-x="1673" 
d="M1591 -573q-72 0 -128.5 20t-95.5 62t-59 104.5t-20 147.5v350h121v-350q0 -82 22 -131.5t67 -71t113 -21.5q20 0 44 2t46 5v-109q-25 -5 -55 -6.5t-55 -1.5zM780 -32q-185 0 -323 102t-213.5 281.5t-75.5 412.5q0 231 76.5 410.5t214.5 282t322 102.5q132 0 229.5 -50.5
t164 -133.5t101.5 -182h12v855h121v-2048h-118v335h-15q-37 -99 -103 -182.5t-164 -134t-229 -50.5zM791 81q156 0 267.5 89.5t171 244t59.5 350.5t-59.5 349.5t-171 242t-267.5 88.5q-158 0 -270.5 -89.5t-172 -243.5t-59.5 -347t59.5 -348t172 -245.5t270.5 -90.5z" />
    <glyph glyph-name="uni0257" unicode="&#x257;" horiz-adv-x="1655" 
d="M780 -32q-185 0 -323 102t-213.5 281.5t-75.5 412.5q0 231 76.5 410.5t214.5 282t322 102.5q132 0 229.5 -50.5t164 -133.5t101.5 -182h80l1 -858h-81q-37 -99 -103 -182.5t-164 -134t-229 -50.5zM1288 1744q0 85 20 147.5t59.5 104t96 61.5t128.5 20q25 0 55 -2t56 -7
v-111q-22 4 -47.5 5.5t-43.5 1.5q-68 0 -113 -20t-67.5 -68.5t-22.5 -131.5v-1744h-118v392l50 380l-53 341v631zM791 81q156 0 267.5 89.5t171 244t59.5 350.5t-59.5 349.5t-171 242t-267.5 88.5q-158 0 -270.5 -89.5t-172 -243.5t-59.5 -347t59.5 -348t172 -245.5
t270.5 -90.5z" />
    <glyph glyph-name="uni0258" unicode="&#x258;" horiz-adv-x="1456" 
d="M681 -28q-120 0 -222.5 36.5t-183 105.5t-134.5 166l100 52q69 -116 182 -180t256 -64q157 0 270.5 77t175.5 222.5t62 351.5v24q0 151 -35.5 276t-100 215.5t-154 139.5t-197.5 49q-132 0 -227 -70.5t-147.5 -203t-56.5 -318.5v-10h976v-116h-1110v83q0 232 68 400
t194 259.5t298 91.5q185 0 326 -102.5t220.5 -284.5t79.5 -420v-21q0 -178 -45.5 -318.5t-130 -238.5t-202.5 -150t-262 -52z" />
    <glyph glyph-name="uni0259" unicode="&#x259;" horiz-adv-x="1629" 
d="M777 1568q209 0 362.5 -103t237.5 -282t84 -408q0 -230 -84.5 -410t-232 -284t-337.5 -104q-130 0 -245 51.5t-204 148.5t-139.5 234t-50.5 308v76h1216v-111h-1093q0 -166 67.5 -300.5t185 -213.5t263.5 -79q152 0 271.5 85.5t189 231t72.5 323.5v50q0 193 -67 345
t-193 240.5t-303 88.5q-124 0 -214 -42.5t-147.5 -103.5t-86.5 -118l-110 45q34 77 108 153.5t186.5 127.5t263.5 51z" />
    <glyph glyph-name="uni025A" unicode="&#x25a;" horiz-adv-x="1767" 
d="M612 1545q188 0 327.5 -97t216.5 -270t77 -402v-23q0 -232 -79.5 -409t-213 -276t-295.5 -99q-186 0 -320 94t-206 258t-72 374v72l1073 188v-119l-939 -163v-18q0 -161 56.5 -290t161 -204.5t246.5 -75.5q97 0 179.5 48.5t144 136.5t96 209t34.5 266v26q0 194 -60 342.5
t-170 232t-261 83.5q-138 0 -240.5 -63t-182.5 -187l-90 66q56 93 131 160.5t171 103.5t215 36zM1163 844v119l237 42q13 -111 38 -188.5t67 -118.5t107 -42q26 -1 46.5 2t38.5 9l23 -92q-34 -14 -67.5 -22t-68.5 -8q-83 2 -139 43t-88.5 113.5t-45.5 169.5z" />
    </font>
</defs>
</svg>
